
//----- song ID: actu -----//
#TITLE:actualization of self (weaponized);
#ARTIST:kiraku;
#BANNER:actualization of self (weaponized).png;
#BACKGROUND:actualization of self (weaponized)-bg.png;
#CDTITLE:./CDTitles/DDR A20 PLUS.png;
#MUSIC:actualization of self (weaponized).ogg;
#SAMPLESTART:16.208;
#SAMPLELENGTH:15;
#BPMS:0=175;
#NOTES:
     dance-single:
     :
     Beginner:
     4:
     :
0000
0000
0000
0000
,
0000
0000
0000
0000
,
0000
0000
0000
0000
,
0000
0000
0000
0000
,
0000
0000
0000
0000
,
0000
0000
0000
0000
,
1001
0000
0000
0000
,
0110
0000
0000
0000
,
0001
0000
1000
0000
,
1001
0000
0000
0000
,
2000
0000
3000
0000
,
0020
0000
0030
0000
,
0001
0000
0010
0000
,
0001
0000
0001
0000
,
0100
0000
0010
0000
,
1000
0000
1000
0000
,
0001
0000
0100
0000
,
1000
0000
0000
0000
,
0100
0000
0010
0000
,
0001
0000
0001
0000
,
0100
0000
0010
0000
,
1000
0000
1000
0000
,
0001
0000
0010
0000
,
1000
0000
0010
0000
,
0001
0000
1000
0000
,
1001
0000
0000
0000
,
0001
0001
0001
0000
,
0010
0010
0010
0000
,
0100
0100
0100
0000
,
1000
1000
1000
0000
,
0010
0010
0010
0000
,
1000
1000
1000
0000
,
0001
0001
0001
0000
,
0010
0010
0010
0000
,
1001
0000
1001
0000
,
0010
0000
0001
0000
,
1001
0000
1001
0000
,
0010
0000
1000
0000
,
0100
0100
0100
0000
,
1000
1000
1000
0000
,
0010
0010
0010
0000
,
0001
0001
0001
0000
,
2002
0000
0000
0000
,
3003
0000
0000
0000
,
0220
0000
0000
0000
,
0330
0000
0000
0000
,
0010
0000
0010
0000
,
1000
0000
1000
0000
,
0001
0000
0001
0000
,
1001
0000
0000
0000
,
0001
0001
1000
0000
,
0001
0001
1000
0000
,
0001
0001
1000
0000
,
1001
0000
0000
0000
,
1000
1000
0001
0000
,
1000
1000
0001
0000
,
1000
1000
0001
0000
,
1001
0000
0000
0000
,
2002
0000
0000
0000
,
3003
0000
0000
0000
,
0010
0000
1000
0000
,
0010
0010
0010
0000
,
0100
0000
0001
0000
,
0100
0100
0100
0000
,
0001
0000
0010
0000
,
0100
0000
1000
0000
,
0010
0010
1000
0000
,
0100
0000
0100
0000
,
0010
0010
0001
0000
,
0100
0000
0100
0000
,
0001
0001
0010
0000
,
1000
0000
0010
0000
,
0001
0001
0100
0000
,
1000
0000
0100
0000
,
0001
0000
1000
0000
,
1001
0000
0000
0000
,
0000
0000
0000
0000
;
#NOTES:
     dance-single:
     :
     Easy:
     9:
     :
0000
0000
0000
0000
,
0000
0000
0000
0000
,
0000
0000
0000
0000
,
0000
0000
0000
0000
,
0000
0000
0000
0000
,
0000
0000
0000
0000
,
0110
0000
0000
0000
,
1001
0000
0000
0000
,
0110
0000
1001
0000
,
0010
1000
0100
0000
0010
0001
0100
0000
,
2002
0000
0000
0003
,
0200
0000
0000
3300
,
0001
0100
0001
0000
1000
0000
0010
0000
,
1000
0100
0010
0001
,
1000
0100
1000
0000
0010
0000
0100
0000
,
0010
1000
0001
0100
,
0001
1000
0001
0000
0010
0000
0100
0000
,
1000
0010
0100
0001
,
1000
0100
0010
0000
0001
0000
1000
0000
,
0010
1000
0001
0100
,
0010
1000
0001
0000
0010
0000
0001
0000
,
0100
0010
0100
0001
,
0010
0001
1000
0000
0100
0000
1000
0000
,
0010
0100
0001
1000
,
0001
0010
0100
0000
1000
0000
0010
0000
,
0100
0001
1001
0000
,
0001
0100
1000
0100
,
0001
0000
1000
0000
0100
0010
0100
0000
,
1000
0100
0001
0100
,
1000
0000
0100
0000
0010
0100
0010
0000
,
0001
0010
1000
0010
,
0001
0000
1000
0000
0010
0100
0010
0000
,
1000
0010
0001
0010
,
1000
0000
0010
0000
0100
0010
0100
0000
,
0001
0010
0001
0000
0010
0000
0001
0000
,
1000
0010
1000
0000
0010
0000
1000
0000
,
0001
0100
0001
0000
0100
0000
0001
0000
,
1000
0100
1000
0000
0100
0000
1000
0000
,
0010
0010
1000
1000
,
0100
0100
0001
0001
,
0010
0010
0100
0100
,
1100
0000
0101
0000
,
2002
0000
0000
3000
,
0020
0000
0000
0033
,
2002
0000
0000
0003
,
0020
0000
0000
3030
,
1000
0010
1000
0000
,
0001
0100
0001
0000
,
0010
0001
0010
0000
0100
1000
0100
0000
,
1000
0001
1001
0000
,
0010
0001
0100
1010
,
0100
0001
0010
1100
,
0001
1000
0100
0011
,
1000
1000
0001
0001
,
0100
1000
0010
0101
,
0010
1000
0100
0011
,
1000
0001
0010
1100
,
0002
0003
2000
3000
,
2002
0000
0000
3003
,
0220
0000
0000
0330
,
0010
1000
0100
0000
0010
0000
0001
0000
,
0100
0001
0010
0001
,
0100
0010
1000
0000
0100
0000
0010
0000
,
0001
0010
1000
0010
,
0001
0100
0010
0000
1000
0000
0100
0000
,
1000
0001
0100
0010
,
0100
0001
0010
0000
0100
0000
1000
0000
,
0010
0001
0010
1000
,
0001
0010
0100
0000
1000
0000
0010
0000
,
0100
0001
0010
0100
,
1000
0001
0100
0000
1000
0000
0100
0000
,
0010
1000
0100
0010
,
0001
1000
0100
0000
0001
0000
0100
0000
,
1000
0001
0010
0100
,
1100
0000
0101
0000
,
1001
0000
0000
0000
,
0000
0000
0000
0000
;
#NOTES:
     dance-single:
     :
     Medium:
     13:
     :
0000
0000
0000
0000
,
0000
0000
0000
0000
,
0000
0000
0000
0000
,
0000
0000
0000
0000
,
0000
0000
0000
0000
,
0000
0000
0000
0000
,
1001
0000
0000
0000
0000
0000
0000
0010
,
0100
0000
0000
0000
0000
0000
0000
0001
,
1000
0000
0000
0100
0010
0000
0000
0001
,
1000
0010
1000
0100
1000
0001
0010
0000
,
2002
0000
0000
3003
,
0220
0000
0000
0330
,
0001
0010
0001
0010
0100
1000
0100
1000
,
0001
0100
0001
0100
0010
1000
0010
1000
,
0001
1000
0001
1000
0100
0010
0100
0010
,
0001
0100
0001
0100
0010
1000
0010
1000
,
0001
0010
0001
0010
0001
0100
0001
0100
,
0010
1000
0010
1000
0100
1000
0100
0000
,
1000
0001
0010
0001
0100
0010
1000
0010
,
1000
0100
0010
0100
1000
0010
0100
0001
,
0010
0100
1000
0100
0010
0001
1000
0010
,
0100
0010
1000
0010
0100
0001
0010
0000
,
0001
0100
1000
0100
0001
0000
1001
0000
,
1000
0100
0001
0100
1000
0000
1001
0000
,
1010
0100
0011
0100
,
1010
0011
0220
0330
,
1000
0100
0010
0000
0001
0100
0010
0000
,
1000
0100
0010
0000
0001
0100
0010
0000
,
1000
0010
0100
0000
0001
0010
0100
0000
,
1000
0010
0100
0000
0001
0010
0100
0000
,
0010
0001
0100
0001
0010
0000
0110
0000
,
0100
1000
0010
1000
0100
0000
0110
0000
,
0001
0010
1000
0010
0001
0000
1001
0000
,
1000
0010
0001
0010
1000
0000
1001
0000
,
0001
0010
0001
0000
1000
0010
1000
0000
,
0001
0010
0001
0000
1000
0010
1000
0000
,
0001
0100
0001
0000
1000
0100
1000
0000
,
0001
0100
0001
0000
1000
0100
1000
0000
,
0100
0010
0001
0100
0010
1000
0010
0000
,
0100
0010
1000
0100
0010
0001
0010
0000
,
0001
0100
0001
0100
0001
1000
0010
1000
,
0100
0010
0100
0010
0001
1000
0001
0000
,
2002
0000
0000
3003
,
0220
0000
0000
0330
,
2002
0000
0000
3003
,
0220
0000
0000
0330
,
1000
0000
1000
0000
0100
0000
0100
0010
,
0001
0000
0001
0000
0100
0000
0100
0010
,
1000
0010
1000
0010
0001
0010
0001
0010
,
1000
0100
0001
0100
2000
0000
3000
0000
,
0001
0100
1000
0100
0001
0100
1000
0100
,
0001
1000
0100
0001
0100
1000
0100
0001
,
0100
0010
0001
0010
0100
1000
0100
0010
,
0001
0000
0000
0001
0000
0000
0001
0000
1000
0000
0000
1000
0000
0000
1000
0000
,
0001
0010
1000
0010
0001
0010
1000
0010
,
0001
1000
0010
0001
0010
1000
0010
0001
,
0010
0000
0000
0100
0000
0000
0001
0000
0010
0000
0000
0100
0000
0000
1000
0000
,
0001
0010
0001
1000
0100
1000
,
2002
0000
0000
3003
,
0100
0000
0000
0100
0000
0000
0100
0000
0010
0000
0000
0010
0000
0000
0010
0000
,
1000
0010
0100
0001
0010
0100
1000
0010
,
0100
0000
0000
0010
0000
0000
1000
0000
0001
0000
0000
0010
0000
0000
0100
0000
,
1000
0001
1000
0001
0100
0010
1000
0100
,
0010
0001
0010
0001
1000
0100
0001
0100
,
1000
0010
1000
0010
0100
0010
1000
0001
,
0010
0100
0010
0100
0010
1000
0010
0001
,
1000
0010
0100
0001
1000
0100
0010
0001
,
0010
0100
1000
0010
0100
0001
1000
0010
,
1000
0001
0010
0100
1000
0010
0100
0001
,
1000
0001
0010
0100
1000
0010
0100
0001
,
1000
0010
0001
0010
1000
0100
0010
0001
,
1000
0100
0001
0100
1000
0001
0100
0010
,
1000
0100
0001
0100
1000
0010
0001
0010
,
1000
0000
0000
1000
0000
0000
1000
0000
0001
0000
0000
0001
0000
0000
0001
0000
,
0100
0000
0010
1000
0000
0010
1000
0000
0100
0000
0010
0001
0000
0010
0001
0000
,
1001
0000
0000
0000
,
0000
0000
0000
0000
;
#NOTES:
     dance-single:
     :
     Hard:
     16:
     :
0000
0000
0000
0000
,
0000
0000
0000
0000
,
0000
0000
0000
0000
,
0000
0000
0000
0000
,
0000
0000
0000
0000
,
0000
0000
0000
0000
,
1001
0000
0000
0000
0000
0000
0000
0010
,
1000
0000
0000
0000
0000
0000
0000
0100
,
0001
0000
0000
1000
0100
0000
0000
0010
,
0001
0010
0100
1000
0001
0010
0100
1000
,
2002
0000
0000
0000
0000
0000
3003
0010
,
0220
0000
0000
0330
,
0001
0000
1000
0100
0000
1000
0100
0000
0010
0000
0001
0100
0000
0001
0100
0000
,
0010
0000
1000
0001
0000
1000
0001
0000
0100
0000
0001
1000
0000
0001
1000
0000
,
0100
0000
0010
0001
0000
0001
0100
0000
0010
0000
1000
0100
0000
0100
0010
0000
,
0001
0000
1000
0010
0000
0010
0100
0000
0001
0000
1000
0010
0000
0010
0100
0000
,
0001
0000
1000
0001
0000
0100
0010
0000
1000
0000
0100
0010
0000
0001
0100
0000
,
0010
0000
1000
0010
0000
0100
0001
0000
1000
0000
0100
0010
0000
0001
0100
0000
,
0001
0000
1000
0100
0000
0010
0100
0000
1000
0000
0010
0100
0000
0001
0100
0000
,
0010
0000
1000
0001
0000
0010
0001
0000
0100
0000
0010
1000
0000
0010
0100
0000
,
0001
0000
0010
0100
0000
1000
0100
0000
1000
0000
0010
0100
0000
0001
0100
0000
,
0001
0000
1000
0100
0000
0010
0001
0000
0011
0000
0000
0101
0000
0000
1001
0000
,
1000
0000
0010
0100
0000
0001
0100
0001
1000
0000
0100
0010
0000
0100
1000
0010
,
0100
0000
0001
1000
0000
0001
0100
0001
0010
0000
0100
1000
0000
0001
1000
0100
,
0010
0000
0000
0011
0000
0000
0011
0000
0100
0010
0000
1010
0000
0000
1010
0000
,
1000
0010
0100
0001
1000
0010
0100
0001
1000
0000
0001
1000
0000
1000
0001
0000
,
1000
0010
1000
0010
0000
0100
0010
0000
0100
0001
0100
0001
0000
1000
0001
0000
,
0010
0001
0010
0001
0000
0010
0100
0000
1000
0001
1000
0001
0000
1000
0010
0000
,
1000
0001
1000
0001
0000
0010
0001
0000
1000
0001
1000
0001
0000
0100
0001
0000
,
1000
0000
0001
1000
0000
1001
0000
0000
0010
0000
0100
0010
0000
0100
0010
0100
,
0001
0000
0000
0001
1000
0000
0100
0000
0010
0001
0010
0000
0100
1000
0100
0000
,
1000
0000
0000
1000
0010
0000
0100
0000
0001
0100
0001
0000
1000
0010
1000
0000
,
0100
0000
0000
0100
0010
0000
0001
0000
0100
0010
1000
0000
0010
0100
0001
0000
,
1000
0000
0000
1000
0001
0000
0100
0000
0010
1000
0001
0000
1000
0001
0100
0000
,
0001
0010
0001
0000
1000
0010
1000
0000
0001
0010
0001
0000
1000
0010
1000
0000
,
0001
0100
0001
0000
1000
0100
1000
0000
0001
0100
0001
0000
1000
0100
1000
0000
,
0001
0010
0001
0000
0100
0001
0100
0000
0001
0010
0001
0000
0100
0001
0100
0000
,
0010
1000
0010
0000
1000
0100
1000
0000
0010
1000
0010
1000
0000
1000
0100
0000
,
1100
0000
0000
0100
0010
0000
0001
0000
0101
0000
0000
0100
0010
0000
1000
0001
,
1000
0000
0000
1000
0010
0000
0100
0000
0101
0000
0001
0000
0010
0000
0001
0010
,
0001
0000
0010
0100
1000
0000
0001
0000
1000
0010
0100
0001
1000
0100
0010
0001
,
1000
0000
0010
0100
0000
0010
0100
0000
0001
0010
0000
0100
0000
0010
0100
0000
,
2000
0000
0000
0000
,
3020
0000
0000
0000
0000
0000
0000
0000
0000
0000
0000
0000
1030
0000
0001
1000
,
0002
0000
0000
0000
,
0203
0000
0000
0000
0000
0000
0000
0000
0000
0000
0310
0000
0000
0000
0010
0100
,
0010
1000
0010
0000
1000
0100
1000
0000
,
0001
0010
0001
0000
0100
0001
0100
0000
,
0010
1000
0010
1000
0010
1000
0010
1000
0100
1000
0100
1000
0100
1000
0100
1000
,
0001
0010
0001
0010
0001
0100
0001
0100
0020
0000
0000
0000
0030
0000
0000
0000
,
1000
0000
0010
0000
0001
0000
0010
0000
1000
0000
0001
0000
0100
0000
1000
0100
,
0001
1000
0100
0001
0100
0010
0001
1000
,
0001
0000
0010
0000
0001
0000
0100
0000
0001
0000
0010
0000
0001
0000
1000
0010
,
0001
0000
0010
1000
0000
0010
1000
0001
1000
0000
0001
0100
0000
0001
0010
0001
,
0010
0000
1000
0000
0010
0000
0001
0000
1000
0000
0100
0000
0010
0001
0100
0010
,
1000
0000
0001
0000
0100
0000
0010
0000
1000
0001
1000
0000
0010
0000
0010
0100
,
0010
0000
0000
1010
0000
0000
1001
0000
0010
0000
0000
0011
0000
0000
1001
0000
,
1000
0010
1000
0010
0100
0001
0010
0001
0010
0100
1000
0100
,
2000
0000
0000
0000
,
3001
0000
0000
0010
0000
0000
0100
0000
1000
0001
1000
0001
0000
0000
1000
0000
,
0001
0000
0100
0010
0000
1000
0100
0000
0010
0000
0001
1000
0000
0001
0010
0000
,
0100
0000
0000
1100
0000
0000
1010
0000
0100
0000
0000
0101
0000
0000
0011
0000
,
1000
0000
0001
0100
0000
0001
0100
0000
0010
0000
1000
0001
0000
1000
0001
0000
,
0010
0000
0100
1000
0000
0100
1000
0000
0100
0000
0010
0001
0000
0010
0001
0000
,
1000
0000
0001
0100
0000
0100
0001
0000
1000
0000
0001
0010
0000
0010
0001
0000
,
1000
0000
0010
0100
0000
0100
0010
0000
1000
0000
0100
0010
0000
0010
0100
0000
,
1000
0000
0001
0100
0000
0001
0010
0100
1000
0000
0001
1000
0000
0001
0100
0010
,
1000
0000
0100
0010
0000
0100
1000
0001
0010
0000
0001
1000
0000
0010
0100
0001
,
1000
0000
0100
0010
0000
0010
0001
1000
0010
0000
0100
0001
0000
0001
1000
0100
,
1000
0000
0001
0100
0000
0100
0010
1000
0100
0000
0010
0001
0000
0001
0100
0010
,
1000
0000
0001
0100
0000
0001
0010
0000
0100
0000
1000
0010
0000
1000
0100
0000
,
0010
0000
0001
0100
0000
0100
1000
0000
0001
0000
0001
0010
0000
0010
1000
0000
,
1001
0000
0100
0010
0000
0010
0100
0000
1001
0000
0010
0100
0000
0100
0010
0000
,
0110
0000
0000
1000
0000
0000
0001
0000
0110
0000
0001
1000
0000
1000
0001
0000
,
1000
0100
1000
0100
0000
0001
0100
0000
1000
0010
1000
0010
0000
0001
0010
0000
,
1001
0000
0000
0000
,
0000
0000
0000
0000
;
#NOTES:
     dance-double:
     :
     Easy:
     8:
     :
00000000
00000000
00000000
00000000
,
00000000
00000000
00000000
00000000
,
00000000
00000000
00000000
00000000
,
00000000
00000000
00000000
00000000
,
00000000
00000000
00000000
00000000
,
00000000
00000000
00000000
00000000
,
00011000
00000000
00000000
00000000
,
00011000
00000000
00000000
00000000
,
00011000
00000000
00011000
00000000
,
00010000
00100000
10000000
00010000
,
20020000
00000000
00000000
30030000
,
20200000
00000000
00000000
30300000
,
01000000
00100000
01000000
00000000
00010000
00000000
10000000
00000000
,
00100000
01000000
00010000
00100000
,
00001000
00010000
00001000
00000000
00010000
00000000
00000100
00000000
,
00001000
00000010
00000100
00000001
,
00000010
00000100
00000010
00000000
00000100
00000000
00001000
00000000
,
00000010
00000100
00001000
00010000
,
00001000
00010000
00001000
00000000
00100000
00000000
00010000
00000000
,
01000000
00100000
00010000
00001000
,
00100000
00010000
00100000
00000000
00001000
00000000
00010000
00000000
,
00000100
00001000
00000010
00000100
,
00001000
00010000
00001000
00000000
00000010
00000000
00000001
00000000
,
00001000
00000100
00010000
00001000
,
01000000
00010000
00100000
00000000
01000000
00000000
10000000
00000000
,
00100000
01000000
01100000
00000000
,
10000000
01000000
10000000
01000000
,
00100000
00010000
00100000
00001000
,
00010000
00000100
00001000
00000100
,
00000010
00000001
00000010
00000010
,
00000001
00000100
00000001
00000100
,
00000010
00001000
00000010
00010000
,
00001000
00010000
00001000
01000000
,
00010000
01000000
00100000
00100000
,
10000000
00010000
10000000
00000000
01000000
00000000
00100000
00000000
,
00001000
00010000
00001000
00000000
00010000
00000000
00000100
00000000
,
00001000
00000001
00001000
00000000
00000010
00000000
00001000
00000000
,
00000100
00000010
00000100
00000000
00000010
00000000
00000001
00000000
,
00000100
00001000
00010000
00010000
,
00001000
00100000
00010000
00010000
,
01000000
00100000
10000000
10000000
,
11000000
00000000
00110000
00000000
,
02200000
00000000
00000000
03300000
,
00202000
00000000
00000000
00303000
,
00022000
00000000
00000000
00033000
,
00020200
00000000
00000000
00030300
,
00001000
00000100
00000010
00000000
,
00000001
00000100
00000010
00000000
,
00001000
00000010
00010000
00001000
,
00010000
00001000
00010000
00001000
00010000
00000000
00000000
00000000
,
00001000
01000000
00010000
01100000
,
10000000
01000000
00100000
01010000
,
01000000
00001000
00010000
00001000
,
00010000
00010000
00011000
00000000
,
00001000
00010000
00000100
00001010
,
00000100
00000001
00001000
00000110
,
00000001
00001000
00000100
00010000
,
00001000
00001000
00001000
00000000
,
00022000
00000000
00000000
00000000
,
00000000
00000000
00000000
00033000
,
01000000
00010000
00100000
00000000
01000000
00000000
10000000
00000000
,
00100000
00010000
00001000
00010000
,
00000100
00000000
00001000
00000100
00000010
00000000
00000001
00000000
,
00000100
00000010
00001000
00000100
,
00010000
00000000
00001000
00100000
00010000
00000000
01000000
00000000
,
00100000
00010000
00001000
00000100
,
00000010
00001000
00000100
00000000
00000010
00000000
00000001
00000000
,
00001000
00000100
00010000
00001000
,
00100000
00010000
10000000
00000000
00100000
00000000
01000000
00000000
,
10000000
01000000
00010000
00100000
,
01000000
00100000
00010000
00000000
00100000
00000000
00001000
00000000
,
00010000
00000100
00001000
00000100
,
00000010
00000001
00000100
00000000
00001000
00000000
00000100
00000000
,
00000001
00001000
00000100
00010000
,
00011000
00000000
00110000
00000000
,
01100000
00000000
00000000
00000000
,
00000000
00000000
00000000
00000000
;
#NOTES:
     dance-double:
     :
     Medium:
     13:
     :
00000000
00000000
00000000
00000000
,
00000000
00000000
00000000
00000000
,
00000000
00000000
00000000
00000000
,
00000000
00000000
00000000
00000000
,
00000000
00000000
00000000
00000000
,
00000000
00000000
00000000
00000000
,
00001001
00000000
00000000
00000000
00000000
00000000
00000000
00000010
,
00000100
00000000
00000000
00000000
00000000
00000000
00000000
00000100
,
00001000
00000000
00000000
00001000
00010000
00000000
00000000
00010000
,
00100000
10000000
00100000
00000000
01000000
00010000
01000000
00000000
,
20020000
00000000
00000000
30030000
,
02200000
00000000
00000000
03300000
,
10000000
01000000
10000000
01000000
00100000
00010000
00100000
00000000
,
00001000
00010000
00001000
00010000
00000100
00001000
00000100
00000000
,
00000010
00000001
00000010
00000001
00000100
00000001
00000100
00000000
,
00000010
00001000
00000010
00001000
00000100
00010000
00000100
00000000
,
00010000
00001000
00010000
00001000
00100000
00010000
00100000
00000000
,
01000000
10000000
01000000
10000000
00100000
01000000
00100000
00000000
,
10000000
00100000
01000000
00010000
00100000
01000000
00100000
00000000
,
00001000
00010000
00000100
00001000
00000100
00000010
00000001
00000000
,
00000100
00000010
00001000
00000010
00001000
00000100
00010000
00000000
,
00001000
00100000
00010000
00100000
01000000
00100000
00010000
00000000
,
10000000
01000000
00100000
00000000
00010000
01000000
00100000
00000000
,
00010000
00001000
00010000
00000000
00000010
00001000
00000100
00000000
,
00000011
00000001
00001010
00001000
,
00001001
00000110
00002002
00003003
,
00000001
00000100
00000001
00000000
00001000
00000100
00001000
00000000
,
00000010
00000100
00000010
00000000
00010000
00001000
00010000
00000000
,
00001000
00100000
00001000
00000000
00100000
00010000
00100000
00000000
,
01000000
00100000
01000000
00000000
00100000
00010000
00100000
00000000
,
01100000
00000000
01000000
10000000
00100000
01000000
00010000
00000000
,
00110000
00000000
00100000
00001000
00010000
00000010
00001000
00000000
,
00001010
00000000
00000100
00000001
00000010
00000100
00001000
00000000
,
00001100
00000000
00000100
00010000
00001000
00100000
00010000
00000000
,
00100000
00001000
00100000
00000000
00001000
01000000
00001000
00000000
,
00010000
00000100
00010000
00000000
00000010
00010000
00000010
00000000
,
00010000
00000100
00001000
00000000
00000100
00010000
00001000
00000000
,
00010000
00001000
00100000
00000000
00010000
00100000
00001000
00000000
,
00010000
00000100
00001000
00000100
00000010
00000001
00000010
00000000
,
00000001
00000100
00000010
00000100
00001000
00010000
00001000
00000000
,
00100000
00010000
00100000
01000000
00100000
10000000
00100000
00000000
,
01000000
10000000
01000000
00100000
00010000
00100000
00001000
00000000
,
00022000
00000000
00000000
00033000
,
00002020
00000000
00000000
00003030
,
00000220
00000000
00000000
00000330
,
00000202
00000000
00000000
00000303
,
00000010
00000100
00000010
00000000
00001000
00000000
00000010
00000000
,
00010000
00001000
00010000
00000000
00001000
00000000
01000000
00000000
,
00010000
00100000
00010000
00100000
10000000
00100000
10000000
00100000
,
00010000
10000000
01000000
00100000
00020000
00000000
00030000
00000000
,
00001000
00000010
00000001
00000010
00001000
00000010
00000001
00000000
,
00000100
00000010
00001000
00000000
00000100
00000010
00000001
00000000
,
00000001
00000100
00001000
00000100
00000001
00000100
00001000
00000000
,
00010000
00000000
00000000
00010000
00000000
00000000
00010000
00000000
00001000
00000000
00000000
00001000
00000000
00000000
00001000
00000000
,
00010000
00100000
10000000
00100000
00010000
00100000
10000000
00000000
,
01000000
00100000
00010000
00000000
01000000
00100000
10000000
00000000
,
10000000
00000000
00000000
01000000
00000000
00000000
00010000
00000000
01000000
00000000
00000000
10000000
00000000
00000000
01000000
00000000
,
00010000
00001000
00000010
00000001
00000100
00001000
,
00022000
00000000
00000000
00033000
,
00001000
00000000
00000000
00001000
00000000
00000000
00001000
00000000
00010000
00000000
00000000
00010000
00000000
00000000
00010000
00000000
,
00001000
00000010
00000100
00001000
00000001
00000100
00001000
00000100
,
00000001
00000000
00000000
00001000
00000000
00000000
00000100
00000000
00010000
00000000
00000000
00001000
00000000
00000000
00100000
00000000
,
00010000
01000000
00100000
10000000
01000000
00010000
01000000
10000000
,
00100000
01000000
00010000
00100000
00001000
00010000
00000100
00001000
,
00000010
00010000
00001000
00010000
00000100
00001000
00000100
00000010
,
00000001
00001000
00000001
00001000
00000001
00000010
00001000
00000010
,
00000001
00000100
00000010
00001000
00000100
00010000
00001000
00010000
,
01000000
00100000
00001000
00100000
00010000
10000000
00100000
01000000
,
00010000
10000000
00100000
01000000
00010000
10000000
01000000
00100000
,
00001000
00010000
00001000
00000010
00000100
00001000
00000100
00000001
,
00000100
00001000
00000010
00000100
00001000
00010000
00001000
00100000
,
00010000
01000000
00010000
00100000
01000000
10000000
00100000
10000000
,
00010000
01000000
00010000
00100000
00001000
00010000
00001000
00000100
,
00000010
00000000
00000000
00000010
00000000
00000000
00000010
00000000
00000100
00000000
00000000
00000100
00000000
00000000
00000100
00000000
,
00000001
00000000
00000010
00000100
00000000
00000010
00000100
00000000
00001000
00000000
00000100
00010000
00000000
00000100
00010000
00000000
,
00011000
00000000
00000000
00000000
,
00000000
00000000
00000000
00000000
;
#NOTES:
     dance-double:
     :
     Hard:
     16:
     :
00000000
00000000
00000000
00000000
,
00000000
00000000
00000000
00000000
,
00000000
00000000
00000000
00000000
,
00000000
00000000
00000000
00000000
,
00000000
00000000
00000000
00000000
,
00000000
00000000
00000000
00000000
,
00011000
00000000
00000000
00000000
00000000
00000000
00000000
00010000
,
00100000
00000000
00000000
00000000
00000000
00000000
00000000
00100000
,
10000000
00000000
00000000
10000000
01000000
00000000
00000000
01000000
,
00100000
00010000
00100000
00001000
00010000
00000100
00001000
00000010
,
00000220
00000000
00000000
00000330
,
00002002
00000000
00000000
00003003
,
00000010
00000000
00000001
00000100
00000000
00000001
00000100
00000000
00000010
00000000
00001000
00000100
00000000
00001000
00000100
00000000
,
00010000
00000000
00001000
00010000
00000000
00001000
00010000
00000000
00001000
00000000
01000000
00000000
00010000
00000000
00100000
00000000
,
01000000
00000000
10000000
00100000
00000000
10000000
00100000
00000000
01000000
00000000
00010000
00100000
00000000
00010000
00100000
00000000
,
00001000
00000000
00010000
00001000
00000000
00010000
00001000
00000000
00000010
00000000
00000100
00000000
00001000
00000000
00000001
00000000
,
00000100
00000000
00000010
00001000
00000000
00000010
00000100
00000000
00000001
00000000
00000010
00000100
00000000
00001000
00000100
00000000
,
00010000
00000000
00001000
01000000
00000000
00010000
01000000
00000000
00100000
00000000
10000000
00000000
00010000
00000000
00100000
00000000
,
01000000
00000000
10000000
00010000
00000000
10000000
00010000
00000000
01000000
00000000
00100000
01000000
00000000
00100000
01000000
00000000
,
00010000
00000000
00100000
00001000
00000000
00100000
00001000
00000000
00010000
00000000
00000100
00000000
00000010
00000000
00000001
00000000
,
00000100
00000000
00000010
00000100
00000000
00000010
00000100
00000000
00000001
00000000
00001000
00000001
00000000
00001000
00000001
00000000
,
00000100
00000000
00000010
00010000
00000000
00000010
00010000
00000000
00001000
00000000
00000000
01000000
00000000
00000000
01100000
00000000
,
00100000
00000000
10000000
00010000
00100000
00000000
01000000
00000000
00100000
00000000
00010000
00100000
00001000
00000000
00010000
00000000
,
00000010
00000000
00001000
00000001
00000100
00000000
00000010
00000000
00001000
00000000
00000100
00010000
00001000
00000000
00010000
00000000
,
01000000
00000000
00000000
10000000
00000000
00000000
10100000
00000000
00010000
00001000
00000000
00011000
00000000
00000000
00010100
00000000
,
00001000
00000100
00000010
00000000
00000001
00000100
00000010
00000000
00000100
00000000
00000010
00000100
00000000
00000100
00000010
00000000
,
00001000
00000000
00000001
00000100
00000000
00000010
00001000
00000000
00000100
00000000
00010000
00001000
00000000
00100000
00010000
00000000
,
01000000
00000000
00100000
10000000
00000000
01000000
00100000
00000000
00010000
00000000
10000000
01000000
00000000
00100000
00010000
00000000
,
01000000
00000000
00100000
10000000
00000000
00100000
00010000
00000000
00100000
00000000
01000000
10000000
00000000
01000000
00010000
00000000
,
00100000
00000000
01000000
00010000
00000000
00001000
00010000
00000000
00001000
00000000
00000100
00001000
00000000
00010000
00001000
00000000
,
00011000
00000000
00000000
00001000
00000010
00000000
00000001
00000000
00000100
00001000
00000100
00000000
00001000
00010000
00001000
00000000
,
00011000
00000000
00000000
00010000
00100000
00000000
10000000
00000000
01000000
10000000
01000000
00000000
00010000
01000000
00010000
00000000
,
00011000
00000000
00000000
00000010
00000100
00000000
00001000
00000000
00000001
00000100
00001000
00000000
00010000
00000000
00100000
00000000
,
01100000
00000000
00000000
00100000
01000000
00000000
00010000
00000000
10000000
01000000
00010000
00000000
00001000
00000000
00000010
00000000
,
00000001
00000100
00000001
00000000
00000100
00000001
00000100
00000000
00000010
00001000
00000010
00000000
00010000
00001000
00010000
00000000
,
00001000
01000000
00001000
00000000
01000000
00010000
01000000
00000000
00010000
00100000
00010000
00000000
00100000
00000000
00010000
00000000
,
10000000
01000000
10000000
00000000
01000000
10000000
01000000
00000000
00100000
00010000
00100000
00000000
00001000
00010000
00001000
00000000
,
00010000
00000100
00010000
00000000
00000100
00001000
00000100
00000000
00001000
00000010
00001000
00000010
00000000
00000010
00001000
00000000
,
00000001
00000000
00001000
00000010
00000000
00001000
00000100
00000000
00010000
00000000
00001000
01000000
00000000
00010000
01000000
00000000
,
00100000
00000000
10000000
01000000
00000000
00100000
00010000
00000000
01000000
00000000
00001000
00010000
00000000
00000100
00001000
00000000
,
00000010
00000000
00001000
00000100
00000010
00000000
00000001
00000000
00000100
00000010
00000100
00000010
00001000
00000010
00001000
00000000
,
00000100
00000000
00010000
00001000
00000000
00001000
00010000
00000000
00001000
00010000
00000000
01000000
00000000
10000000
01000000
00000000
,
20000000
00000000
00000000
00000000
,
30020000
00000000
00000000
00000000
00000000
00000000
00000000
00000000
00000000
00000000
00000000
00000000
00130000
00000000
00001000
00010000
,
00002000
00000000
00000000
00000000
,
00003020
00000000
00000000
00000000
00000000
00000000
00000000
00000000
00000000
00000000
00000031
00000000
00000000
00000000
00000001
00001000
,
00000001
00000010
00000100
00000000
00001000
00000010
00000100
00000000
,
00000010
00001000
00000100
00000000
00010000
00001000
00100000
00000000
,
00010000
01000000
00010000
00000000
10000000
01000000
10000000
00000000
00010000
00100000
00010000
00000000
00100000
00001000
00100000
00000000
,
00001000
00010000
00001000
00000000
00010000
00000100
00010000
00000100
00002000
00000000
00000000
00000000
00003000
00000000
00000000
00000000
,
00000001
00000100
00001000
00000100
00000001
00000010
00001000
00010000
,
01000000
10000000
00100000
00010000
10000000
01000000
00010000
10000000
,
01000000
00100000
00010000
00100000
00001000
00010000
00001000
00000010
,
00000001
00000000
00001000
00000100
00000000
00000100
00001000
00000000
00000010
00000000
00000100
00001000
00000000
00001000
00010000
00000000
,
00100000
00000000
10000000
00000000
00010000
00000000
01000000
00000000
10000000
00000000
01000000
00000000
00010000
10000000
00010000
10000000
,
00010000
00000000
00100000
00000000
00001000
00000000
01000000
00000000
00010000
00100000
00010000
00000000
01000000
00000000
00001000
00010000
,
00001000
00000000
00010000
00000100
00000000
00001000
00000010
00000000
00000100
00000000
00000001
00000010
00000000
00000100
00001000
00000000
,
00000001
00000010
00000001
00000010
00000100
00001000
00000100
00010000
00001000
00010000
00001000
01000000
,
00020000
00000000
00000000
00000000
,
01030000
00000000
00000000
00100000
00000000
00000000
01000000
00000000
00010000
10000000
00010000
10000000
00000000
00000000
10000000
00000000
,
01000000
00000000
00100000
00010000
00000000
00100000
00001000
00000000
00010000
00000000
00000100
00001000
00000000
00000010
00000100
00000000
,
00000001
00000000
00000000
00000011
00000000
00000000
00000101
00000000
00001000
00000000
00000000
00001010
00000000
00000000
00001100
00000000
,
00010000
00000000
00001000
01000000
00000000
00010000
01000000
00000000
00100000
00000000
10000000
00010000
00000000
00100000
01000000
00000000
,
10000000
00000000
00100000
01000000
00000000
00010000
01000000
00000000
00010000
00000000
00100000
00001000
00000000
00010000
00001000
00000000
,
00000010
00000000
00000001
00001000
00000000
00001000
00000001
00000000
00000100
00000000
00000001
00001000
00000000
00001000
00000001
00000000
,
00000100
00000000
00000010
00010000
00000000
00010000
00001000
00000000
00100000
00000000
00010000
01000000
00000000
01000000
00100000
00000000
,
10000000
00000000
01000000
00100000
00000000
00010000
10000000
00000000
00100000
00000000
00010000
00001000
00000000
00010000
00000010
00000000
,
00001000
00000000
00000100
00000010
00000000
00000001
00001000
00000000
00000001
00000000
00000100
00001000
00000000
00010000
00001000
00000000
,
00100000
00000000
01000000
00010000
00000000
00001000
00010000
00000000
00100000
00000000
10000000
00010000
00000000
00100000
01000000
00000000
,
10000000
00000000
01000000
00010000
00000000
00001000
00010000
00000000
00001000
00000000
00000100
00000010
00000000
00001000
00000001
00000000
,
00000100
00000000
00000001
00000100
00000000
00001000
00010000
00000000
00100000
00000000
10000000
01000000
00000000
00100000
00010000
00000000
,
10000000
00000000
01000000
00010000
00000000
00001000
00000010
00000000
00000001
00000000
00001000
00000010
00000000
00000100
00000001
00000000
,
00000010
00000000
00000100
00010000
00000000
00001000
01000000
00000000
00010000
00000000
00100000
00001000
00000000
00010000
00000010
00000000
,
00000100
00000000
00001000
00010000
00000000
00100000
10000000
00000000
01000000
00000000
00010000
00001000
00000000
00000010
00000001
00000000
,
00000100
00000010
00000100
00000010
00000000
00000100
00001000
00000000
00010000
00100000
00010000
00100000
00000000
01000000
00100000
00000000
,
10010000
00000000
00000000
00000000
,
00000000
00000000
00000000
00000000
;
