
//----- song ID: zass -----//
#TITLE:雑草魂なめんなよ!;
#ARTIST:Taiki;
#TITLETRANSLIT:Zassou tamashii namen na yo!;
#SOURCE:TVアニメ「八十亀ちゃんかんさつにっき 3さつめ」;
#BANNER:Zassou tamashii namen na yo!.png;
#BACKGROUND:Zassou tamashii namen na yo!-bg.png;
#CDTITLE:./CDTitles/DDR A20 PLUS.png;
#MUSIC:Zassou tamashii namen na yo!.ogg;
#SAMPLESTART:47.866;
#SAMPLELENGTH:15;
#BPMS:0=145;
#NOTES:
     dance-single:
     :
     Beginner:
     2:
     :
0000
0000
0000
0000
,
0000
0000
0000
0000
,
0000
0000
0000
0000
,
0000
0000
0000
0000
,
0000
0000
0000
0000
,
0000
0000
0000
0000
,
1000
0000
0100
0000
,
0010
0000
0010
0000
,
0001
0000
0100
0000
,
0001
0000
0000
0000
,
0010
0000
0001
0000
,
0100
0000
0100
0000
,
0010
0000
1000
0000
,
0100
0000
0000
0000
,
0010
0000
1000
0000
,
0100
0000
0100
0000
,
0010
0000
0001
0000
,
0100
0000
0000
0000
,
0002
0000
0000
0000
,
0003
0000
0000
0000
,
0020
0000
0000
0000
,
0030
0000
0000
0000
,
0200
0000
0000
0000
,
0300
0000
0000
0000
,
1000
0000
1000
0000
,
1001
0000
0000
0000
,
1001
0000
0000
0000
,
1001
0000
0000
0000
,
0010
0000
0010
0000
,
1000
0000
1000
0000
,
0010
0010
0010
0000
,
0100
0000
0100
0000
,
0001
0001
0001
0000
,
1000
0000
1000
0000
,
0100
0100
0100
0000
,
0010
0000
0010
0000
,
0001
0001
0001
0000
,
1001
0000
0000
0000
,
1001
0000
0000
0000
,
0010
0000
0001
0000
,
1000
0000
0100
0000
,
2002
0000
0000
0000
,
3003
0000
0000
0000
,
0000
0000
0000
0000
;
#NOTES:
     dance-single:
     :
     Easy:
     5:
     :
0000
0000
0000
0000
,
0000
0000
0000
0000
,
0000
0000
0000
0000
,
0000
0000
0000
0000
,
0000
0000
0000
0000
,
0000
0000
0000
0000
,
1000
0000
0010
0000
,
0100
0001
0100
0000
,
0001
0000
0010
0000
,
0100
1000
0100
0000
,
1000
0000
0100
0000
,
0001
0001
1000
1000
,
0010
0000
0100
0000
,
0001
0010
1000
0000
,
0001
0000
0100
0000
,
1000
1000
0001
0001
,
0010
0000
0100
0000
,
1000
0010
0001
0000
,
1000
0000
1000
0000
,
0001
0000
0001
0000
,
0010
0000
0010
0000
,
0100
0100
0100
0100
,
1000
0000
0001
0000
,
0100
0000
0010
0000
,
1000
0001
1000
0000
,
1001
0000
1001
0000
,
0010
0100
0010
0000
,
0110
0000
0110
0000
,
0100
0100
0100
0100
,
0001
0010
0001
1000
,
0100
1000
0020
0030
,
1000
0010
0100
0001
,
0010
0010
0100
0100
,
1000
0100
1000
0001
,
0010
0001
0100
0000
,
0001
0100
0010
1000
,
0100
0010
0220
0330
,
0001
1000
1001
0000
,
0010
0100
0110
0000
,
0010
1000
0010
1000
,
0001
0100
0001
0100
,
0010
1000
0100
0010
,
0002
0000
0000
0003
,
0000
0000
0000
0000
;
#NOTES:
     dance-single:
     :
     Medium:
     8:
     :
0000
0000
0000
0000
,
0000
0000
0000
0000
,
0000
0000
0000
0000
,
0000
0000
0000
0000
,
0000
0000
0000
0000
,
0000
0000
0000
0000
,
1000
0000
0100
1000
0010
0000
0100
0001
,
0010
0100
2002
3003
,
0100
0001
0100
0000
0010
0000
0010
0000
,
1000
0000
0000
1000
0000
0000
2000
0000
0000
0000
0000
0000
3000
0000
0000
0000
,
1000
0010
1000
0100
,
0010
0001
0010
0000
0100
1000
0100
0000
,
1000
0001
0100
0010
,
1000
0001
2002
3003
,
0001
0010
0001
0100
,
0010
1000
0010
0000
0100
0001
0100
0000
,
0001
1000
0100
0010
,
0001
0100
0001
0000
1000
0100
1000
0000
,
0010
0000
1000
0010
2000
0000
3000
0000
,
0001
0000
0010
0001
0020
0000
0030
0000
,
0100
0000
1000
0100
2000
0000
3000
0000
,
0010
0010
0100
0100
,
0001
0000
0100
0001
0200
0000
0300
0000
,
0010
0100
2002
3003
,
1000
1000
0001
0001
,
1001
0000
0110
0000
,
1001
1001
0110
0110
,
1001
0000
0110
0000
,
1000
0001
1000
0001
,
1000
0000
0100
0000
0010
0001
1000
0000
,
0001
0010
0100
0010
0002
0000
0003
0000
,
0010
0000
0100
0000
0010
0001
0100
0000
,
0110
1001
0110
1001
,
0001
0000
0100
0000
0010
1000
0001
0000
,
1000
0010
0100
0010
2000
0000
3000
0000
,
0100
0000
0010
0000
0001
1000
0001
0000
,
0100
0010
0100
0000
2002
0000
3003
0000
,
0010
1000
2200
3300
,
0010
0001
0202
0303
,
0010
0010
1010
1010
,
0100
0100
0101
0101
,
0100
0001
0010
0000
0100
1000
0010
0000
,
2002
0000
0000
3003
,
0000
0000
0000
0000
;
#NOTES:
     dance-single:
     :
     Hard:
     11:
     :
0000
0000
0000
0000
,
0000
0000
0000
0000
,
0000
0000
0000
0000
,
0000
0000
0000
0000
,
0000
0000
0000
0000
,
0000
0000
0000
0000
,
0001
0000
0000
0001
0010
0000
0010
0000
0100
0000
0000
0100
0010
0000
0010
0000
,
0001
0010
1000
0010
0002
0000
1003
0000
,
0000
0000
0001
1000
0001
0000
1000
0000
0100
0000
0000
0100
0000
0000
0100
0000
,
0010
0000
0000
0010
0000
0000
2002
0000
0000
0000
0000
0000
3003
0000
0000
0000
,
0000
0000
0010
0000
0100
0000
0010
0000
1000
0000
0000
1000
0000
0000
1000
0000
,
0001
0010
0100
1000
0001
0010
0100
1000
,
0000
0000
1000
0000
0010
0000
0001
0000
0010
0000
0000
0100
0000
0000
0010
0000
,
1010
0101
2002
3003
,
0000
0000
0100
0000
0010
0000
0100
0000
0001
0000
0000
0001
0000
0000
0001
0000
,
1000
0100
0010
0001
1000
0100
0010
0001
,
0000
0000
0001
0000
0100
0000
1000
0000
0100
0000
0000
0010
0000
0000
0100
0000
,
0001
0100
0001
0100
0010
1000
0010
1000
,
0001
0000
0000
0001
1000
0000
0100
0000
0000
0000
0010
0000
0010
0000
0000
0000
,
0001
0000
0000
0001
1000
0000
0010
0000
0000
0000
0100
0000
0100
0000
0000
0000
,
1000
0000
0000
1000
0001
0000
0100
0000
0000
0000
0010
0000
0010
0000
0000
0000
,
2000
3002
0203
0320
,
1030
0000
0000
1000
0001
0000
0100
0000
0000
0000
0010
0000
0010
0000
0000
0000
,
0001
0000
0000
0001
1000
0000
0010
0000
0000
0000
0100
0000
0100
0000
0000
0000
,
0001
0000
1000
0000
0011
0000
1100
0010
,
0100
0000
0000
0001
1000
0000
0000
0010
,
0100
0000
0000
0100
0010
0000
0100
0000
0010
0000
0000
0010
0100
0000
0010
0000
,
0100
0000
0000
0001
1000
0000
0000
0000
,
0101
0101
1010
1010
,
0100
1000
0010
0100
0001
0010
0100
1000
,
0010
0001
0010
1000
0001
0000
1001
0000
,
0100
0001
0010
0100
1000
0010
0100
0001
,
0011
0101
1010
1100
,
1000
0000
0000
0100
0010
0000
0100
0000
0010
0000
0000
0001
1000
0000
0001
0000
,
1000
0010
0100
0001
2000
0000
3001
0000
,
1000
0001
0010
0001
1000
0010
1000
0010
,
1000
0100
0010
0000
0220
0000
0330
0000
,
0010
0000
0000
0010
0001
0000
1000
0000
0001
0000
0000
0000
1001
0000
0000
0000
,
0010
0000
0000
0010
1000
0000
0001
0000
1000
0000
0000
0000
1001
0000
0000
0000
,
0110
0110
1001
1001
,
1000
0100
0010
0001
0100
0010
1000
0001
,
1000
0100
0001
0100
1000
0001
0010
0000
,
2002
0000
0000
3003
,
0000
0000
0000
0000
;
#NOTES:
     dance-double:
     :
     Easy:
     5:
     :
00000000
00000000
00000000
00000000
,
00000000
00000000
00000000
00000000
,
00000000
00000000
00000000
00000000
,
00000000
00000000
00000000
00000000
,
00000000
00000000
00000000
00000000
,
00000000
00000000
00000000
00000000
,
01000000
00000000
10000000
00000000
,
00100000
01000000
00010000
00000000
,
00001000
00000000
00000010
00000000
,
00000100
00000010
00000100
00000000
,
00000001
00000100
00000010
00000000
,
00000110
00000000
00000110
00000000
,
00001000
00010000
00001000
00000000
,
01000000
00001000
00010000
00000000
,
00100000
01000000
00010000
00000000
,
01100000
00000000
01100000
00000000
,
10000000
01000000
00100000
00000000
,
00001000
00010000
00001000
00000000
,
00000010
00000001
00000100
00000100
,
00000010
00001000
00000100
00000100
,
00010000
00001000
00100000
00010000
,
01000000
01000000
01000000
00000000
,
00100000
10000000
01000000
01000000
,
00100000
00010000
01000000
01000000
,
00001000
00001000
00010000
00010000
,
00011000
00000000
00011000
00000000
,
00000100
00000010
00000100
00000010
,
00000110
00000000
00000110
00000000
,
00000001
00000100
00001000
00000000
,
00010000
00100000
10000000
00010000
,
01000000
00100000
20000000
30000000
,
10000000
01000000
00010000
00001000
,
00100000
00001000
00010000
00011000
,
00001000
00000010
00000001
00000100
,
00000010
00001000
00000020
00000030
,
00000100
00001000
00000100
00001000
,
00010000
00001000
00022000
00033000
,
00100000
00100000
01100000
00000000
,
10000000
10000000
10010000
00000000
,
10000000
01000000
00100000
00010000
,
00001000
00000100
00000010
00000001
,
00000100
00000100
00000010
00000010
,
00000220
00000000
00000000
00000330
,
00000000
00000000
00000000
00000000
;
#NOTES:
     dance-double:
     :
     Medium:
     8:
     :
00000000
00000000
00000000
00000000
,
00000000
00000000
00000000
00000000
,
00000000
00000000
00000000
00000000
,
00000000
00000000
00000000
00000000
,
00000000
00000000
00000000
00000000
,
00000000
00000000
00000000
00000000
,
10000000
00000000
00010000
00100000
00010000
00000000
00100000
00001000
,
00010000
00001000
00022000
00033000
,
00000100
00001000
00000100
00000000
00010000
00000000
00001000
00000000
,
00000100
00000000
00000000
00000010
00000000
00000000
00000200
00000000
00000000
00000000
00000000
00000000
00000300
00000000
00000000
00000000
,
00000001
00000010
00000100
00001000
,
00000010
00000100
00000010
00000000
00000100
00000000
00001000
00000000
,
00010000
00100000
01000000
00100000
,
10000000
00010000
20020000
30030000
,
10000000
01000000
00100000
00010000
,
01000000
00100000
01000000
00000000
00100000
00000000
00010000
00000000
,
00001000
00000100
00000010
00000100
,
00000001
00001000
00002002
00003003
,
00000001
00000000
00000100
00000010
00001000
00000000
00000010
00000000
,
00000100
00000000
00001000
00010000
00001000
00000000
00100000
00000000
,
00001000
00000000
01000000
00010000
00100000
00000000
01000000
00000000
,
10000000
10000000
00010000
00010000
,
10000000
00000000
00100000
01000000
00010000
00000000
01000000
00000000
,
00100000
00000000
00010000
00001000
00010000
00000000
00000100
00000000
,
00000010
00000010
00000001
00000001
,
00001001
00000000
00000110
00000000
,
00000001
00000100
00001000
00010000
,
00011000
00000000
01100000
00000000
,
01000000
01000000
00100000
00100000
,
10000000
00000000
01000000
00000000
00100000
00010000
01000000
00000000
,
00010000
00100000
00001000
00010000
00002000
00000000
00003000
00000000
,
00010000
00000000
00000100
00000000
00001000
00000100
00000010
00000000
,
00000001
00000110
00001000
00000110
,
00000001
00000000
00000100
00000000
00000010
00001000
00000100
00000000
,
00001000
00000010
00010000
00001000
00020000
00000000
00030000
00000000
,
00001000
00100000
00010000
00000000
01000000
00100000
10000000
00000000
,
00010000
10000000
20020000
30030000
,
00100000
01000000
10010000
00000000
,
00010000
00001000
00011000
00000000
,
00001000
00000010
00000001
00000100
,
00000010
00000100
00001000
00010000
,
00001000
00100000
00010000
01000000
00100000
10000000
01000000
00000000
,
20020000
00000000
00000000
30030000
,
00000000
00000000
00000000
00000000
;
#NOTES:
     dance-double:
     :
     Hard:
     11:
     :
00000000
00000000
00000000
00000000
,
00000000
00000000
00000000
00000000
,
00000000
00000000
00000000
00000000
,
00000000
00000000
00000000
00000000
,
00000000
00000000
00000000
00000000
,
00000000
00000000
00000000
00000000
,
10000000
00000000
00000000
10000000
01000000
00000000
01000000
00000000
00100000
00000000
00000000
00100000
00010000
00000000
00010000
00000000
,
01000000
00001000
00010000
00001000
00020000
00000000
00031000
00000000
,
00010000
00100000
01000000
00100000
00010000
00001000
00010000
00000010
,
00001000
00000000
00000000
00000001
00000000
00000000
00002002
00000000
00000000
00000000
00000000
00000000
00003003
00000000
00000000
00000000
,
00000010
00000001
00000100
00000001
00000010
00000100
00001000
00000010
,
00000100
00000100
00001000
00000000
00010000
00010000
00100000
00000000
,
10000000
00010000
10000000
01000000
00010000
00001000
00100000
00001000
,
00010000
00100000
02200000
03300000
,
00100000
10000000
01000000
10000000
00100000
01000000
00010000
00100000
,
01000000
01000000
00010000
00000000
00001000
00001000
00000010
00000000
,
00000001
00001000
00000001
00000100
00001000
00010000
00000010
00010000
,
00001000
00010000
00000100
00001000
00000100
00000010
00000100
00000010
,
00000001
00000000
00000000
00000001
00000000
00000000
00000001
00000000
00000100
00000000
00000001
00000000
00000010
00000000
00000100
00000000
,
00001000
00000000
00000000
00001000
00000000
00000000
00001000
00000000
00000100
00000000
00010000
00000000
00001000
00000000
00010000
00000000
,
00100000
00000000
00000000
00100000
00000000
00000000
00100000
00000000
10000000
00000000
00010000
00000000
10000000
00000000
01000000
00000000
,
00200000
00302000
00013000
00011000
,
01000000
00000000
00000000
01000000
00000000
00000000
01000000
00000000
00010000
00000000
00100000
00000000
01000000
00000000
10000000
00000000
,
00100000
00000000
00000000
00100000
00000000
00000000
00100000
00000000
01000000
00000000
00010000
00000000
00100000
00000000
00001000
00000000
,
00010000
00000000
00010000
00000000
00001000
00000000
00001000
00000010
,
00000001
00000000
00000000
00000001
00000100
00000000
00000000
00000100
,
00001000
00000000
00000000
00001000
00010000
00000000
00100000
00000000
10000000
00000000
00000000
10000000
01000000
00000000
00010000
00000000
,
00001000
00000000
00000000
00001000
00000010
00000000
00000000
00000000
,
00000001
00000001
00000101
00000201
,
00000310
00000100
00001000
00000100
00000010
00001000
00000100
00000010
,
00000100
00001000
00000100
00010000
00001000
00000000
00021000
00000000
,
00030100
00000010
00001000
00000010
00000100
00010000
00001000
00100000
,
00010000
01010000
10000000
12000000
,
03100000
01000000
00010000
01000000
00100000
00010000
01000000
00100000
,
01000000
00010000
01000000
00001000
00010000
00000000
00012000
00000000
,
01003000
00100000
00010000
00100000
01000000
00001000
00010000
00000010
,
00001000
00000100
00000010
00000000
00000220
00000000
00000330
00000000
,
00000001
00000000
00000000
00000001
00000100
00000000
00001000
00000000
00010000
00000000
00000000
00000000
00011000
00000000
00000000
00000000
,
00010000
00000000
00000000
00010000
00100000
00000000
10000000
00000000
00010000
00000000
00000000
00000000
10010000
00000000
00000000
00000000
,
10000000
00010000
00001000
00000001
,
00000001
00001000
00010000
10000000
,
01000000
10000000
00100000
01000000
00010000
00100000
00001000
00000000
,
00022000
00000000
00000000
00033000
,
00000000
00000000
00000000
00000000
;
