
//----- song ID: yuni -----//
#TITLE:Yuni's Nocturnal Days;
#ARTIST:かめりあ;
#ARTISTTRANSLIT:Camellia;
#BANNER:Yuni's Nocturnal Days.png;
#BACKGROUND:Yuni's Nocturnal Days-bg.png;
#CDTITLE:./CDTitles/DDR A20 PLUS.png;
#MUSIC:Yuni's Nocturnal Days.ogg;
#SAMPLESTART:71.68;
#SAMPLELENGTH:15;
#BPMS:0=153;
#BGSTAGE:2;
#NOTES:
     dance-single:
     :
     Beginner:
     3:
     :
0000
0000
0000
0000
,
0000
0000
0000
0000
,
0000
0000
0000
0000
,
0000
0000
0000
0000
,
0000
0000
0000
0000
,
0001
0000
0010
0000
,
0100
0000
0000
0000
,
1000
0000
0100
0000
,
1000
0000
0000
0000
,
1000
0000
1000
0000
,
0010
0000
0010
0000
,
0100
0000
0100
0000
,
0001
0000
0001
0000
,
0010
0000
0001
0000
,
0100
0000
0100
0000
,
0010
0000
1000
0000
,
0010
0000
0000
0000
,
0010
0000
1000
0000
,
0100
0000
0100
0000
,
0010
0000
0001
0000
,
0010
0000
0000
0000
,
2002
0000
0000
0000
,
3003
0000
0000
0000
,
0001
0000
0100
0000
,
0010
0000
0001
0000
,
0100
0000
0010
0000
,
1000
0000
0000
0000
,
1000
0000
0100
0000
,
0010
0000
0000
0000
,
0001
0000
0010
0000
,
0010
0000
0100
0000
,
1000
0000
0010
0000
,
0010
0000
0100
0000
,
0001
0000
0100
0000
,
0010
0000
1000
0000
,
1000
0000
0100
0000
,
1001
0000
0000
0000
,
0010
0000
0010
0000
,
1001
0000
0000
0000
,
0100
0000
0100
0000
,
1001
0000
0000
0000
,
0010
0000
0010
0000
,
1001
0000
0000
0000
,
2002
0000
0000
0000
,
0000
0000
0000
0000
,
3003
0000
0000
0000
,
1000
0000
0010
0000
,
0001
0000
0100
0000
,
1000
0000
0100
0000
,
0001
0001
0001
0000
,
0001
0000
0010
0000
,
1000
0000
0100
0000
,
0001
0000
0100
0000
,
1000
1000
1000
0000
,
1000
0000
0010
0000
,
0100
0100
0100
0000
,
0001
0000
0010
0000
,
0100
0100
0100
0000
,
0002
0000
0003
0000
,
1000
0000
0001
0000
,
2000
0000
3000
0000
,
0001
0000
1001
0000
,
0000
0000
0000
0000
,
0000
0000
0000
0000
,
0010
0000
0010
0000
,
0100
0100
0100
0000
,
0000
0000
0000
0000
,
1001
0000
0000
0000
,
0010
0001
0010
0000
,
1001
0000
0000
0000
,
0010
1000
0010
0000
,
1000
1000
1000
0000
,
0001
0001
0001
0000
,
0100
0100
0100
0000
,
0010
0000
0000
1001
,
0000
0000
0000
0000
;
#NOTES:
     dance-single:
     :
     Easy:
     6:
     :
0000
0000
0000
0000
,
0000
0000
0000
0000
,
0000
0000
0000
0000
,
0000
0000
0000
0000
,
0000
0000
0000
0000
,
0001
0010
0001
0000
,
1000
0100
0010
0000
,
1000
0010
1000
0000
,
2002
0000
0000
3003
,
2000
0000
3001
0000
,
0002
0000
1003
0000
,
0020
0000
0130
0000
,
0200
0000
0310
0000
,
0001
0001
0100
0100
,
0001
1000
0001
1000
,
0001
0010
0100
1000
,
0100
0010
0001
0000
,
1000
1000
0100
0100
,
1000
0001
1000
0001
,
1000
0010
0100
0001
,
0100
0010
1000
0000
,
1001
0000
0000
0000
,
1000
0001
1000
0001
,
1000
0100
1000
0100
,
0010
0001
0010
0001
,
1000
0001
0001
0001
,
0100
0010
0100
0100
,
0001
0010
0100
1000
,
0002
0000
0000
0003
,
0001
1000
0010
0010
,
1000
0001
0100
0010
,
1000
0001
0010
0010
,
0001
0100
0010
0000
,
1000
0001
0100
0100
,
0001
1000
0010
0100
,
0001
1000
0100
0100
,
1000
0010
0100
0000
,
0001
0100
1000
0000
,
1000
0100
0001
0000
,
1000
0100
0001
0100
,
1000
0001
1000
0000
,
0001
0010
1000
0000
,
1000
0010
0001
0000
,
2002
0000
0000
0000
,
0000
0000
0000
0000
,
3003
0000
0000
0000
,
1000
0010
1000
0010
,
0100
0001
0100
0001
,
0010
0001
1000
0100
,
0010
0100
0110
0000
,
0001
0010
0001
0010
,
0100
1000
0100
1000
,
0010
1000
0001
0100
,
0010
0100
0110
0000
,
1000
0010
1000
0100
,
1000
0010
0100
0100
,
0001
0010
0001
0100
,
0010
1000
1001
0000
,
0002
0000
0000
0003
,
0020
0000
0000
0030
,
2000
0000
0000
3000
,
0200
0000
0020
0000
,
0000
0000
0000
0000
,
0000
0000
0000
0330
,
0001
0001
1000
1000
,
0001
1000
0001
1000
,
0000
0000
0010
0010
,
1000
0100
1000
0100
,
0010
0010
0010
0000
,
0001
0100
0001
0100
,
0010
0010
0010
0000
,
1000
0010
0001
0010
,
1000
0100
0010
0000
,
0001
0100
1000
0100
,
0001
1000
0000
1001
,
0000
0000
0000
0000
;
#NOTES:
     dance-single:
     :
     Medium:
     10:
     :
0000
0000
0000
0000
,
0000
0000
0000
0000
,
0000
0000
0000
0000
,
0000
0000
0000
0000
,
0000
0000
0000
0000
,
0001
0010
0001
0000
0100
0000
0010
0000
,
1000
0100
1000
0000
0010
0000
0100
0000
,
0001
0010
0100
0000
1000
0000
0001
0000
,
2002
0000
0000
3003
,
0002
0010
1000
1003
,
2000
0010
0001
3001
,
0001
0010
0001
0000
1000
0010
1000
0000
,
1100
0101
0100
0100
,
1001
0000
0010
0001
0010
0001
1000
0100
,
1000
0100
1000
0010
0100
0001
0010
0000
,
1001
0000
1000
0100
0001
0100
1000
0000
,
0001
0100
1000
0100
0001
0100
0010
0000
,
1001
0000
0100
1000
0100
1000
0100
1000
,
0100
1000
0001
0100
0010
0000
0110
0000
,
0001
0010
1000
0000
1000
0010
0001
0000
,
1000
0010
0001
0010
2000
0000
3001
0000
,
2002
0000
0000
3003
,
0010
0100
0010
0000
0100
0000
0110
0000
,
1000
1000
0010
0100
0010
0100
0001
1000
,
0001
1000
0100
0010
0002
0000
1003
0000
,
1001
0000
0010
0001
0010
0001
0010
0001
,
1000
0010
0100
0000
0110
0000
1001
0000
,
0010
1000
0100
0010
0001
0100
0010
1000
,
0002
0000
0000
0003
,
1000
0010
0100
0010
1000
0001
0010
0000
,
0100
1000
0100
1000
0010
0100
0001
0000
,
1000
0001
0100
0001
0010
0100
0010
0000
,
0001
1000
0010
0100
0010
1000
0100
0000
,
1000
0001
0010
0100
1000
0001
0100
0000
,
0001
1000
0010
0100
0010
1000
0001
0000
,
0010
0001
0100
0001
0010
0100
1000
0000
,
2002
0000
0000
3003
,
0010
0000
0100
0000
0001
1000
0001
0000
,
0010
0000
0100
0000
1000
0001
1000
0000
,
0100
0000
0010
0000
0001
0100
0010
0000
,
1000
0000
0001
0000
0010
0001
0100
0000
,
0010
0000
1000
0000
0100
1000
0010
0000
,
0100
0000
0001
0000
1000
0010
1000
0000
,
2002
0000
0000
0000
,
0000
0000
0000
0000
,
3003
0000
0000
0000
,
0001
0100
0010
0000
1000
0100
0010
0000
,
0002
0010
0100
1003
,
0002
0023
2030
3020
,
0031
0100
0110
1001
,
1000
0100
0010
0000
0001
0100
0010
0000
,
2000
0010
0100
3001
,
2000
3020
0032
0023
,
1030
0100
0110
1001
,
1000
0100
0010
0001
0010
0000
0001
0000
,
1000
0010
0100
0000
2002
0000
3003
0000
,
0001
0100
0010
1000
0010
0000
1000
0000
,
0001
0100
0010
0000
2002
0000
3003
0000
,
1000
0000
0100
0000
1000
0000
0000
0010
0000
0000
0000
0000
0000
0000
0000
0000
,
0001
0000
0100
0000
0001
0000
0000
0010
0000
0000
0000
0000
0000
0000
0000
0000
,
0100
0000
0010
0000
0100
0000
0000
0010
0000
0000
0000
0000
0000
0000
0000
0000
,
1000
0000
0000
0000
0001
0000
0000
2001
0000
0000
0000
0000
0000
0000
0000
0000
,
0000
0000
0000
0000
,
0000
0000
0000
3000
,
0001
0110
1000
0110
,
0001
1000
2002
0000
,
3003
0000
0000
0000
0000
0000
0000
0000
0100
0000
0000
0100
0000
0000
0100
0000
,
0010
1000
0100
0001
,
0100
0010
0100
0010
0100
0000
0000
0000
,
0010
0001
0100
1000
,
0100
0010
0100
0010
0100
0000
0000
0000
,
1001
0000
1000
0001
1000
0001
1000
0000
,
0100
0010
0001
0000
0110
0000
0000
0000
,
1000
0001
0010
0000
0001
1000
0010
0000
,
1000
0100
0001
0100
0000
0000
1001
0000
,
0000
0000
0000
0000
;
#NOTES:
     dance-single:
     :
     Hard:
     14:
     :
0000
0000
0000
0000
,
0000
0000
0000
0000
,
0000
0000
0000
0000
,
0000
0000
0000
0000
,
0000
0000
0000
0000
,
1000
0100
1000
0000
1000
0010
1000
0000
,
1000
0100
0010
0001
0100
0010
1000
0000
,
0001
0100
0001
0000
0001
0010
0001
0000
,
1000
0000
0000
0000
0001
0000
0000
2002
0000
0000
0000
0000
3003
0000
0000
0000
,
0020
1000
0001
1000
,
0230
1000
0001
1000
,
0301
0010
0001
0100
0001
0010
0001
0100
,
0010
1000
0010
1000
0100
0010
0001
0000
0000
0110
0000
0000
,
1001
0000
0000
0000
0001
0000
0100
0000
0001
0100
0010
0000
0100
0000
0010
0000
,
1000
0000
0100
0000
0010
0000
0100
0000
0010
0001
1000
0000
0010
0000
1000
0000
,
1001
0000
0000
0000
0100
0000
1000
0000
0010
1000
0100
0000
0010
0000
0100
0000
,
0010
0000
0001
0000
1000
0000
0001
0000
0010
0001
0100
0000
0001
0000
1000
0000
,
1001
0000
1000
0010
0001
0010
1000
0010
,
0001
1000
0100
0001
1000
0000
0010
0100
,
0010
0000
1000
0010
1000
0000
1000
0000
0001
0000
0100
0001
0100
0000
0100
0000
,
0001
0000
0010
0001
0010
0000
0010
0000
0100
1000
0100
1000
0100
0000
0000
0000
,
2000
0010
0100
3100
,
0001
0100
0010
1000
0001
0000
0110
0000
,
0001
0000
0001
0000
0010
0001
0100
0000
0001
0100
0010
0000
0100
0010
1000
0000
,
0010
0000
0000
0010
0000
0000
0100
0000
0000
0100
0000
0000
0001
0000
1000
0000
0001
0000
1000
0000
0001
0000
1000
0000
,
0001
0000
0001
0100
1000
0100
0001
0100
,
1000
0001
0010
1000
0001
0000
0110
0000
,
0010
1000
0010
0000
1000
0100
0010
0000
0001
0100
0001
0000
0010
0100
1000
0000
,
0002
0000
0100
0103
,
0001
0000
0100
0000
0010
0000
1000
0000
0100
0000
0010
0000
0001
1000
0001
0000
,
0100
0000
1000
0000
0100
0000
0001
0000
0010
0000
0100
0000
1000
0010
1000
0000
,
0001
0000
0100
0000
0010
0000
1000
0000
0001
0000
0100
0000
0010
1000
0010
0000
,
1000
0010
0001
0010
1000
0100
0110
0000
,
1000
0000
0001
0000
0100
0000
0001
0000
0010
0000
0100
0000
1000
0010
0100
0000
,
0001
0000
0100
0000
1000
0000
0100
0000
0001
0000
1000
0000
0100
0010
0001
0000
,
1000
0000
0010
0000
0100
0000
1000
0000
0100
0000
0010
0000
1000
0001
0010
0000
,
0100
0000
0000
0000
0010
0000
0000
0220
0000
0000
0000
0000
0330
0000
0000
0000
,
0100
0000
0010
0000
0100
0000
1000
0100
0010
0000
0100
0010
0001
0000
0100
0000
,
0110
0000
0010
0000
0100
0000
0001
0100
0010
0000
0100
0010
1000
0000
0100
0000
,
0110
0000
0001
0000
1000
0000
0001
0010
0100
0000
0010
0100
1000
0000
0010
0000
,
0110
0000
1000
0000
0001
0000
1000
0010
0100
0000
0010
0100
0001
0000
0100
0000
,
0010
0000
1000
0000
0001
0000
0010
0001
0100
0000
0010
1000
0200
0000
0000
0000
,
0310
0000
0001
0000
1000
0000
0100
1000
0010
0000
0100
0001
0010
0000
0000
0000
,
0220
0000
0000
0000
,
0000
0000
0000
0000
,
0330
0000
0110
1001
,
1000
0000
0010
0000
0100
0000
0001
0100
0010
0000
1000
0000
0100
0000
0010
0001
,
0010
0000
0100
0000
1000
0000
0001
0010
0100
0000
1000
0000
0010
0000
0100
0000
,
0001
0010
0100
0001
1000
0010
0100
1000
,
1010
0101
0011
1100
,
0010
0000
1000
0000
0100
0000
0010
0001
0100
0000
0010
0000
1000
0000
0100
1000
,
0010
0000
0100
0000
0001
0000
1000
0100
0010
0000
0001
0000
0100
0000
0001
0000
,
0100
0010
0001
1000
0100
0010
1000
0100
,
0010
0011
0101
1010
,
1001
0000
0000
0000
0010
0000
0100
0000
0010
0000
1000
0000
0001
0010
0100
0000
,
1000
0000
0010
0000
0100
0000
0001
0000
0011
0000
0000
0110
0000
0000
1100
0000
,
1000
0000
1000
0000
0001
0000
0100
0000
0010
0000
1000
0000
0010
0100
0010
0000
,
1000
0000
1000
0000
0001
0100
0001
0100
0000
0000
0000
0010
0000
0000
0010
0000
,
1000
0000
0000
0000
1000
0000
0000
2200
0000
0000
0000
0000
3300
0000
0000
0000
,
0001
0000
0000
0000
0001
0000
0000
0202
0000
0000
0000
0000
0303
0000
0000
0000
,
1000
0000
0000
0000
0001
0000
0000
0220
0000
0000
0000
0000
0330
0000
0000
0000
,
0001
0000
0000
0000
1000
0000
0000
2002
0000
0000
0000
0000
0000
0000
0000
0000
,
0000
0000
0000
0000
,
0000
0000
0000
3003
,
0001
0010
1000
0100
0001
0010
1000
0100
,
0010
1000
0010
0100
0001
0100
0001
0000
0010
0000
1000
0000
,
0000
0000
0000
0000
0001
1000
0001
1000
0001
0000
0000
0100
0000
0000
0010
0000
,
1000
0101
0010
1100
,
0010
1000
0010
0000
0100
0001
0100
0000
0002
0000
0000
0000
0013
0000
0000
0000
,
0100
0100
0110
0000
0001
1000
1001
0000
,
0010
0000
0000
0000
0000
0000
1000
0000
0000
0100
0000
0000
0000
0000
0000
1000
0000
0000
0001
0000
0000
0000
0000
0000
0100
0000
0000
0000
0001
0000
0000
0000
0010
0000
0000
0000
0001
0000
0000
0000
0000
0000
0000
0000
0000
0000
0000
0000
,
1000
0000
0001
0000
0100
0000
0100
0000
0100
0000
0100
0000
0100
0000
0100
0010
,
0100
0000
0001
0010
0000
1000
0010
0000
0001
0000
2002
0000
0000
0000
3003
0000
,
0010
0000
0010
0000
1000
0001
0100
0000
0010
0000
0010
0000
1000
0100
0010
0000
,
0001
0000
1000
0100
0000
0001
0100
0000
0000
0000
0000
0000
1001
0000
0000
0000
,
0000
0000
0000
0000
;
#NOTES:
     dance-single:
     :
     Challenge:
     18:
     :
0000
0000
0000
0000
,
0000
0000
0000
0000
,
0000
0000
0000
0000
,
0000
0000
0000
0000
,
0000
0000
0000
0000
,
0001
0000
0000
0000
0000
0100
0001
0000
0010
0000
0000
0200
0000
0000
0000
0000
0000
0000
0300
0000
0000
1000
0000
0000
,
0001
0000
0000
0000
0000
0010
1000
0000
0010
0000
0000
0001
0000
0000
1000
0200
0000
0000
0000
0000
0000
0300
0000
0000
,
0010
0000
0000
0000
0000
0100
1000
0000
0010
0000
0000
0200
0000
0000
0000
0000
0000
0000
0300
0000
0000
0001
0000
0000
,
1000
0000
0000
0000
0000
0010
0100
0000
0010
0000
0000
1000
0000
0000
2000
0002
0000
0000
0000
0000
0000
3003
0000
0000
,
1001
0000
0000
0000
0000
0000
1000
0100
1000
0100
0000
1000
0010
0000
0100
0010
0000
0100
0001
0000
0010
0001
0000
0010
,
0001
0000
1000
0100
0000
1000
0001
0000
1000
0100
0000
1000
0001
0000
0010
0100
0000
1000
0001
0000
1001
0000
0000
0000
,
1010
1000
0101
0001
0011
0010
1100
0100
,
0010
0000
0010
0000
0010
0000
0010
0000
0010
0000
0010
0000
0010
0000
0100
0000
0000
0100
1000
0000
0010
0100
0000
0001
,
1000
0000
0000
0000
0000
0000
0001
0010
0100
1000
0000
0001
0100
0000
0010
0100
0000
0010
1000
0000
0010
1000
0000
0010
,
1000
0000
0100
0010
0000
0001
1000
0000
0100
0010
0001
0010
0001
0000
1000
0001
0000
0100
0001
0000
1000
0010
0000
0000
,
1001
0000
0000
0000
0000
0000
1000
0010
1000
0010
1000
0010
1000
0000
0100
1000
0000
0100
0010
0000
0001
1000
0001
1000
,
0000
0000
0000
1001
0000
0000
0001
0000
0000
0000
0000
0010
1000
0000
0001
0100
0000
0000
1000
0000
0001
0100
0001
0100
,
0001
0000
0000
0000
0000
0000
0000
0000
0000
0000
0000
0000
0000
0000
0000
0000
0000
0000
0000
0000
0000
0000
0000
0000
1000
0000
0000
0000
0000
0000
0000
0000
0100
0000
0000
0000
0001
0000
0000
0000
0000
0000
0000
0000
0000
0000
0000
0000
1000
0000
0000
0000
0000
0000
0000
0000
0010
0000
0000
0000
0001
0000
0000
0000
0000
0000
0000
0000
0000
0000
0000
0000
1000
0000
0000
0000
0000
0000
0000
0000
0000
0000
0000
0000
0100
0000
0000
0010
0000
0000
0100
0000
0000
0010
0000
0000
,
0100
0000
0000
0100
0000
0000
0010
0000
0000
0010
0000
0000
0110
0000
0000
0000
0000
0001
1000
0000
0000
1000
0000
0000
,
0001
0000
0000
0001
0000
0100
0010
0000
0000
0010
0000
0000
1000
0000
0000
1000
0000
0100
0010
0000
0000
0010
0000
0000
,
0001
0000
0000
0001
0000
1000
0010
0000
1000
0010
0000
0000
0100
0000
0001
0010
0000
0100
1000
0000
0010
0100
0000
0001
,
1000
0000
0000
0000
0000
0000
0001
0100
0001
0100
0001
0100
0010
1000
0010
1000
0010
1000
0010
0100
0010
0100
0010
0100
,
0001
1000
0001
1000
0001
1000
0001
1000
0001
1000
0001
1000
0001
0000
0000
0001
0000
0000
0100
0000
1001
0000
0000
0000
,
1000
0000
0000
0001
0000
0000
1000
0100
1000
0100
1000
0100
0010
0001
0010
0001
0010
0001
1000
0001
1000
0001
1000
0001
,
1000
0000
0000
0000
0000
0000
0010
0000
0000
0000
0000
0000
1000
0000
0100
0000
0010
0000
0001
0000
0000
1000
0000
0000
0001
0000
0000
0000
0001
0000
0000
0000
0001
0000
0000
0000
0010
0000
0001
0000
0100
0000
0010
0000
1000
0000
0100
0000
,
0010
0000
0000
0000
0000
0000
0000
0000
0000
0000
0000
0000
0000
0000
0000
0000
0000
0000
0000
0000
0000
0000
0000
0000
0001
0000
0000
0000
0000
0000
0000
0000
0100
0000
0000
0000
1000
0000
0000
0000
0000
0000
0000
0000
0000
0000
0000
0000
0001
0000
0000
0000
0000
0000
0000
0000
0010
0000
0000
0000
1000
0000
0000
0000
0000
0000
0000
0000
0000
0000
0000
0000
0001
0000
0000
0000
0000
0000
0000
0000
0000
0000
0000
0000
0100
0000
0000
0010
0000
0000
0100
0000
0000
0010
0000
0000
,
0100
0000
0000
0100
0000
0000
0010
0000
0000
0010
0000
0000
0110
0000
0000
0000
0000
1000
0001
0000
0000
0001
0000
0000
,
1000
0000
0100
1000
0000
0100
0001
0000
0100
1000
0000
0001
1000
0000
0010
1000
0000
0010
0001
0000
0010
1000
0000
0000
,
2002
0000
0000
3003
,
1000
0000
0000
0000
0000
0010
0100
0000
0010
0000
0000
2000
0000
0000
0001
0000
0000
3001
0000
0000
0000
0100
0000
0000
,
0001
0000
0000
0000
0000
0010
0100
0000
0010
0000
0000
0001
0000
0000
1000
0100
0000
0010
0001
0000
0000
1000
0000
0000
,
0001
0000
0000
0000
0000
0100
0010
0000
0100
0000
0000
0002
0000
0000
1000
0000
0000
1003
0000
0000
0000
0010
0000
0000
,
1000
0000
0000
0000
0000
0100
0010
0000
0100
0000
0000
1000
0000
0000
0001
0010
0000
0100
1000
0000
0001
1000
0000
0000
,
0001
0000
0000
0010
0000
0100
1000
0000
0010
0100
0000
0010
1000
0000
0001
0010
0001
0010
0001
0000
0000
0100
0000
0000
,
0010
0000
0000
1000
0000
0100
1000
0000
0001
0100
0000
0010
0100
0000
0001
1000
0001
1000
0001
0000
0000
0000
0000
0000
,
1000
0000
0000
0010
0000
0100
0001
0000
0010
0100
0000
0010
0001
0000
1000
0010
1000
0010
1000
0000
0000
0100
0000
0000
,
1100
0000
0000
0000
0000
0001
0010
0000
0001
0000
0000
1001
0000
0000
1000
0010
0000
0100
0001
1000
0001
0100
0010
0100
,
0020
0000
0000
0000
0000
0000
1030
0000
0000
0001
0000
0010
1000
0000
0000
1000
0000
0010
0001
0000
1000
0100
0000
0000
,
2000
0000
0000
3000
0000
0000
0110
0000
0000
0001
0000
0000
1000
0000
0000
0001
0000
0001
0100
0000
0100
0010
0000
0010
,
2000
0000
0000
0000
0000
0000
3001
0000
0010
1000
0000
0010
0001
0000
0000
1000
0000
0100
0001
0000
0100
1000
0000
0000
,
0001
0110
1000
0110
0001
0011
0110
1100
,
0002
0000
0000
0000
0000
0000
0103
0000
0000
0001
0000
0010
0100
0000
0000
1000
0000
0010
0100
0000
0010
0000
0010
0000
,
0220
0000
0000
0330
0000
0000
1000
0000
0000
0001
0000
0000
1001
0000
0000
1000
0000
0100
0010
0000
0001
1000
0000
0000
,
0002
0000
0000
0000
,
0000
0000
0000
0000
,
0003
0000
0000
0000
0000
0000
0000
0000
0000
0000
0000
0000
0100
0000
0000
0010
0000
0000
0110
0000
0000
1000
0000
0001
,
1000
0000
0000
0100
0000
0000
0010
0000
0000
0001
0000
1000
0001
0000
0000
1000
0000
0000
0100
0000
0000
0010
0000
0001
,
0010
0000
0000
0001
0000
0000
1000
0000
0000
0100
0000
1000
0100
0000
0000
0010
0000
0000
0001
0000
0000
1000
0000
0000
,
0001
0000
0000
0100
0000
0000
1000
0000
0000
0100
0000
0000
0001
0000
0000
0000
0000
1000
0010
0000
0000
0000
0000
0100
,
0001
0000
0000
0000
0000
0000
0011
0000
0000
0000
0000
0000
1100
0000
0000
0000
0000
0000
0001
0000
1000
0000
0000
1000
,
0001
0000
0000
0010
0000
0000
0100
0000
0000
1000
0000
0001
1000
0000
0000
0001
0000
0000
0010
0000
0000
0100
0000
1000
,
0100
0000
0000
1000
0000
0000
0001
0000
0000
0010
0000
0001
0010
0000
0000
0100
0000
0000
1000
0000
0000
0001
0000
0000
,
1000
1010
0011
0101
,
1001
0000
0000
0000
0000
0000
0110
0000
0000
0000
0000
0000
0001
0000
1000
0000
0000
1000
0000
0000
0001
1000
0000
0000
,
1001
0000
0000
0001
0000
0100
0010
0000
0100
0010
0000
1000
0001
0000
0001
0010
0000
0010
0100
0000
0100
1000
0000
0000
,
0001
0000
0000
0100
0000
0010
1000
0000
0010
0100
0000
0010
1000
0000
0000
0000
0000
1100
0000
0000
0000
0011
0000
0000
,
1000
0000
0000
1000
0000
0000
0001
0000
0010
0000
0000
0010
0001
0000
0001
0100
0000
0100
0010
0000
0010
1000
0000
0000
,
0001
0000
0000
1001
0000
0000
0001
0000
0010
0100
0000
1000
0000
0000
0000
0000
0000
0110
0000
0000
0000
1000
0000
0000
,
0002
0000
0000
0000
0000
0000
0003
0000
0000
0000
0000
0220
0000
0000
0000
0000
0000
0000
0330
0000
0000
0000
0000
0000
,
1000
0000
0000
0000
0000
0000
0001
0000
0000
0000
0000
0220
0000
0000
0000
0000
0000
0000
0330
0000
0000
0000
0000
0000
,
0010
0000
0000
0000
0000
0000
0100
0000
0000
0000
0000
2002
0000
0000
0000
0000
0000
0000
3003
0000
0000
0000
0000
0000
,
0100
0000
0000
0000
0000
0000
0010
0000
0000
0000
0000
2002
0000
0000
0000
0000
0000
0000
0000
0000
0000
0000
0000
0000
,
0000
0000
0000
0000
0000
0000
3003
0000
0000
0000
0000
0000
0001
0100
0001
0100
0001
0100
0010
1000
0010
1000
0010
1000
,
0001
0000
0000
0100
0000
0000
0010
0000
0000
1000
0000
0000
0001
0000
0000
0100
0000
0000
0010
0000
0000
1000
0000
0000
0001
0000
0000
0000
0100
0000
0000
0000
1000
0000
0000
0000
0100
0000
0000
0000
0001
0000
0000
0000
0010
0000
0000
0000
,
0011
1000
1010
0001
0101
1000
1100
0001
,
0010
0010
0010
0100
0100
0100
1000
0000
0100
0000
0001
0000
,
0000
0000
0000
0000
0000
0000
1000
0000
0001
1000
0000
0001
1000
0000
0000
0000
0000
1000
0000
0000
0000
1000
0000
0000
,
0001
0000
0000
1001
0000
0000
1000
0010
1000
0100
0010
0001
1000
0000
1000
0010
0000
0010
0100
0000
0100
0001
0000
0001
,
1000
0000
0100
0001
0000
0100
1000
0000
0001
1000
0000
0000
0100
0000
0010
0100
0000
0010
0100
0000
1000
0001
0000
0000
,
0110
0000
0000
0110
0000
0000
0001
0010
0100
1000
0010
0100
0001
0000
0010
1000
0000
0010
0001
0000
1000
0100
0010
0100
,
0010
0000
0000
0001
0000
0100
0000
0000
1000
0100
0001
0100
0010
0000
0010
0000
0010
0000
0010
0000
0000
1001
0000
0000
,
0100
0000
0000
0110
0000
0000
0001
0000
0100
1000
0000
0000
0001
0000
0010
1000
0000
0000
0001
0000
0100
0010
1000
0010
,
0100
0000
0000
0001
0000
0101
0000
0000
1000
1010
0000
0000
0100
0000
0000
0200
0000
0000
0000
0000
0000
0300
0000
0000
,
0010
0000
0000
0110
0000
0000
1000
0001
0010
0100
1000
0001
0100
0000
0000
0110
0000
0000
0001
1000
0010
0100
0001
1000
,
0100
0000
0000
0001
0000
0100
0000
0000
1000
0100
0000
0000
0000
0000
0000
0000
0000
0000
1001
0000
0000
0000
0000
0000
,
0000
0000
0000
0000
;
#NOTES:
     dance-double:
     :
     Easy:
     6:
     :
00000000
00000000
00000000
00000000
,
00000000
00000000
00000000
00000000
,
00000000
00000000
00000000
00000000
,
00000000
00000000
00000000
00000000
,
00000000
00000000
00000000
00000000
,
00000001
00000100
00000010
00000000
,
00001000
00000100
00000010
00000000
,
00001000
00010000
00001000
00000000
,
00022000
00000000
00000000
00033000
,
00200000
00000000
01300000
00000000
,
02000000
00000000
03100000
00000000
,
00002000
00000000
00013000
00000000
,
00020000
00000000
00031000
00000000
,
00000100
00000100
00001000
00001000
,
00000001
00001000
00000001
00001000
,
00000001
00000100
00000010
00001000
,
00000100
00010000
00001000
00000000
,
00100000
00100000
00010000
00010000
,
10000000
01000000
10000000
01000000
,
10000000
00100000
01000000
00010000
,
00100000
00001000
00010000
00000000
,
00011000
00000000
00000000
00000000
,
00001000
00010000
00000100
00010000
,
00001000
00000010
00001000
00000010
,
00000001
00000100
00000001
00000100
,
00000010
00001000
00001000
00001000
,
00000100
00010000
00001000
00001000
,
00100000
00010000
01000000
10000000
,
02000000
00000000
00000000
03000000
,
00100000
10000000
01000000
01000000
,
00100000
00010000
00100000
00001000
,
00010000
00000100
00001000
00001000
,
00000100
00000010
00000001
00000000
,
00000010
00000001
00000100
00000100
,
00000010
00001000
00000010
00010000
,
00001000
01000000
00010000
00010000
,
01000000
00100000
10000000
00000000
,
10000000
01000000
00010000
00000000
,
00010000
00001000
00010000
00000000
,
00001000
00000010
00000001
00000000
,
00000001
00001000
00000001
00000000
,
00000001
00000100
00001000
00000000
,
00010000
00001000
00010000
00000000
,
00022000
00000000
00000000
00000000
,
00000000
00000000
00000000
00000000
,
00033000
00000000
00000000
00000000
,
00100000
00010000
00100000
00010000
,
10000000
01000000
10000000
01000000
,
00100000
00100000
00001000
00001000
,
00010000
00001000
00011000
00000000
,
00000010
00001000
00000010
00001000
,
00000001
00000100
00000001
00000100
,
00000010
00000010
00010000
00010000
,
00001000
00010000
00011000
00000000
,
00100000
00010000
01000000
00100000
,
10000000
01000000
00100000
00100000
,
00010000
00100000
00001000
00010000
,
00001000
00001000
00011000
00000000
,
00000200
00000000
00000000
00000300
,
00020000
00000000
00000000
00030000
,
00000020
00000000
00000000
00000030
,
00000220
00000000
00000000
00000000
,
00000000
00000000
00000000
00000000
,
00000000
00000000
00000000
00000330
,
00000001
00000001
00001000
00001000
,
00010000
00001000
00010000
00001000
,
00000000
00000000
00001000
00010000
,
00011000
00000000
01000000
00000000
,
00100000
00100000
00100000
00000000
,
01100000
00000000
00001000
00000000
,
00010000
00010000
00010000
00000000
,
00011000
00000000
00000100
00000000
,
00000010
00000010
00000010
00000000
,
00000001
00000100
00001000
00000000
,
00010000
00100000
10000000
10010000
,
00000000
00000000
00000000
00000000
;
#NOTES:
     dance-double:
     :
     Medium:
     11:
     :
00000000
00000000
00000000
00000000
,
00000000
00000000
00000000
00000000
,
00000000
00000000
00000000
00000000
,
00000000
00000000
00000000
00000000
,
00000000
00000000
00000000
00000000
,
00000010
00000001
00000010
00000000
00000100
00000000
00001000
00000000
,
00000010
00000100
00000010
00000000
00010000
00000000
00001000
00000000
,
00100000
00010000
01000000
00000000
00100000
00000000
10000000
00000000
,
20020000
00000000
00000000
30030000
,
02000000
00010000
03001000
00000000
,
00000200
00001000
00010300
00000000
,
01010000
00011000
00001100
00011000
,
01001000
00010100
00011000
00000000
,
00000110
00000000
00000010
00000001
00000010
00000001
00000100
00000010
,
00000100
00000010
00001000
00000000
00000100
00010000
00001000
00000000
,
00011000
00000000
00010000
00100000
10000000
00100000
00010000
00000000
,
00100000
10000000
01000000
00100000
01000000
10000000
00010000
00000000
,
01100000
00000000
00100000
10000000
00100000
10000000
01000000
00100000
,
01000000
00100000
00010000
00000000
01000000
00001000
00010000
00000000
,
00011000
00000000
00001000
00000010
00000001
00000010
00001000
00000000
,
00000010
00000001
00000100
00000000
00000110
00000000
00000000
00000000
,
00002002
00000000
00000000
00003003
,
00001000
00000001
00001000
00000001
00001000
00000000
00001001
00000000
,
00000010
00000010
00000100
00001000
00010000
00001000
00010000
00100000
,
01000000
00100000
01000000
00100000
02000000
00000000
03100000
00000000
,
10010000
00000000
10000000
01000000
10000000
01000000
10000000
01000000
,
00100000
00001000
00010000
00001000
00010000
00000000
00011000
00000000
,
00000100
00001000
00000010
00000100
00000001
00000010
00000100
00001000
,
00000020
00000000
00000000
00000030
,
00001000
00000100
00000001
00000100
00001000
00000010
00000100
00000000
,
00001000
00010000
00001000
00100000
00010000
01000000
00010000
00000000
,
00100000
00010000
01000000
10000000
01000000
00010000
10000000
00000000
,
01000000
00100000
00001000
00010000
00001000
00100000
01000000
00000000
,
00010000
00001000
00010000
00000100
00001000
00000010
00000100
00000000
,
00000001
00000010
00000100
00001000
00000100
00000010
00000001
00000000
,
00000100
00000010
00001000
00000100
00010000
00001000
00010000
00000000
,
00022000
00000000
00000000
00033000
,
00100000
00000000
00010000
00000000
10000000
01000000
10000000
00000000
,
00100000
00000000
01000000
00000000
00010000
00100000
00010000
00000000
,
00100000
00000000
00001000
00000000
00010000
00000100
00001000
00000000
,
00000010
00000000
00001000
00000000
00000100
00000010
00000001
00000000
,
00000010
00000000
00000100
00000000
00001000
00000010
00001000
00000000
,
00000010
00000000
00000100
00000000
00001000
00010000
00100000
00000000
,
02200000
00000000
00000000
00000000
,
00000000
00000000
00000000
00000000
,
03300000
00000000
00000000
00000000
,
10000000
00000000
01000000
00100000
00010000
00000000
00010000
00100000
,
00002000
00000000
00010000
00013000
,
00002000
00003200
00000302
00002003
,
00003100
00000010
00000011
00001001
,
00000001
00000000
00000100
00000010
00001000
00000000
00001000
00000010
,
00020000
00000000
00001000
00031000
,
00020000
02030000
23000000
30020000
,
01030000
00100000
10100000
10010000
,
10000000
00100000
01000000
00010000
01000000
00000000
00100000
00000000
,
00010000
00001000
00010000
00000000
00022000
00000000
00033000
00000000
,
00000010
00001000
00000100
00000010
00000100
00000000
00001000
00000000
,
00000001
00000100
00000010
00000000
00002002
00000000
00003003
00000000
,
00000010
00000000
00000000
00000000
00001000
00000000
00000000
00000100
00000000
00000000
00000000
00000000
00000000
00000000
00000000
00000000
,
00010000
00000000
00000000
00000000
00001000
00000000
00000000
01000000
00000000
00000000
00000000
00000000
00000000
00000000
00000000
00000000
,
00010000
00000000
00000000
00000000
00100000
00000000
00000000
01000000
00000000
00000000
00000000
00000000
00000000
00000000
00000000
00000000
,
10000000
00000000
00000000
00000000
00010000
00000000
00000000
20020000
00000000
00000000
00000000
00000000
00000000
00000000
00000000
00000000
,
00000000
00000000
00000000
00000000
,
00000000
00000000
00000000
30030000
,
00100000
00001000
00010000
00000000
00000010
00010000
00001000
00000000
,
00010000
00001000
00022000
00000000
,
00033000
00000000
00000000
00000000
00000000
00000000
00000000
00000000
00000010
00000000
00000000
00000010
00000000
00000000
00000010
00000000
,
00000100
00000001
00001000
00000100
,
00000010
00000100
00000010
00000100
00000010
00000000
00000000
00000000
,
00001000
00010000
01000000
10000000
,
00100000
01000000
00100000
01000000
00100000
00000000
00000000
00000000
,
10010000
00000000
01000000
00001000
01000000
00001000
00010000
00000000
,
00000100
00001000
00000010
00000000
00000110
00000000
00000000
00000000
,
00000001
00000100
00001000
00000000
00001000
00010000
00100000
00000000
,
10000000
01000000
00010000
00001000
00000000
00000000
00011000
00000000
,
00000000
00000000
00000000
00000000
;
#NOTES:
     dance-double:
     :
     Hard:
     14:
     :
00000000
00000000
00000000
00000000
,
00000000
00000000
00000000
00000000
,
00000000
00000000
00000000
00000000
,
00000000
00000000
00000000
00000000
,
00000000
00000000
00000000
00000000
,
00000010
00000001
00000010
00000000
00000010
00001000
00000010
00000000
,
00000100
00001000
00010000
00100000
10000000
00000000
10010000
00000000
,
00100000
10000000
00100000
00000000
00100000
00010000
00100000
00000000
,
00010000
00000000
00000000
00000000
00001000
00000000
00000000
00022000
00000000
00000000
00000000
00000000
00033000
00000000
00000000
00000000
,
00002000
00000100
00000100
00000000
,
00023000
01000000
01000000
00000000
,
00031000
00000010
00001000
00000010
00000001
00000100
00000001
00000100
,
00001000
00010000
00001000
00010000
00001000
00010000
00001000
00000000
00000000
00011000
00000000
00000000
,
01100000
00000000
00000000
00000000
00100000
00000000
10000000
00000000
01000000
00100000
00010000
00000000
01000000
00000000
00001000
00000000
,
00010000
00000000
00000100
00000000
00001000
00000000
00000010
00000000
00000100
00000001
00001000
00000000
00000100
00000000
00000010
00000000
,
00001001
00000000
00000000
00000000
00000010
00000000
00000001
00000000
00000100
00000010
00001000
00000000
00000100
00000000
00010000
00000000
,
00001000
00000000
01000000
00000000
00010000
00000000
00100000
00000000
01000000
10000000
00010000
00000000
01000000
00000000
00100000
00000000
,
10010000
00000000
10000000
00100000
00010000
00100000
10000000
01000000
,
00010000
00001000
00000010
00000001
00000100
00000000
00001001
00000000
,
00000010
00000000
00001000
00000010
00001000
00000000
00001000
00000000
00000100
00000000
00010000
00001000
00010000
00000000
00010000
00000000
,
00001000
00000000
00100000
00010000
00100000
00000000
00100000
00000000
01000000
10000000
01000000
10000000
01000000
00000000
00000000
00000000
,
00200000
00001000
00010000
00310000
,
00001000
01000000
00010000
00100000
00001000
00000000
00011000
00000000
,
00000010
00000000
00000010
00000000
00000100
00000001
00000010
00000000
00000100
00001000
00000010
00000000
00000100
00001000
00010000
00000000
,
00100000
00000000
00000000
00100000
00000000
00000000
01000000
00000000
00000000
01000000
00000000
00000000
00010000
00000000
10000000
00000000
00010000
00000000
10000000
00000000
00010000
00000000
10000000
00000000
,
00010000
00000000
10000000
01000000
00010000
01000000
10000000
00010000
,
00100000
00001000
00010000
00000100
00001000
00000000
00000110
00000000
,
00000001
00000000
00000100
00001000
00010000
00000000
00100000
00000000
10000000
00000000
01000000
00010000
00001000
00000000
00000010
00000000
,
00000002
00000000
00000100
00000103
,
00000010
00000000
00000001
00000000
00001000
00000000
00000010
00000000
00000100
00000000
00001000
00000000
00010000
00001000
00010000
00000000
,
00001000
00000000
00010000
00000000
01000000
00000000
10000000
00000000
00010000
00000000
00100000
00000000
00010000
01000000
00010000
00000000
,
10000000
00000000
00100000
00000000
01000000
00000000
00001000
00000000
00100000
00000000
00001000
00000000
00010000
00001000
00010000
00000000
,
00000010
00000100
00001000
00010000
00100000
01000000
01100000
00000000
,
00100000
00000000
10000000
00000000
00010000
00000000
00100000
00000000
01000000
00000000
00010000
00000000
00001000
00010000
00001000
00000000
,
00010000
00000000
00001000
00000000
00000100
00000000
00000001
00000000
00001000
00000000
00000010
00000000
00001000
00000100
00001000
00000000
,
00000001
00000000
00000010
00000000
00000100
00000000
00010000
00000000
00000010
00000000
00010000
00000000
00001000
00010000
00001000
00000000
,
00010000
00000000
00000000
00000000
00001000
00000000
00000000
00022000
00000000
00000000
00000000
00000000
00033000
00000000
00000000
00000000
,
00001000
00000000
00010000
00000000
00100000
00000000
10000000
01000000
00100000
00000000
01000000
00100000
00010000
00000000
01000000
00000000
,
00100000
00000000
00010000
00000000
00001000
00000000
00000100
00000010
00001000
00000000
00000010
00001000
00000100
00000000
00000010
00000000
,
00000110
00000000
00000001
00000000
00001000
00000000
00000001
00000100
00000010
00000000
00000100
00000010
00001000
00000000
00000100
00000000
,
00000010
00000000
00001000
00000000
00010000
00000000
01000000
00100000
00010000
00000000
00100000
00010000
01000000
00000000
00100000
00000000
,
01100000
00000000
10000000
00000000
01000000
00000000
00100000
00001000
01000000
00000000
00010000
00100000
00002000
00000000
00000000
00000000
,
00003100
00000000
00000001
00000000
00001000
00000000
00000100
00000010
00000001
00000000
00000100
00000010
00001000
00000000
00000000
00000000
,
00000220
00000000
00000000
00000000
,
00000000
00000000
00000000
00000000
,
00000330
00000000
00000110
00001001
,
00000001
00000000
00001000
00000000
00000010
00000000
00000100
00000001
00000010
00000000
00000100
00000000
00001000
00000000
00000010
00010000
,
00000010
00000000
00000100
00000000
00001000
00000000
00010000
00100000
01000000
00000000
00010000
00000000
10000000
00000000
01000000
00000000
,
00010000
00001000
00100000
01000000
00010000
00001000
01000000
00100000
,
10100000
00101000
01001000
01010000
,
10000000
00000000
00010000
00000000
01000000
00000000
00100000
10000000
01000000
00000000
00100000
00000000
00010000
00000000
01000000
00001000
,
01000000
00000000
00100000
00000000
00010000
00000000
00001000
00000100
00000010
00000000
00001000
00000000
00000001
00000000
00000010
00000000
,
00001000
00010000
00000100
00000010
00001000
00010000
00000010
00000100
,
00000101
00010100
00010010
00001010
,
00001001
00000000
00000000
00000000
00000010
00000000
00001000
00000000
00000100
00000000
00000010
00000000
00000001
00001000
00000010
00000000
,
00000100
00000000
00001000
00000000
00010000
00000000
00100000
00000000
01100000
00000000
00000000
01010000
00000000
00000000
10010000
00000000
,
10000000
00000000
10000000
00000000
01000000
00000000
00100000
00000000
00010000
00000000
01000000
00000000
00010000
10000000
01000000
00000000
,
00100000
00000000
00100000
00000000
00001000
00010000
00001000
00010000
00000000
00000000
00000000
00001000
00000000
00000000
00001000
00000000
,
00000010
00000000
00000000
00000000
00000010
00000000
00000000
00000202
00000000
00000000
00000000
00000000
00000303
00000000
00000000
00000000
,
00001000
00000000
00000000
00000000
00001000
00000000
00000000
00020200
00000000
00000000
00000000
00000000
00030300
00000000
00000000
00000000
,
00001000
00000000
00000000
00000000
00100000
00000000
00000000
02020000
00000000
00000000
00000000
00000000
03030000
00000000
00000000
00000000
,
01000000
00000000
00000000
00000000
00100000
00000000
00000000
20020000
00000000
00000000
00000000
00000000
00000000
00000000
00000000
00000000
,
00000000
00000000
00000000
00000000
,
00000000
00000000
00000000
30030000
,
00100000
10000000
01000000
00010000
00001000
00000010
00000001
00000100
,
00001000
00010000
00100000
00010000
00001000
00000010
00001000
00000000
00010000
00000000
01000000
00000000
,
00000000
00000000
00000000
00000000
10000000
00010000
10000000
00010000
10000000
00000000
00000000
00100000
00000000
00000000
00100000
00000000
,
01000000
10010000
00100000
00011000
,
00000100
00010000
00001000
00000000
00010000
00000100
00001000
00000000
00000020
00000000
00000000
00000000
00000130
00000000
00000000
00000000
,
00000001
00000001
00000011
00000000
00000100
00001000
00001001
00000000
,
00000010
00000000
00000000
00000000
00000000
00000000
00000100
00000000
00000000
00001000
00000000
00000000
00000000
00000000
00000000
00010000
00000000
00000000
00001000
00000000
00000000
00000000
00000000
00000000
00100000
00000000
00000000
00000000
00001000
00000000
00000000
00000000
00010000
00000000
00000000
00000000
01000000
00000000
00000000
00000000
00000000
00000000
00000000
00000000
00000000
00000000
00000000
00000000
,
00100000
00000000
00010000
00000000
01000000
00000000
01000000
00000000
01000000
00000000
01000000
00000000
01000000
00000000
01000000
00100000
,
01000000
00000000
00010000
00100000
00000000
00001000
00010000
00000000
00000100
00000010
00000002
00000000
00000000
00000000
00000003
00000000
,
00001000
00000000
00001000
00000000
00000001
00000100
00001000
00000000
00010000
00000000
00001000
00000000
00010000
00100000
10000000
00000000
,
01000000
00000000
00100000
00010000
00000000
00001000
00010000
00000000
00000000
00000000
00000000
00000000
00011000
00000000
00000000
00000000
,
00000000
00000000
00000000
00000000
;
#NOTES:
     dance-double:
     :
     Challenge:
     18:
     :
00000000
00000000
00000000
00000000
,
00000000
00000000
00000000
00000000
,
00000000
00000000
00000000
00000000
,
00000000
00000000
00000000
00000000
,
00000000
00000000
00000000
00000000
,
00001000
00000000
00000000
00000000
00000000
00010000
00001000
00000000
01000000
00000000
00000000
00200000
00000000
00000000
00000000
00000000
00000000
00000000
00300000
00000000
00000000
01000000
00000000
00000000
,
00010000
00000000
00000000
00000000
00000000
00100000
00010000
00000000
10000000
00000000
00000000
01000000
00000000
00000000
10000000
00200000
00000000
00000000
00000000
00000000
00000000
00300000
00000000
00000000
,
01000000
00000000
00000000
00000000
00000000
00010000
00100000
00000000
00001000
00000000
00000000
00010000
00000000
00000000
00000000
00001000
00010000
00001000
00010000
00001000
00010000
00001000
00010000
00001000
,
00010000
00000000
00000000
00000000
00000000
00000000
00011000
00000000
00000000
00000000
00000000
00010100
00000000
00000000
00000000
00000100
00001000
00000100
00000010
00000001
00001000
00000001
00001000
00000010
,
00000100
00000000
00000000
00000000
00000000
00000000
00000001
00000100
00000001
00000100
00000001
00000100
00000001
00000000
00001000
00000100
00000000
00010000
00001000
00000000
00100000
00010000
00000000
01000000
,
00100000
00000000
10000000
01000000
00000000
00100000
00010000
00000000
10000000
01000000
00000000
00100000
00001000
00000000
00010000
00000100
00000000
00000000
00000000
00000000
00001100
00000000
00000000
00000000
,
00000011
00001000
00001100
00010000
00011000
01000000
01010000
10000000
,
00100000
10000000
01000000
00010000
00001000
00000100
00000001
00000000
00000000
00000000
00000000
00000000
,
00001001
00000000
00000000
00000000
00000000
00000000
00000001
00000010
00000100
00001000
00000100
00000010
00000001
00000000
00000100
00000010
00000000
00001000
00000100
00000000
00010000
00001000
00000000
00100000
,
00010000
00000000
01000000
00100000
00000000
10000000
01000000
00000000
00100000
00010000
00100000
01000000
10000000
00000000
00100000
01000000
00000000
00010000
00100000
00000000
00001000
00010000
00000000
00000000
,
00000100
00000000
00000000
00000000
00000000
00000000
00001000
00000100
00000010
00000001
00001000
00000001
00001000
00000000
00000010
00001000
00000000
00000100
00010000
00000000
00001000
00010000
00001000
00010000
,
00001000
00000000
00000000
00100000
00000000
00000000
01000000
00000000
00000000
00000000
00000000
10000000
00100000
00000000
00000000
01000000
00000000
00000000
00010000
00000000
00000000
10000000
00000000
00000000
,
10010000
00000000
00000000
00000000
00000000
00000000
00000000
00000000
10000000
00000000
00000000
00000000
01000000
00000000
00000000
00000000
00010000
00000000
00000000
00000000
00001000
00000000
00000000
00000000
00010000
00000000
00000000
00000000
00001000
00010000
00001000
00010000
,
00001000
00000000
00000000
00010000
00000000
00000000
00001000
00000000
00000000
00000010
00000000
00000000
00000001
00000000
00001000
00000000
00000000
00001000
00000100
00000000
00000000
00010000
00000000
00000000
,
00001000
00000000
00000000
00000000
00000000
00011000
00000000
00000000
00000000
00100000
00000000
00000000
00110000
00000000
00000000
00000000
00000000
11000000
00000000
00000000
00000000
00100000
00000000
00000000
,
00001000
00000000
00000000
00000000
00000000
00011000
00000000
00000000
00000000
00010000
00000000
00000000
00000010
00000000
00000000
00000100
00000000
00000000
00001000
00000000
00000000
00010000
00000000
00000000
,
00011000
00000000
00000000
00000000
00000000
00000000
00001000
00010000
00001000
00010000
00001000
00010000
00001000
00000000
00000000
00010000
00000000
00000000
00000100
00001000
00000100
00010000
00001000
00010000
,
00000100
00001000
00000100
00010000
00001000
00010000
00000100
00001000
00000100
00010000
00001000
00010000
00000100
00000000
00000000
00010000
00000000
00000000
00001000
00000000
00011000
00000000
00000000
00000000
,
00001000
00000000
00000000
00010000
00000000
00000000
00001000
00010000
00001000
01000000
00010000
01000000
00001000
00010000
00001000
01000000
00010000
01000000
00001000
00000000
00000000
00010000
00000000
00000000
,
00001000
00000000
00000000
00000000
00000000
00000000
00100000
00000000
00000000
00000000
00000000
00000000
00010000
00000000
00100000
00000000
01000000
00000000
10000000
00000000
00000000
01000000
00000000
00000000
00010000
00000000
00000000
00000000
00001000
00000000
00000000
00000000
00000010
00000000
00000000
00000000
00000001
00000000
00000000
00000000
00000000
00000000
00000000
00000000
00000000
00000000
00000000
00000000
,
00000010
00000000
00000000
00000000
00001000
00000000
00000000
00000000
00010000
00000000
00000000
00000000
01000000
00000000
00000000
00000000
10000000
00000000
00000000
00000000
00100000
00000000
00000000
00000000
10000000
00000000
00000000
00000000
00010000
01000000
00010000
01000000
,
00010000
00000000
00000000
10000000
00000000
00000000
01000000
00000000
00000000
00000000
00000000
00100000
00000000
00000000
00000000
00010000
00000000
00000000
10010000
00000000
00000000
00000000
00000000
00000000
,
10000000
00000000
00100000
01000000
00000000
00010000
10000000
00000000
01000000
00010000
00000000
00001000
00000010
00000000
00000001
00001000
00000000
00000010
00000100
00000000
00000001
00001000
00000000
00000100
,
00000020
00000000
00000000
00000030
,
00000011
00000000
00000000
00000000
00000000
00001000
00000100
00000000
00010000
00000000
00000000
00001000
00000000
00000000
00100000
00010000
00000000
01000000
00100000
00000000
00000000
10000000
00000000
00000000
,
00010000
00000000
00000000
00000000
00000000
10000000
01000000
00000000
00010000
00000000
00000000
00001000
00000000
00000000
00010000
00000100
00000000
00001000
00000010
00000000
00000000
00001000
00000000
00000000
,
00000001
00000000
00000000
00000000
00000000
00000001
00000100
00000000
00000010
00000000
00000000
00010000
00000000
00000000
00001000
01000000
00000000
00010000
00100000
00000000
00000000
01000000
00000000
00000000
,
10000000
00000000
00000000
00000000
00000000
00100000
01000000
00000000
00001000
00000000
00000000
00010000
00000000
00000000
00000000
00000100
00000000
00000000
00001000
00000100
00000010
00000001
00001000
00000001
,
00001000
00000000
00000000
00000000
00000000
00000001
00000010
00000000
00001000
00000000
00000000
00010000
00000000
00000000
00001000
01000000
00000000
00100000
10000000
00000000
00000000
01000000
00000000
00000000
,
00010000
00000000
00000000
00000000
00000000
00000100
00001000
00000000
00000010
00000000
00000000
00000100
00000000
00000000
00000001
00000010
00000000
00000100
00001000
00000000
00000000
00000010
00000000
00000000
,
00010000
00000000
00000000
00000000
00000000
00001000
00010000
00000000
00001000
00000000
00000000
01000000
00000000
00000000
00000000
00010000
00000000
00000000
10000000
01000000
00100000
00010000
10000000
00010000
,
01000000
00000000
00000000
00000000
00000000
00000000
01010000
00000000
00000000
00000000
00000000
10010000
00000000
00000000
00000000
00000000
00000000
00000000
00000000
00000000
00000000
00000000
00000000
00000000
,
20000000
00000000
00000000
30000000
00000000
00000000
00100000
00000000
00000000
00000000
00000000
10000000
00010000
00000000
00000000
10000000
00000000
00100000
01000000
00000000
00000000
00010000
00000000
00000000
,
00200000
00000000
00000000
00300000
00000000
00000000
00001000
00000000
00000000
00010000
00000000
00000000
01000000
00000000
00000000
10000000
00000000
01000000
00100000
00000000
00001000
00010000
00000000
00000010
,
00002000
00000000
00000000
00003000
00000000
00000000
00000001
00000000
00000000
00001000
00000000
00000100
00010000
00000000
00000000
00001000
00000000
00000000
00000100
00000000
00000000
00000001
00000000
00000000
,
00000001
00001010
00010000
00001100
00000001
00001010
00010000
00001100
,
00000001
00000000
00000000
00000010
00000000
00000000
00000100
00000000
00000000
00010000
00000000
00001000
00010000
00000000
00000000
00001000
00000000
00100000
01000000
00000000
00010000
00000000
00001000
00000000
,
00000100
00000000
00000000
00000001
00000000
00000000
00000010
00000000
00000000
00001000
00000000
00010000
00001000
00000000
00000000
00000000
00000000
00100000
00000000
00000000
00000000
00010000
00000000
00000000
,
20000000
30000000
02000000
03000000
00200000
00300000
00020000
00030000
,
00000000
00000000
00000000
00000000
00000000
00000000
10000000
00000000
01000000
00000000
10000000
00000000
01000000
00000000
00000000
00010000
00000000
00000000
00001000
00000000
00000000
00000100
00000000
00000000
00000020
00000000
00000000
00000000
00000000
00000000
00000000
00000000
00000000
00000000
00000000
00000000
00000000
00000000
00000000
00000000
00000000
00000000
00000000
00000000
00000000
00000000
00000000
00000000
,
00000030
00000000
00000000
00000000
00000000
00000000
00000000
00000000
00000000
00000000
00000000
00000000
00010000
00000000
00000000
00000000
00000000
00000000
00001000
00000000
00000000
00010000
00000000
00000100
,
00000010
00000000
00000000
00000001
00000000
00000000
00000100
00000000
00000000
00001000
00000000
00010000
00001000
00000000
00000000
00100000
00000000
00000000
01000000
00000000
00000000
10000000
00000000
00010000
,
01000000
00000000
00000000
00100000
00000000
00000000
00010000
00000000
00000000
00001000
00000000
00010000
00000100
00000000
00000000
00000010
00000000
00000000
00001000
00000000
00000000
00010000
00000000
00000000
,
00000100
00000000
00000000
00000000
00000000
00000010
00000001
00000000
00000000
00000000
00000000
00000001
00000100
00000000
00000000
00000000
00000000
00001000
00010000
00000000
00000000
00000000
00000000
00100000
,
10000000
00000000
00000000
00000000
00000000
10000000
01000000
00000000
00000000
00000000
00000000
00010000
00001000
00000000
00000000
00000000
00000000
00000000
00010000
00000000
00000100
00000000
00000000
00000010
,
00000001
00000000
00000000
00000100
00000000
00000000
00001000
00000000
00000000
00010000
00000000
00000100
00000010
00000000
00000000
00001000
00000000
00000000
00010000
00000000
00000000
00001000
00000000
01000000
,
00100000
00000000
00000000
00010000
00000000
00000000
00100000
00000000
00000000
10000000
00000000
01000000
00100000
00000000
00000000
00001000
00000000
00000000
00010000
00000000
00000000
00000100
00000000
00000000
,
00000010
00000000
00000000
00000000
00000000
00000001
00000100
00000000
00000000
00000000
00000000
00000010
00010000
00000000
00000000
00000000
00000000
00001000
01000000
00000000
00000000
00000000
00000000
00100000
,
10000000
00000000
00000000
00000000
00000000
01000000
00100000
00000000
00000000
00000000
00000000
00010000
10000000
00000000
00100000
00000000
00000000
00100000
00000000
00000000
00100000
01000000
00000000
00000000
,
10100000
00000000
00000000
00000000
00000000
00010000
01000000
00000000
00001000
00000000
00000000
00010000
00000000
00000000
00000010
00001000
00000000
00000100
00000010
00000000
00000000
00000001
00000000
00000000
,
00001000
00000000
00000000
00000000
00000000
00000001
00000100
00000000
00001000
00000000
00000000
00010000
00001000
00000000
00000000
00000000
00000000
00101000
00000000
00000000
00000000
00110000
00000000
00000000
,
00010000
00000000
00000000
01000000
00000000
00000000
10000000
00000000
00000000
00000000
00000000
01000000
00100000
00000000
00000000
00010000
00000000
00001000
00010000
00000000
00000000
00000100
00000000
00000000
,
00000010
00000000
00000000
00001000
00000000
00000000
00010000
00000000
00000000
00000010
00000000
00001010
00000000
00000000
00000000
00000000
00000000
00001000
00000000
00000000
00000000
00000001
00000000
00000000
,
00001001
00000000
00000000
00000000
00000000
00000000
00000100
00000000
00000000
00000000
00000000
00000220
00000000
00000000
00000000
00000000
00000000
00000000
00000330
00000000
00000000
00000000
00000000
00000000
,
00011000
00000000
00000000
00000000
00000000
00000000
01001000
00000000
00000000
00000000
00000000
02020000
00000000
00000000
00000000
00000000
00000000
00000000
03030000
00000000
00000000
00000000
00000000
00000000
,
00110000
00000000
00000000
00000000
00000000
00000000
11000000
00000000
00000000
00000000
00000000
10010000
00000000
00000000
00000000
10000000
01000000
00100000
00010000
10000000
00010000
10000000
01000000
00100000
,
00010000
00000000
00000000
00000000
00000000
00000000
00101000
00000000
00000000
00000000
00000000
00022000
00000000
00000000
00000000
00000000
00000000
00000000
00000000
00000000
00000000
00000000
00000000
00000000
,
00000000
00000000
00000000
00000000
00000000
00000000
00033000
00000000
00000000
00000000
00000000
00000000
00001000
00010000
00001000
00010000
00001000
00010000
00001000
00010000
00001000
00010000
00001000
00010000
,
00001000
00000000
00000000
00010000
00000000
00000000
00001000
00000000
00000000
00010000
00000000
00000000
00001000
00000000
00000000
00010000
00000000
00000000
00001000
00000000
00000000
00010000
00000000
00000000
00001000
00000000
00000000
00000000
00010000
00000000
00000000
00000000
00001000
00000000
00000000
00000000
00010000
00000000
00000000
00000000
00001000
00000000
00000000
00000000
00010000
00000000
00000000
00000000
,
00011000
00001000
00011000
00010000
00011000
00001000
00011000
00010000
,
00001000
00001000
00001000
00010000
00010000
00010000
00001000
00000000
00010000
00000000
00002000
00000000
,
00003000
00000000
00000000
00000000
00000000
00000000
00010000
00000000
00000100
00001000
00000000
00000010
00000100
00000000
00000000
00000000
00000000
00000101
00000000
00000000
00000000
00000011
00000000
00000000
,
00001001
00000000
00000000
00000000
00000000
00000000
00001000
00000100
00000010
00000001
00000010
00000100
00001000
00000000
00000001
00000100
00000000
00001000
00010000
00000000
00001000
00100000
00000000
01000000
,
10000000
00000000
00010000
01000000
00000000
00100000
10000000
00000000
01000000
00010000
00000000
00001000
00010000
00000000
00000010
00001000
00000000
00000001
00000100
00000000
00001000
00010000
00000000
00000000
,
00011000
00000000
00000000
00101000
00000000
00000000
00100000
00010000
00100000
01000000
10000000
00010000
01000000
00000000
00001000
00010000
00000000
00000010
00001000
00000000
00000001
00000010
00000100
00001000
,
00000100
00000000
00000000
00000000
00000000
00010000
00000000
00000000
00000000
00000010
00000000
00000000
00000100
00000000
00001000
00000000
00010000
00000000
02000000
00000000
00000000
03000000
00000000
00000000
,
00100000
00000000
00000000
00000000
00010000
00000000
00000000
00000000
00110000
00000000
00000000
00000000
11000000
00000000
00000000
00000000
10000000
00000000
00000000
00000000
01000000
00000000
00000000
00000000
00100000
00000000
00000000
00000000
00010000
10000000
00010000
10000000
,
00010000
00000000
00000000
01000000
00000000
00100000
00000000
00000000
00010000
00001000
00000000
00000000
00010000
00000000
00000000
00000200
00000000
00000000
00000000
00000000
00000000
00000300
00000000
00000000
,
00001000
00000000
00000000
00000001
00000000
00000000
00000001
00000000
00000100
00001000
00000000
00010000
00100000
00000000
00000000
10000000
00000000
00000000
10000000
00000000
01000000
00010000
00000000
00001000
,
00000010
00000000
00000000
00000000
00000000
00000001
00000000
00000000
00000000
00001000
00000000
00000000
00000001
00000010
00000100
00001000
00000010
00010000
00002000
00000000
00000000
00000000
00000000
00000000
,
00000000
00003000
00000000
00000000
,
00000000
00000000
00000000
00000000
;
