
//----- song ID: yume -----//
#TITLE:ユメブキ;
#ARTIST:紫崎 雪,Risa Yuzuki,709sec. by BEMANI Sound Team "PHQUASE \& SYUNN";
#TITLETRANSLIT:Yumebuki;
#ARTISTTRANSLIT:Yuki Shizaki, Risa Yuzuki, 709sec. by BEMANI Sound Team "PHQUASE \& SYUNN";
#BANNER:Yumebuki.png;
#BACKGROUND:Yumebuki-bg.png;
#CDTITLE:./CDTitles/BEMANI 2021 manatsu no utagassen 5 ban shoubu.png;
#MUSIC:Yumebuki.ogg;
#SAMPLESTART:71.054;
#SAMPLELENGTH:15;
#BPMS:0=200;
#NOTES:
     dance-single:
     :
     Beginner:
     4:
     :
0000
0000
0000
0000
,
0000
0000
0000
0000
,
0000
0000
0000
0000
,
0000
0000
0000
0000
,
0000
0000
0000
0000
,
0001
0000
0010
0000
,
0001
0000
0000
0000
,
1000
0000
0100
0000
,
1000
0000
0000
0000
,
0000
0000
0000
0000
,
0000
0000
0000
0000
,
0010
0000
1000
0000
,
0010
0000
1000
0000
,
0100
0000
1000
0000
,
0100
0000
0000
0000
,
0010
0000
0001
0000
,
0010
0000
0001
0000
,
0100
0000
0001
0000
,
0100
0000
0000
0000
,
0001
0000
0100
0000
,
0001
0000
0100
0000
,
0010
0000
1000
0000
,
0010
0000
0000
0000
,
1000
0000
0100
0000
,
1000
0000
0100
0000
,
0010
0000
0001
0000
,
0010
0000
0000
0000
,
0001
0000
0010
0000
,
0100
0000
0010
0000
,
0001
0000
0100
0000
,
0010
0010
0010
0000
,
0100
0000
0001
0000
,
0100
0000
0000
0000
,
0100
0000
1000
0000
,
0100
0000
0000
0000
,
1000
0000
0010
0000
,
0100
0000
0010
0000
,
1000
0000
0100
0000
,
0010
0010
0010
0000
,
0100
0000
1000
0000
,
0100
0000
0000
0000
,
0001
0000
0010
0000
,
0001
0000
0000
0000
,
1001
0000
0000
0000
,
1001
0000
0000
0000
,
1000
0000
0010
0000
,
1000
1000
1000
0000
,
1001
0000
0000
0000
,
1001
0000
0000
0000
,
0001
0000
0010
0000
,
0001
0001
0001
0000
,
0110
0000
0000
0000
,
0110
0000
0000
0000
,
0001
0000
1000
0000
,
1001
0000
0000
0000
,
0001
0000
0100
0000
,
0001
0000
0100
0000
,
0010
0000
1000
0000
,
0010
0000
1000
0000
,
1001
0000
0000
0000
,
1000
0000
0100
0000
,
1000
1000
1000
0000
,
0010
0000
0100
0000
,
0001
0000
0000
0000
,
0001
0000
0100
0000
,
0001
0001
0001
0000
,
0010
0000
0100
0000
,
1000
0000
0000
0000
,
1000
0000
0100
0000
,
0001
0000
0100
0000
,
1000
0000
0010
0000
,
0100
0100
0100
0000
,
0001
0000
0010
0000
,
1000
0000
0010
0000
,
0001
0000
0100
0000
,
0010
0000
0000
0000
,
0100
0000
0100
0000
,
0110
0000
0000
0000
,
0010
0000
0010
0000
,
0110
0000
0000
0000
,
0001
0000
0001
0000
,
1001
0000
0000
0000
,
1000
0000
1000
0000
,
1001
0000
0000
0000
,
0010
0000
1000
0000
,
0001
0000
0100
0000
,
0001
0000
0010
0000
,
0100
0001
0100
0000
,
1000
0000
0010
0000
,
0100
0000
0001
0000
,
0100
0000
0010
0000
,
1000
0010
1000
0000
,
1001
0000
0000
0000
,
0000
0000
0000
0000
;
#NOTES:
     dance-single:
     :
     Easy:
     8:
     :
0000
0000
0000
0000
,
0000
0000
0000
0000
,
0000
0000
0000
0000
,
0000
0000
0000
0000
,
0000
0000
0000
0000
,
0001
0000
0000
0001
0000
0000
2002
0000
,
0000
0000
3003
0000
,
1000
0000
0000
1000
0000
0000
2002
0000
,
0000
0000
0000
0000
,
0000
0000
0000
0000
,
0000
0000
0000
3003
,
1000
0010
1000
0010
,
0100
0001
0100
0000
,
0001
0010
0001
0010
,
0100
1000
0100
0000
,
1000
0001
1000
0001
,
0100
0010
0100
0000
,
0001
1000
0001
1000
,
0100
0010
0100
0000
,
1000
0010
0100
0001
,
0100
0010
1000
0000
,
0001
0010
0100
1000
,
0100
0010
0001
0000
,
0100
0010
1000
0001
,
0100
0010
1000
0000
,
0100
0010
0001
1000
,
0010
0100
0001
0000
,
1000
0000
0001
0000
0010
0001
0010
0000
,
0100
1000
0010
0100
,
0001
0000
1000
0000
0100
1000
0100
0000
,
0010
0001
1000
0010
,
0100
0000
0001
0000
0010
0100
0010
0000
,
0001
1000
0100
1000
,
0010
0000
0100
0000
0001
1000
0001
0000
,
1000
0010
0100
0000
,
0001
0000
1000
0000
0100
1000
0100
0000
,
0010
0001
0100
0010
,
1000
0000
0001
0000
0010
0001
0010
0000
,
0100
1000
0001
0100
,
0010
0000
1000
0000
0100
0010
0100
0000
,
1000
0001
0010
0001
,
0100
0000
0010
0000
1000
0001
0000
1000
,
0001
0000
0100
0000
0010
0100
0010
0000
,
0000
0000
1000
0000
1000
1000
0000
0000
,
0001
0000
0001
0001
0000
0000
0000
0000
,
0010
0100
1000
0100
,
0010
0100
1000
0000
,
0000
0000
0010
0000
0010
0010
0000
0000
,
0100
0000
0100
0100
0000
0000
0000
0000
,
0001
0100
0010
0100
,
0001
0100
0010
0000
,
0000
0000
1000
0000
0100
0100
0000
0000
,
0010
0000
0001
0001
0000
0000
0000
0000
,
0001
0100
1000
0100
,
0001
1000
0001
0000
,
0010
0010
0001
0001
,
0100
0100
1000
1000
,
0010
1000
0010
0000
0100
0001
0100
0000
,
0010
0000
0110
0000
,
2002
0000
0000
3003
,
0010
1000
0001
0100
,
0010
1000
0010
0000
0100
0000
0000
0000
,
0001
0010
1000
0010
,
0001
0001
0001
0000
,
0100
0001
0010
0100
,
1000
0000
0001
0000
0100
0010
0100
0000
,
0001
0100
1000
0100
,
0010
0220
0000
0330
,
0100
0001
1000
0010
,
0100
0001
0100
0000
0010
0000
0000
0000
,
1000
0100
0001
0100
,
1000
1000
1000
0000
,
0010
1000
0100
0010
,
0001
0000
1000
0000
0010
0100
0010
0000
,
1000
0010
0001
0010
,
0100
0220
0000
0330
,
1010
0000
1100
0000
,
1001
0000
0000
0000
0001
1000
0001
0000
,
0011
0000
0101
0000
,
1001
0000
0000
0000
1000
0001
1000
0000
,
1100
0000
0101
0000
,
1001
0000
0000
0000
0100
0001
0010
0000
,
0011
0000
1010
0000
,
1001
0000
0000
0000
0100
1000
0010
0000
,
1000
0010
1000
0010
,
0001
0010
0001
0010
,
1000
0001
1000
0100
,
0001
0100
1000
1001
,
0010
1000
0010
0100
,
0010
0001
0010
0100
,
0010
1000
0001
0100
,
0010
0100
0010
0000
1000
0001
1000
0001
,
0000
0000
0000
0000
;
#NOTES:
     dance-single:
     :
     Medium:
     12:
     :
0000
0000
0000
0000
,
0000
0000
0000
0000
,
0000
0000
0000
0000
,
0000
0000
0000
0000
,
0000
0000
0000
0000
,
0011
0000
0000
0101
0000
0000
2002
0000
,
0000
0000
3003
0000
,
1010
0000
0000
1100
0000
0000
2002
0000
,
0000
0000
0000
0000
,
0000
0000
0000
0000
,
0000
0000
0000
3003
,
0001
0000
0100
0000
0000
0001
0000
0100
,
0001
0000
0100
0000
0000
0001
0000
0000
,
1000
0000
0010
0000
0000
1000
0000
0010
,
1000
0000
0010
0000
0000
1000
0000
0000
,
0001
0000
0010
0000
0000
0001
0000
0010
,
0001
0000
0010
0000
0000
0001
0000
0000
,
1000
0000
0100
0000
0000
1000
0000
0100
,
1000
0000
0100
0000
0000
1000
0000
0000
,
0100
0000
1000
0000
0001
0010
0001
0000
,
0100
0000
0001
0000
1000
0010
1000
0000
,
0001
0000
0100
0000
0001
1000
0100
0000
,
1000
0000
0010
0000
1000
0001
0010
0000
,
0010
0000
0001
0000
1000
0100
1000
0000
,
0010
0000
1000
0000
0001
0100
0001
0000
,
1000
0000
0010
0000
1000
0001
0010
0000
,
0100
0000
1000
0001
1000
0000
0000
0000
,
0010
0100
0001
0000
0010
0100
1000
0000
,
0001
0000
0000
0000
0100
0000
0000
0100
0000
0000
0010
0000
0100
0000
0000
0000
,
0001
0100
0010
0000
1000
0100
0010
0000
,
0001
0000
0000
0000
0010
0000
0000
0010
0000
0000
0100
0000
0010
0000
0000
0000
,
0001
1000
0100
0000
1000
0001
0010
0000
,
0100
0000
0000
0000
1000
0000
0000
1000
0000
0000
0001
0000
1000
0000
0000
0000
,
0001
1000
0010
0000
1000
0001
0100
0000
,
0010
0000
0000
0000
1000
0000
0000
0100
0000
0000
0010
0000
0001
0000
0000
0000
,
0100
0010
1000
0000
0100
0010
0001
0000
,
1000
0000
0000
0000
0010
0000
0000
0010
0000
0000
0100
0000
0010
0000
0000
0000
,
1000
0010
0100
0000
0001
0010
0100
0000
,
1000
0000
0000
0000
0100
0000
0000
0100
0000
0000
0010
0000
0100
0000
0000
0000
,
1000
0001
0010
0000
0001
1000
0100
0000
,
0010
0000
0000
0000
0001
0000
0000
0001
0000
0000
1000
0000
0001
0000
0000
0000
,
1000
0001
0100
0000
0001
1000
0010
0000
,
0100
0000
1001
0000
0001
0010
0100
1000
,
0000
0000
0001
0010
0001
0010
0000
0000
,
0100
1000
0100
1000
0000
1000
0000
0010
,
0100
0001
0010
0000
0001
0010
0100
0000
,
0100
1000
0010
0000
0100
0001
1000
0001
,
0000
0000
1000
0010
1000
0010
0000
0000
,
0100
0001
0100
0001
0000
0001
0000
0010
,
0100
1000
0010
0000
1000
0010
0100
0000
,
0100
0001
0010
0000
0100
1000
0001
1000
,
0000
0000
0001
0100
0001
0100
0000
0000
,
1000
0100
1000
0100
0000
0001
1000
0001
,
0010
0000
0010
0100
1000
0000
1000
0001
,
0020
0001
0130
1000
,
1010
0010
0101
0001
,
0011
0010
1100
1000
,
0010
0100
0010
0100
0010
0100
0010
0000
,
0110
0000
2002
0000
,
3003
0010
0100
0010
,
1001
0000
1000
0100
0010
0000
0100
0010
,
0001
0100
0001
1000
0000
0010
0100
0001
,
1000
0000
0010
0100
0001
0000
1000
0100
,
0001
0100
1000
0001
0000
0100
0010
1000
,
0001
0000
0001
1000
0010
0000
0100
0010
,
0100
0000
0000
0000
0001
0000
1000
0000
0001
0000
0000
0010
0000
0000
0100
0000
,
1000
0100
1000
0100
0001
0100
1000
0100
,
0010
0001
2000
0000
0000
0000
3000
0000
,
1000
0000
0001
0010
0100
0000
0010
0100
,
1000
0010
1000
0001
0000
0100
0010
1000
,
0001
0000
0100
0010
1000
0000
0001
0010
,
1000
0010
0001
1000
0000
0010
0100
0001
,
1000
0000
1000
0001
0100
0000
0010
0100
,
0010
0000
0000
0000
1000
0000
0001
0000
1000
0000
0000
0100
0000
0000
0010
0000
,
0001
0010
0001
0010
1000
0010
0001
0010
,
0100
1000
0002
0000
0000
0000
0003
1000
,
1100
0000
0000
0001
0101
0000
0000
0010
,
0110
0000
1001
0000
0100
0010
1000
0001
,
0011
0000
0000
1000
1010
0000
0000
0100
,
0110
0000
1001
0000
0010
0001
1000
0100
,
1100
0000
0000
0010
0011
0000
0000
0001
,
1001
0000
0110
0000
0010
1000
0001
0100
,
0101
0000
0000
0010
1010
0000
0000
1000
,
1001
0000
0110
0000
1000
0001
1000
0001
,
1000
0010
0100
0001
0010
0100
0010
0001
,
1000
0100
0010
0001
0100
0010
1000
0000
,
0001
0100
0010
1000
0001
0100
0010
1000
,
0100
0010
0001
0010
0100
1000
0100
0000
,
1000
0010
0001
0010
1000
0100
0010
0001
,
1000
0100
0001
0100
1000
0010
0100
0001
,
1000
0100
1000
0100
0010
0001
0100
0001
,
0010
0100
0110
0000
1000
0001
1000
1001
,
0000
0000
0000
0000
;
#NOTES:
     dance-single:
     :
     Hard:
     15:
     :
0000
0000
0000
0000
,
0000
0000
0000
0000
,
0000
0000
0000
0000
,
0000
0000
0000
0000
,
0000
0000
0000
0000
,
0011
0000
0000
1100
0000
0000
2002
0000
,
0000
0000
3003
0000
,
1010
0000
0000
0101
0000
0000
2002
0000
,
0000
0000
0000
0000
,
0000
0000
0000
0000
,
0000
0000
0000
3003
,
0001
0000
0100
0000
0000
0100
0000
0100
,
0100
0000
0100
0000
0000
0100
0000
0000
,
1000
0000
0100
0000
0000
0100
0000
0100
,
0100
0000
0100
0000
0000
0100
0000
0000
,
0001
0000
0010
0000
0000
0010
0000
0010
,
0010
0000
0010
0000
0000
0010
0000
0000
,
1000
0000
0010
0000
0000
0010
0000
0010
,
0010
0000
0010
0000
0000
0010
0000
0000
,
1000
0010
1000
0010
0100
0001
0100
0001
,
0010
0001
0010
0001
1000
0100
1000
0100
,
1000
0001
1000
0001
0100
0010
0100
0010
,
1000
0001
1000
0001
0010
0100
0010
0100
,
1000
0010
0100
0010
1000
0100
0010
0001
,
0100
0001
0010
0001
0100
0010
1000
0100
,
0010
0001
0010
0100
1000
0001
0100
0001
,
0010
0000
0100
0000
1000
0001
1000
0001
1000
0000
0100
0000
0100
0000
0000
0000
,
1001
0000
0010
0000
0000
0010
1000
0001
,
0100
0000
0000
0000
0010
0000
1000
0100
0010
0000
0001
0000
1000
0000
0000
0000
,
0110
0000
1000
0000
0000
1000
0010
0100
,
0001
0000
0000
0000
0010
0000
0001
1000
0100
0000
1000
0000
0010
0000
0000
0000
,
0101
0000
0001
0000
0000
0010
1000
0010
,
0001
0000
0000
0000
0100
0000
0001
0010
0100
0000
1000
0000
0001
0000
0000
0000
,
1010
0000
1000
0000
0000
0100
0001
0100
,
1000
0000
0000
0000
0010
0000
0100
0001
1000
0000
1000
0000
0100
0000
0100
0000
,
0010
0000
1001
0000
0000
0100
0001
0010
,
0100
0000
0000
0000
1000
0000
0010
0001
0010
0000
1000
0000
0001
0000
0000
0000
,
0010
0000
1001
0000
0000
0100
1000
0010
,
0100
0000
0000
0000
0001
0000
0010
1000
0010
0000
0001
0000
1000
0000
0000
0000
,
0100
0000
0000
0100
0010
0000
0001
0000
0100
0000
0000
0100
0010
0000
1000
0000
,
0001
0000
0000
0001
0100
0000
0010
0000
1000
0000
0000
1000
0100
0000
0010
0000
,
0001
0000
0100
0000
0001
0000
0100
0000
0010
1000
0010
0000
0000
0000
0010
0000
,
1000
0000
1000
0001
0100
0100
0100
0100
,
0000
0000
0010
0010
1000
0010
0000
0000
,
0100
0000
0100
0000
0001
0000
0100
0000
0000
0000
0100
0000
0001
0010
0100
0000
,
1000
0100
1100
0000
0001
0100
0101
0000
,
1000
0010
1010
0000
0001
0010
0011
0000
,
0000
0000
0100
0100
0001
0100
0000
0000
,
0010
0000
0010
0000
1000
0000
0010
0000
0000
0000
0010
0000
1000
0100
0010
0000
,
0001
0010
0011
0000
1000
0010
1010
0000
,
0001
0100
0101
0000
1000
0100
1100
0000
,
0000
0000
0010
0001
0100
0110
0000
0000
,
0010
1000
0100
0110
0000
0001
0000
0001
,
0010
1000
0010
1000
0010
0001
0010
0001
,
1000
0000
0100
0000
0001
0000
0100
0000
1000
0000
0010
0100
0001
0100
0010
0000
,
1000
1000
1100
1100
,
0001
0001
0011
0011
,
0010
0001
0010
0001
1000
0001
1000
0010
1000
0010
0100
0010
,
0100
0000
0000
0000
0000
0000
0010
1000
0001
0100
0001
0010
,
0100
2002
0000
3003
,
0001
0000
0000
0010
0001
0000
0100
0000
0010
0000
0000
0100
0010
0000
1000
0000
,
0100
0000
0000
1000
0100
0000
1000
0000
0010
0100
0000
0001
1000
0000
0010
0000
,
0100
0000
0000
0010
1000
0000
0010
0000
0100
0000
0000
0001
0010
0000
0100
0000
,
1000
0000
0000
0010
0100
0000
0010
0000
1000
0100
0010
0001
0010
0000
0000
0000
,
0001
0000
0000
0010
0100
0000
1000
0000
0010
0000
0000
0100
0001
0000
0010
0000
,
0100
0000
0000
0001
0100
0000
1000
0000
0001
0000
0000
0010
0000
0000
0001
0000
,
0100
0010
1010
0000
0100
0011
0000
1000
,
0010
0100
2002
0000
0000
0000
3003
0000
,
1000
0000
0000
0100
1000
0000
0010
0000
0100
0000
0000
0010
0100
0000
0001
0000
,
0010
0000
0000
0001
0010
0000
0001
0000
0100
0010
0000
1000
0001
0000
0100
0000
,
0010
0000
0000
0100
0001
0000
0100
0000
0010
0000
0000
1000
0100
0000
0010
0000
,
0001
0000
0000
0100
0010
0000
0100
0000
0001
0010
0100
1000
0100
0000
0000
0000
,
1000
0000
0000
0100
0010
0000
0001
0000
0100
0000
0000
0010
1000
0000
0100
0000
,
0010
0000
0000
1000
0010
0000
0001
0000
1000
0000
0000
0100
0000
0000
1000
0000
,
0010
0100
0001
0100
0010
0000
1000
0001
,
0100
0000
0010
0000
1001
0000
0000
0000
1001
0000
0000
1001
0000
0000
1000
0100
,
0010
0000
0000
0000
0000
0000
0001
0100
0010
0000
0000
0000
0000
0000
1000
0100
,
0010
0000
0000
0000
0000
0000
0000
0000
0100
0000
0100
0000
0100
0000
1000
0010
,
0100
0000
0000
0000
0000
0000
0001
0010
0100
0000
0000
0000
0000
0000
1000
0010
,
0100
0000
0000
0000
0000
0000
0000
0000
0001
0100
0010
1000
0010
0000
0100
0001
,
1000
0000
0000
0000
0000
0000
0100
1000
0001
0000
0000
0000
0000
0000
0100
0001
,
0010
0000
0000
0000
0000
0000
0000
0000
0010
0000
0010
0000
0010
0000
0001
1000
,
0010
0000
0000
0000
0000
0000
1000
0001
0010
0000
0000
0000
0000
0000
0100
0000
,
0010
0100
0010
0000
0001
0000
0001
0000
1000
0000
0010
0000
1000
0000
0100
0000
,
0010
0000
0001
1000
0001
0000
0100
0000
0010
0000
0100
0000
0000
0000
0100
0000
,
0001
0010
0100
1000
0100
0010
0001
0000
,
0100
0010
1000
0100
0010
0001
0100
0010
,
1000
0100
1000
0100
1000
0000
0010
0000
0100
0000
0001
0000
1001
0000
0000
0000
,
0100
0000
0000
0001
0100
0000
1000
0000
0001
0000
0000
0010
1000
0000
0010
0000
,
0001
0000
0000
1000
0010
0000
0001
0000
0010
0000
0000
1000
0001
0000
0100
0000
,
1000
0000
0100
0000
0010
0000
0100
0000
0001
1000
0001
0000
0100
0000
0010
0000
,
1000
0001
1001
0000
1010
1010
1100
1001
,
0000
0000
0000
0000
;
#NOTES:
     dance-double:
     :
     Easy:
     8:
     :
00000000
00000000
00000000
00000000
,
00000000
00000000
00000000
00000000
,
00000000
00000000
00000000
00000000
,
00000000
00000000
00000000
00000000
,
00000000
00000000
00000000
00000000
,
00001000
00000000
00000000
00001000
00000000
00000000
00022000
00000000
,
00000000
00000000
00033000
00000000
,
00010000
00000000
00000000
00010000
00000000
00000000
00022000
00000000
,
00000000
00000000
00000000
00000000
,
00000000
00000000
00000000
00000000
,
00000000
00000000
00000000
00033000
,
00100000
00010000
00100000
00010000
,
01000000
00010000
01000000
00000000
,
00100000
10000000
00100000
10000000
,
01000000
00100000
01000000
00000000
,
00100000
00001000
00100000
00001000
,
00010000
00001000
00010000
00000000
,
00001000
00010000
00001000
00010000
,
00000010
00010000
00000010
00000000
,
00001000
00000100
00001000
00000100
,
00000010
00000001
00000010
00000000
,
00000001
00000100
00000001
00000100
,
00000010
00000100
00000010
00000000
,
00010000
00000100
00010000
00000100
,
00010000
00001000
00010000
00000000
,
00001000
01000000
00001000
01000000
,
00001000
00010000
00001000
00000000
,
01000000
00010000
00100000
00010000
,
00100000
00000000
01000000
00000000
10000000
00010000
10000000
00000000
,
00100000
01000000
00010000
00100000
,
00001000
00010000
00001000
00010000
,
00000100
00001000
00000010
00001000
,
00000010
00000000
00000100
00000000
00000001
00001000
00000001
00000000
,
00000010
00000100
00000010
00000001
,
00001000
00000100
00010000
00001000
,
01000000
00010000
00100000
01000000
,
10000000
00000000
00100000
00000000
01000000
00010000
01000000
00000000
,
00010000
00100000
00001000
00010000
,
00000100
00000000
00001000
00000000
00000010
00001000
00000010
00000000
,
00000100
00000001
00001000
00000100
,
00000010
00000000
00000100
00000000
00001000
00000010
00001000
00000000
,
00000010
00000000
00010000
00000000
00001000
00010000
00000000
00001000
,
00010000
00100000
01000000
01000000
,
00000000
00000000
00100000
00000000
10000000
00100000
00000000
00000000
,
01000000
00000000
00010000
01000000
00000000
00000000
00000000
00000000
,
00010000
00100000
00001000
00010000
,
00000010
00001000
00000100
00000000
,
00000000
00000000
00000010
00000000
00000001
00000010
00000000
00000000
,
00000100
00000000
00001000
00000100
00000000
00000000
00000000
00000000
,
00001000
00000010
00010000
00001000
,
01000000
00010000
00100000
00000000
,
00000000
00000000
00001000
00000000
00010000
00010000
00000000
00000000
,
00010000
00000000
00001000
00001000
00000000
00000000
00000000
00000000
,
00001000
00100000
01000000
00010000
,
00001000
00000010
00000100
00000000
,
00001000
00001000
00000100
00000100
,
00010000
00010000
00001000
00001000
,
00100000
00010000
01000000
10000000
,
01000000
00010000
01000000
00001000
,
00022000
00000000
00000000
00033000
,
00000100
00001000
00000010
00000100
,
00000001
00000010
00000001
00000000
00001000
00000000
00000000
00000000
,
00000010
00000100
00001000
00010000
,
00001000
00001000
00001000
00000000
,
01000000
00010000
00100000
01000000
,
10000000
00000000
00100000
00000000
01000000
00010000
01000000
00000000
,
00100000
00010000
00001000
00001000
,
00010000
00022000
00000000
00033000
,
00100000
00010000
01000000
00100000
,
10000000
01000000
10000000
00000000
00010000
00000000
00000000
00000000
,
01000000
00100000
00010000
00001000
,
00010000
00010000
00010000
00000000
,
00000010
00001000
00000100
00000010
,
00000001
00000000
00000100
00000000
00000010
00001000
00000010
00000000
,
00000100
00001000
00010000
00010000
,
00001000
00022000
00000000
00033000
,
00100000
01000000
00100000
00000000
,
00022000
00000000
00033000
00000000
,
00000010
00000100
00000010
00000000
,
00022000
00000000
00033000
00000000
,
01000000
00100000
01000000
00000000
,
00022000
00000000
00033000
00000000
,
00000100
00000010
00000100
00000000
,
00022000
00000000
00033000
00000000
,
00100000
00010000
01000000
00100000
,
10000000
01000000
00100000
00010000
,
00001000
00000100
00000010
00000001
,
00000100
00000100
00001001
00000000
,
00000010
00001000
00000100
00000010
,
00000001
00000100
00000010
00001000
,
00010000
01000000
00100000
10000000
,
00100000
00000000
00100000
00000000
10000000
00010000
10000000
00010000
,
00000000
00000000
00000000
00000000
;
#NOTES:
     dance-double:
     :
     Medium:
     12:
     :
00000000
00000000
00000000
00000000
,
00000000
00000000
00000000
00000000
,
00000000
00000000
00000000
00000000
,
00000000
00000000
00000000
00000000
,
00000000
00000000
00000000
00000000
,
10000000
00000000
00000000
01000000
00000000
00000000
00220000
00000000
,
00000000
00000000
00330000
00000000
,
00001000
00000000
00000000
00000100
00000000
00000000
00000022
00000000
,
00000000
00000000
00000000
00000000
,
00000000
00000000
00000000
00000000
,
00000000
00000000
00000000
00000033
,
00000001
00000000
00000100
00000000
00000000
00000001
00000000
00000100
,
00000010
00000000
00001000
00000000
00000000
00000010
00000000
00000000
,
00010000
00000000
00001000
00000000
00000000
00010000
00000000
00001000
,
01000000
00000000
00010000
00000000
00000000
01000000
00000000
00000000
,
00100000
00000000
10000000
00000000
00000000
00100000
00000000
10000000
,
01000000
00000000
10000000
00000000
00000000
01000000
00000000
00000000
,
00100000
00000000
00010000
00000000
00000000
00100000
00000000
00010000
,
00100000
00000000
00001000
00000000
00000000
00010000
00000000
00000000
,
00000100
00000000
00001000
00000000
00000010
00000100
00000010
00000000
,
00001000
00000000
00000001
00000000
00000100
00000010
00001000
00000000
,
00000100
00000000
00010000
00000000
00001000
00010000
00001000
00000000
,
00100000
00000000
00010000
00000000
01000000
00010000
00100000
00000000
,
01000000
00000000
10000000
00000000
00100000
01000000
00100000
00000000
,
10000000
00000000
00010000
00000000
00100000
01000000
00100000
00000000
,
00001000
00000000
00010000
00000000
00000100
00001000
00000010
00000000
,
00000100
00000000
00000001
00001000
00000001
00000000
00000000
00000000
,
00000100
00000001
00000100
00000000
00000010
00010000
00001000
00000000
,
00100000
00000000
00010000
01000000
00100000
01000000
00010000
00000000
,
00100000
01000000
10000000
00000000
00100000
01000000
00010000
00000000
,
00100000
00000000
00001000
00010000
00001000
00010000
00001000
00000000
,
00010000
00000100
00001000
00000000
00000010
00001000
00000100
00000000
,
00000010
00000000
00000001
00000100
00000010
00001000
00000010
00000000
,
00000100
00000001
00001000
00000000
00000100
00010000
00001000
00000000
,
00100000
00000000
00010000
01000000
00010000
01000000
00010000
00000000
,
10000000
00100000
01000000
00000000
00010000
00100000
01000000
00000000
,
00010000
00000000
00001000
00010000
00001000
00010000
00001000
00000000
,
00010000
00000100
00001000
00000000
00000100
00000010
00000001
00000000
,
00001000
00000000
00000010
00000100
00000001
00001000
00000010
00000000
,
00000100
00000010
00001000
00000000
00000100
00010000
00001000
00000000
,
00100000
00000000
00001000
00010000
00001000
00010000
00001000
00000000
,
01000000
00010000
00100000
00000000
00010000
00100000
01000000
00000000
,
10000000
00000000
00100000
00000000
01000000
00100000
01000000
00100000
,
00000000
00000000
10000000
00100000
10000000
00100000
00000000
00000000
,
01000000
00010000
01000000
00010000
00000000
00100000
00000000
00100000
,
00001000
00010000
00000010
00000000
00001000
00000100
00010000
00000000
,
00000010
00001000
00000100
00000000
00000010
00000001
00001000
00000001
,
00000000
00000000
00000001
00000100
00000001
00000100
00000000
00000000
,
00000010
00001000
00000010
00001000
00000000
00000100
00000000
00000100
,
00010000
00001000
01000000
00000000
00010000
00100000
00001000
00000000
,
01000000
00010000
00100000
00000000
01000000
10000000
00010000
10000000
,
00000000
00000000
01000000
10000000
00010000
00100000
00000000
00000000
,
00001000
00010000
00000010
00001000
00000000
00000100
00000000
00000100
,
00000010
00000000
00000001
00000100
00001000
00000000
00000100
00000000
,
00000020
00000100
00001000
00010030
,
00001000
01000000
00001000
00000000
00100000
00010000
00100000
00000000
,
00010000
10000000
00010000
00000000
01000000
00100000
01000000
00000000
,
00010000
00100000
00010000
00100000
00001000
00010000
00001000
00010000
,
00001000
00000000
00022000
00000000
,
00033000
00010000
00001000
00010000
,
00000100
00000000
00001000
00000100
00000010
00000000
00000001
00000100
,
00000010
00001000
00000010
00001000
00000000
00000100
00001000
00000100
,
00010000
00000000
00001000
00100000
00010000
00000000
01000000
00010000
,
00100000
01000000
10000000
00010000
00000000
01000000
00100000
01000000
,
00100000
00000000
10000000
01000000
00100000
00000000
01000000
00100000
,
00010000
00000000
00000000
00000000
00100000
00000000
00001000
00000000
00010000
00000000
00000000
00001000
00000000
00000000
00010000
00000000
,
00000010
00001000
00000010
00001000
00000010
00000100
00000001
00000100
,
00000001
00002002
00000000
00003003
,
00000010
00000000
00001000
00000010
00000100
00000000
00000001
00000010
,
00000100
00001000
00000100
00001000
00000000
00000010
00001000
00000010
,
00010000
00000000
00001000
01000000
00010000
00000000
00100000
00010000
,
01000000
00100000
10000000
00010000
00000000
00100000
01000000
00100000
,
01000000
00000000
10000000
00100000
01000000
00000000
00100000
01000000
,
00010000
00000000
00000000
00000000
01000000
00000000
00001000
00000000
00010000
00000000
00000000
00001000
00000000
00000000
00010000
00000000
,
00000100
00001000
00000100
00001000
00000100
00000010
00000001
00000010
,
00000001
00000000
00002002
00000000
00000000
00000000
00003003
00000001
,
00000001
00000000
00000000
00000100
00000100
00000000
00000000
00001000
,
00001000
00000000
00010000
00000000
00100000
01000000
00100000
10000000
,
10000000
00000000
00000000
01000000
01000000
00000000
00000000
00010000
,
00010000
00000000
00001000
00000000
00000010
00000100
00000010
00000001
,
00000011
00000000
00000000
00000100
00001100
00000000
00000000
00010000
,
00011000
00000000
00000000
00000000
00100000
00010000
10000000
01000000
,
11000000
00000000
00000000
00100000
00110000
00000000
00000000
00001000
,
00001000
00000000
00011000
00000000
00010000
00001000
00000010
00000000
,
00000001
00000100
00000001
00000010
00000100
00001000
00000010
00000100
,
00001000
00010000
00001000
00010000
00100000
01000000
00100000
00000000
,
10000000
01000000
10000000
01000000
00010000
01000000
00010000
00001000
,
00100000
00001000
00010000
00001000
00000010
00000100
00000010
00000000
,
00000001
00000100
00001000
00000100
00000001
00000010
00000100
00001000
,
00000010
00000100
00001000
00000100
00001000
00010000
00001000
00000000
,
00100000
00010000
01000000
00100000
10000000
01000000
00100000
00010000
,
00001000
00000100
00000010
00000000
00000001
00001000
00000001
00001000
,
00000000
00000000
00000000
00000000
;
#NOTES:
     dance-double:
     :
     Hard:
     15:
     :
00000000
00000000
00000000
00000000
,
00000000
00000000
00000000
00000000
,
00000000
00000000
00000000
00000000
,
00000000
00000000
00000000
00000000
,
00000000
00000000
00000000
00000000
,
10100000
00000000
00000000
01000000
00000000
00000000
02002000
00000000
,
00000000
00000000
03003000
00000000
,
00010010
00000000
00000000
00000100
00000000
00000000
00002002
00000000
,
00000000
00000000
00000000
00000000
,
00000000
00000000
00000000
00000000
,
00000000
00000000
00000000
00003003
,
00000001
00000100
00000001
00000100
00000010
00001000
00000010
00001000
,
00000100
00010000
00000100
00010000
00001000
00010000
00001000
00100000
,
00010000
01000000
00010000
01000000
00100000
10000000
00100000
10000000
,
01000000
10000000
01000000
10000000
01000000
00100000
00010000
00100000
,
00001000
00010000
00000100
00010000
00001000
00000010
00000100
00001000
,
00000001
00000100
00000010
00000100
00000001
00001000
00000010
00000100
,
00001000
00010000
00001000
00010000
01000000
00100000
00010000
00100000
,
01000000
10000000
00010000
10000000
00100000
01000000
00100000
00000000
,
10000000
10000000
11000000
00000000
00010000
00110000
00000000
00100000
,
00001000
00001000
00011000
00000000
00010000
00010100
00000000
00001000
,
00000010
00000010
00000110
00000000
00001000
00001001
00000000
00000001
,
00000100
00000100
00000110
00000000
00000010
00001010
00000000
00000000
,
00010000
00010000
00010100
00000000
00001000
00011000
00000000
00001000
,
00100000
00100000
00110000
00000000
00010000
01010000
00000000
00100000
,
10000000
10000000
11000000
00000000
00100000
00101000
00000000
00001000
,
00010000
00001000
00000100
00000001
00001000
00000100
00000100
00000000
,
00000010
00000001
00000010
00000000
00000100
00010000
00000000
00001000
,
00010000
00000000
00000000
00000000
01000000
00000000
00000000
01000000
10000000
00000000
00010000
00000000
01000000
00000000
00000000
00000000
,
00100000
10000000
00100000
00000000
01000000
00001000
00000000
00010000
,
00001000
00000000
00000000
00000000
00000100
00000000
00000000
00000100
00000001
00000000
00001000
00000000
00000100
00000000
00000000
00000000
,
00000010
00000001
00000100
00000000
00001000
00010000
00000000
00100000
,
01000000
00000000
00000000
00000000
10000000
00000000
00000000
10000000
01000000
00000000
00010000
00000000
10000000
00000000
00000000
00000000
,
01000000
00100000
00010000
00000000
01000000
00100000
00000000
00010000
,
00001000
00000100
00000001
00000000
00000100
00000100
00000100
00000100
,
00000001
00001000
00000010
00000000
00010000
00001000
00000000
00100000
,
00010000
00000000
00000000
00000000
10000000
00000000
00000000
01000000
00100000
00000000
01000000
00000000
10000000
00000000
00000000
00000000
,
00100000
01000000
00010000
00000000
00100000
01000000
00000000
00010000
,
00001000
00000000
00000000
00000000
00000010
00000000
00000000
00000001
00001000
00000000
00000001
00000000
00000100
00000000
00000000
00000000
,
00000010
00000000
00000000
00001000
00000010
00000000
00001000
00000000
00000100
00000000
00000000
00010000
00000100
00000000
00010000
00000000
,
00001000
00000000
00000000
01000000
00001000
00000000
01000000
00000000
00010000
00000000
00000000
00100000
00010000
00000000
00100000
00000000
,
01000000
00000000
10000000
00000000
01000000
00000000
10000000
00000000
00100000
01000000
00100000
00000000
00000000
00000000
00100000
00000000
,
00010000
00001000
00000100
00000001
00000010
00000100
00000010
00000010
,
00000000
00000000
00000001
00000100
00001000
00010000
00000000
00000000
,
00010000
00100000
10000000
00010000
00000000
20020000
00000000
30030000
,
00100000
00001000
00010000
01000000
00100000
00001000
00010000
00100000
,
01000000
00001000
00010000
01000000
00010000
00001000
00010000
00100000
,
00000000
00000000
10000000
01000000
00010000
00001000
00000000
00000000
,
00001000
00000010
00000001
00001000
00000000
00002002
00000000
00003003
,
00000010
00010000
00001000
00000100
00000010
00010000
00001000
00000010
,
00000100
00010000
00001000
00000100
00001000
00010000
00001000
00000010
,
00000000
00000000
00000010
00000001
00000100
00001000
00000000
00000000
,
00010000
00100000
10000000
01000000
00000000
00010000
00000000
00010000
,
01000000
10000000
01000000
00100000
00010000
00001000
00000100
00000010
,
00000100
00000000
00000010
00000000
00000001
00000000
00001000
00000000
00000100
00000000
00000001
00000000
00000100
00000010
00000100
00000000
,
00000010
00000010
00000011
00000011
,
00000100
00000100
00001100
00001100
,
00010000
00001000
00010000
00001000
01000000
00010000
00100000
01000000
00100000
01000000
10000000
00010000
,
01000000
00000000
00000000
00000000
00000000
00000000
00100000
00010000
00100000
00010000
00001000
00010000
,
00001000
00022000
00000000
00033000
,
00001000
00000000
00000010
00000100
00000010
00000000
00000001
00000000
00000100
00000000
00000010
00001000
00000010
00000000
00000100
00000000
,
00001000
01000000
00010000
01000000
00100000
10000000
01000000
00010000
,
00001000
00000000
00100000
01000000
00100000
00000000
00001000
00000000
00010000
00000000
01000000
00100000
01000000
00000000
00100000
00000000
,
00001000
00010000
00000100
00000010
00001000
00010000
00000010
00000100
,
00001000
00000000
00000100
00000010
00000100
00000000
00000001
00000000
00000010
00000000
00000100
00001000
00000100
00000000
00010000
00000000
,
00001000
00000000
01000000
00010000
01000000
00000000
00100000
00000000
10000000
00100000
00000000
10000000
00100000
00000000
01000000
00000000
,
00010000
00100000
00001000
00010000
00000100
00000010
00001000
00010000
,
01000000
10000000
00020000
00000000
00000000
00000000
00030000
00000000
,
10000000
00000000
01000000
00100000
01000000
00000000
10000000
00000000
00100000
00000000
01000000
00010000
01000000
00000000
00100000
00000000
,
00010000
00000010
00001000
00000010
00000100
00000001
00000010
00001000
,
00010000
00000000
00000100
00000010
00000100
00000000
00010000
00000000
00001000
00000000
00000010
00000100
00000010
00000000
00000100
00000000
,
00010000
00001000
00100000
01000000
00010000
00001000
01000000
00100000
,
00010000
00000000
00100000
01000000
00100000
00000000
10000000
00000000
01000000
00000000
00100000
00010000
00100000
00000000
00001000
00000000
,
00010000
00000000
00000010
00001000
00000010
00000000
00000100
00000000
00000001
00000100
00000000
00000001
00000100
00000000
00000010
00000000
,
00001000
00000100
00010000
00001000
00100000
01000000
00010000
00001000
,
00000010
00000000
00000001
00000000
00001000
00000000
00000000
00000000
00000001
00000000
00000000
00000001
00000000
00000000
00000001
00000000
,
00001000
00000000
00000001
00000100
00001000
00000000
00010000
00100000
,
10000000
00000000
00000000
00000000
00000000
00000000
00000000
00000000
00010000
10000000
00010000
10000000
00010000
00000000
00100000
00000000
,
01000000
00000000
10000000
01000000
00010000
00000000
00001000
00000010
,
00000001
00000000
00000000
00000000
00000000
00000000
00000000
00000000
00001000
00000001
00001000
00000001
00001000
00000000
00000010
00000000
,
00000100
00000000
00000001
00000010
00001000
00000000
00010000
01000000
,
10000000
00000000
00000000
00000000
00000000
00000000
00000000
00000000
00100000
01000000
00100000
01000000
00100000
00000000
10000000
00000000
,
00010000
00000000
10000000
00100000
00010000
00000000
00001000
00000100
,
00000001
00000001
00000010
00000010
00000100
00001000
00001001
00000000
,
00000001
00000000
00000100
00000010
00001000
00000000
00000001
00000000
00001000
00000000
00000100
00000010
00000001
00000000
00001000
00000000
,
00000010
00000100
00001000
00000100
00001000
00010000
00001000
00000000
,
01000000
00000000
00010000
00100000
01000000
00000000
10000000
00000000
00010000
00000000
10000000
01000000
00100000
00000000
00010000
00000000
,
01000000
00100000
00000000
01000000
00100000
00000000
10000000
00000000
00010000
00000000
01000000
00000000
00001000
00000000
00000000
00000000
,
00010000
00000000
00000000
00000100
00001000
00000000
00000100
00000000
00001000
00000000
00000000
00000001
00000010
00000000
00000001
00000000
,
00000010
00000000
00000000
00000001
00000100
00000000
00000001
00000000
00000100
00000000
00001000
00000000
00010000
00000000
00010000
00000000
,
00100000
00000000
01000000
00100000
01000000
00000000
10000000
00000000
01000000
00100000
01000000
00000000
00010000
00000000
10000000
00000000
,
01000000
00100000
01000000
00100000
01000000
00000000
00000000
00000000
01000000
00000000
00010000
00000000
00001000
00000000
00000110
00000000
,
00000000
00000000
00000000
00000000
;
