
//----- song ID: xray -----//
#TITLE:X-ray binary;
#ARTIST:BEMANI Sound Team "Trance Liquid";
#BANNER:X-ray binary.png;
#BACKGROUND:X-ray binary-bg.png;
#CDTITLE:./CDTitles/DDR A20 PLUS.png;
#MUSIC:X-ray binary.ogg;
#SAMPLESTART:89.993;
#SAMPLELENGTH:15;
#BPMS:0=150;
#NOTES:
     dance-single:
     :
     Beginner:
     2:
     :
0000
0000
0000
0000
,
0000
0000
0000
0000
,
0000
0000
0000
0000
,
0000
0000
0000
0000
,
0000
0000
0000
0000
,
0001
0000
0001
0000
,
0100
0000
0000
0000
,
0010
0000
0010
0000
,
0100
0000
0000
0000
,
1000
0000
0100
0000
,
0010
0000
0000
0000
,
1000
0000
0100
0000
,
1000
0000
0000
0000
,
0100
0000
0010
0000
,
0100
0000
0000
0000
,
0001
0000
0100
0000
,
0001
0000
0000
0000
,
0100
0000
0010
0000
,
0100
0000
0000
0000
,
1000
0000
0010
0000
,
0100
0000
0000
0000
,
0010
0000
0100
0000
,
0001
0000
0000
0000
,
0001
0000
0010
0000
,
0100
0000
0000
0000
,
0010
0000
0100
0000
,
1000
0000
0000
0000
,
1000
1000
1000
0000
,
0010
0000
1000
0000
,
0100
0000
0010
0000
,
0001
0000
0000
0000
,
0001
0001
0001
0000
,
0010
0000
0001
0000
,
0100
0000
0010
0000
,
1000
0000
0000
0000
,
1000
0000
0100
0000
,
0001
0000
0000
0000
,
0001
0000
0100
0000
,
1000
0000
0000
0000
,
0001
0000
0100
0000
,
1000
0000
0000
0000
,
1000
0000
0100
0000
,
0001
0000
0000
0000
,
1001
0000
0000
0000
,
0000
0000
0000
0000
,
2000
0000
3000
0000
,
0020
0000
0030
0000
,
0002
0000
0003
0000
,
0200
0000
0300
0000
,
0020
0000
0030
0000
,
1000
1000
1000
0000
,
0020
0000
0030
0000
,
0001
0001
0001
0000
,
1000
0000
0000
0000
,
0001
0000
0000
0000
,
1000
0000
0001
0000
,
1001
0000
0000
0000
,
0001
0001
0001
0000
,
0001
0001
0001
0000
,
0100
0000
0100
0000
,
0010
0000
0010
0000
,
2000
0000
3000
0000
,
0002
0000
0003
0000
,
0020
0000
0030
0000
,
0200
0000
0300
0000
,
1000
1000
1000
0000
,
1000
1000
1000
0000
,
0100
0000
0100
0000
,
0010
0000
0010
0000
,
0002
0000
0003
0000
,
2000
0000
3000
0000
,
0020
0000
0030
0000
,
0100
0100
0100
0100
,
0000
0000
0000
0000
;
#NOTES:
     dance-single:
     :
     Easy:
     5:
     :
0000
0000
0000
0000
,
0000
0000
0000
0000
,
0000
0000
0000
0000
,
0000
0000
0000
0000
,
0000
0000
0000
0000
,
0001
1000
0001
0000
,
1000
0100
0010
0000
,
0001
1000
0100
0000
,
1000
0001
0100
0000
,
0010
0100
0010
0100
,
0220
0000
0330
0000
,
1000
0100
1000
0100
,
0010
0001
0010
0000
,
0001
0100
0001
0100
,
0010
1000
0010
0000
,
1000
0001
1000
0001
,
0100
0010
0100
0000
,
0001
1000
0001
1000
,
0100
0010
0100
0000
,
0001
0001
0100
0000
,
0100
0100
0010
0000
,
0010
0010
1000
0000
,
1000
1000
0001
0000
,
1000
1000
0001
0000
,
0010
0010
0100
0000
,
1000
1000
0010
0000
,
0100
0100
0001
0000
,
1000
0001
1000
0001
,
1000
0100
1000
0000
,
0010
0100
0010
0100
,
0001
0100
0001
0000
,
1000
0001
0010
0100
,
1000
0100
0010
0000
,
0001
0100
0010
1000
,
0001
1000
0010
0000
,
1000
0100
0001
0000
,
0001
0100
1000
0000
,
0010
0100
1000
0000
,
0010
0100
0001
0000
,
0001
0100
1000
0000
,
1000
0100
0001
0000
,
0100
0010
1000
0000
,
0100
0010
0001
0000
,
2002
0000
0000
0000
,
0000
0000
0000
3003
,
2000
0000
3100
0000
,
0002
0000
0013
0000
,
2000
0000
3010
0000
,
0002
0000
0013
0000
,
0010
0010
0010
0000
,
0002
0000
2003
0000
,
3001
0001
0001
0000
,
0200
0000
0320
0000
,
0130
0100
0100
0000
,
0010
0010
0010
0000
,
1000
0001
1000
0001
,
2002
0000
3003
0000
,
1000
0001
1000
0001
,
0100
0100
0100
0000
,
0001
1000
0001
1000
,
0100
0100
0100
0000
,
1010
0000
1000
0001
,
0011
0000
0001
1000
,
0001
0001
0001
0000
,
1000
1000
1000
0000
,
0001
1000
0001
1000
,
0010
0010
0010
0000
,
1000
0001
1000
0001
,
0010
0010
0010
0000
,
0101
0000
0001
1000
,
1100
0000
1000
0001
,
1000
1000
1000
0000
,
0001
0001
0001
0001
,
0000
0000
0000
0000
;
#NOTES:
     dance-single:
     :
     Medium:
     10:
     :
0000
0000
0000
0000
,
0000
0000
0000
0000
,
0000
0000
0000
0000
,
0000
0000
0000
0000
,
0000
0000
0000
0000
,
0001
1000
0001
0000
0100
0000
0010
0000
,
1000
0100
1000
0000
0100
0000
0010
0000
,
0001
0100
0001
0000
1000
0100
1000
0000
,
0010
1000
0100
0000
0010
0001
0100
0000
,
0010
1000
0010
1000
0100
0010
0001
0000
,
2002
0000
0000
3003
,
0010
0000
1001
0000
0100
1000
0010
0100
,
0001
0010
0100
1000
0010
0100
0001
0000
,
0010
0000
1001
0000
0010
0001
0100
0010
,
1000
0100
0010
0001
0100
0010
1000
0000
,
1000
0000
0110
0000
0001
1000
0010
0100
,
0001
1000
0100
0010
0001
1000
0010
0000
,
0001
0000
0110
0000
1000
0001
0100
0010
,
1000
0001
0010
0100
1000
0001
0100
0000
,
0001
0000
0001
0100
0010
0000
0010
1000
,
0100
0000
0100
1000
0001
0000
0011
0000
,
1001
0000
1000
0010
0100
0000
0100
0001
,
1000
0000
1000
0100
0010
0000
0011
0000
,
1001
0000
0100
1000
0010
0000
0010
1000
,
0100
0000
0010
0001
0100
0000
1010
0000
,
1100
0000
0010
0001
0100
0000
0100
0001
,
0010
0000
0100
1000
0010
0000
0011
0000
,
1000
0100
1000
0100
1000
0010
1000
0000
,
0001
0100
0001
0100
0001
0010
0001
0000
,
0010
0100
0010
0100
1000
0010
1000
0000
,
0010
0100
0010
0100
0001
0010
0001
0000
,
1000
0010
0001
0010
0100
0010
1000
0000
,
0001
0010
1000
0010
0100
0010
0001
0000
,
1000
0001
0100
0000
0001
1000
0100
0000
,
0010
0100
0010
0100
1000
0001
1000
0000
,
0001
0000
0100
0010
1000
0000
0100
0001
,
0100
0000
1000
0001
0010
0000
0100
1000
,
0010
0000
0010
0001
0100
0000
0010
1000
,
0001
0000
0100
1000
0100
0000
0010
1000
,
0100
0000
0100
0001
0010
0000
1000
0010
,
0001
0000
1000
0100
0010
0000
0100
1000
,
0100
0000
0100
0001
1000
0000
0001
0100
,
1000
0000
0100
0010
1000
0000
0001
0100
,
0020
0000
0000
0000
,
0000
0000
0000
0030
,
2000
0100
0001
0100
,
3002
1000
0100
1000
,
0013
0000
0001
0000
0100
0001
1000
0001
,
0000
0010
0001
0000
1000
0000
0100
0010
,
0001
0000
0010
0010
0000
0001
0000
1000
,
0020
2030
3002
0103
,
0001
1000
0010
1000
0000
0001
0010
0001
,
0000
1000
0100
1000
0000
0001
0100
0000
,
0010
0000
1000
1000
0000
0000
0110
0000
,
0010
0000
0001
0001
0000
0000
0110
0000
,
0001
1000
0100
0010
0001
1000
0100
0010
,
0001
0020
0032
0203
,
0310
0000
0000
0010
0000
0000
0010
0000
1000
0000
0000
1000
0000
0000
1000
0000
,
0001
0000
0000
0001
0000
0000
0001
0000
0100
0000
0010
0000
0100
0000
0000
0000
,
0001
0000
0000
0001
0000
0000
0001
0000
0010
0000
0000
0010
0000
0000
0010
0000
,
0100
0000
0000
0100
0000
0000
0100
0000
1000
0000
0001
0000
1000
0000
0000
0000
,
0100
0000
0000
0010
0000
0000
0100
0000
0010
0000
0000
0000
1001
0000
0000
0000
,
0010
0000
0000
0100
0000
0000
0010
0000
0100
0000
0000
0000
1001
0000
0000
0000
,
0010
0000
0000
1000
0000
0000
0100
0000
0000
0010
0000
0000
0001
0000
0000
0000
,
0100
0000
0000
0001
0000
0000
0010
0000
0000
0100
0000
0000
1000
0000
0000
0000
,
0100
0000
0000
0100
0000
0000
0100
0000
1000
0000
0000
1000
0000
0000
1000
0000
,
0001
0000
0000
0001
0000
0000
0001
0000
0010
0000
0000
0010
0000
0000
0010
0000
,
0001
0000
0000
0001
0000
0000
0001
0000
0100
0000
0000
0100
0000
0000
0100
0000
,
0010
0000
0000
0010
0000
0000
0010
0000
1000
0000
0000
1000
0000
0000
1000
0000
,
0001
0000
0000
1000
0000
0000
0001
0000
1000
0000
0000
0000
0110
0000
0000
0000
,
1000
0000
0000
0001
0000
0000
1000
0000
0001
0000
0000
0000
0110
0000
0000
0000
,
1000
0000
0000
0100
0000
0000
1000
0000
0000
0100
0000
0000
0010
0000
0000
0000
,
0001
0000
0000
0100
0000
0000
0001
0000
0000
0100
0000
0000
0010
0000
0100
0000
,
0000
0000
0000
0000
;
#NOTES:
     dance-single:
     :
     Hard:
     13:
     :
0000
0000
0000
0000
,
0000
0000
0000
0000
,
0000
0000
0000
0000
,
0000
0000
0000
0000
,
0000
0000
0000
0000
,
1000
0000
0100
0000
0010
0000
0000
0001
0000
0000
1001
0000
0000
0000
0000
0000
,
0001
0000
0100
0000
0010
0000
0000
1000
0000
0000
1001
0000
0000
0000
0000
0000
,
1000
0000
0010
0000
0100
0000
0000
0001
0000
0000
1001
0000
0000
0000
0000
0000
,
0001
0000
0010
0000
0100
0000
0000
1000
0000
0000
1001
0000
0000
0000
0000
0000
,
0001
1000
0010
0100
0001
0100
0010
1000
,
0220
0000
0000
0330
,
1000
0000
0010
0000
0100
0000
0010
0000
1000
0100
1000
0000
0001
0000
0010
0000
,
0001
0100
0001
0000
1000
0000
0010
0000
1000
0000
0001
0000
0010
0000
0000
0000
,
0001
0000
0100
0000
0010
0000
0100
0000
0001
0010
0001
0000
1000
0000
0100
0000
,
1000
0010
1000
0000
0001
0000
0100
0000
0001
0000
1000
0000
0100
0000
0000
0000
,
1000
0000
0001
0000
0010
0000
0001
0000
0100
0010
1000
0000
0001
0000
1000
0000
,
0100
0010
0001
0000
1000
0000
0100
0000
0010
0001
0100
0000
0010
0000
0000
0000
,
1000
0001
0100
0001
1000
0010
0100
0010
,
1000
0001
1000
0001
0010
0010
0100
0000
,
0100
1000
0100
1000
0010
0001
0010
0001
,
1000
0100
1000
0100
0001
0010
0100
0100
,
1000
0010
1000
0010
0100
1000
0100
1000
,
0001
0010
0001
0010
1000
0010
0100
0001
,
1000
0100
0001
0100
1000
0010
0100
0001
,
1000
0100
0001
0100
1000
0010
1000
1000
,
0001
0100
1000
0100
0001
0010
0100
1000
,
0001
0100
1000
0100
0001
1000
0001
0001
,
1000
0000
0001
0010
0000
0001
0010
0000
0001
0000
1000
0010
0000
1000
0010
0000
,
0100
0000
0001
1000
0000
0001
1000
0000
0100
0000
1000
0001
0000
1000
0001
0000
,
0100
0000
0010
1000
0000
0010
1000
0000
0001
0000
1000
0100
0000
1000
0100
0000
,
0010
0000
0001
0100
0000
0001
0100
0000
0001
0000
0100
0010
0000
0100
0010
0000
,
1000
0000
0100
0010
0000
0001
0010
0000
0001
0000
1000
0010
0000
0100
0010
0000
,
1000
0000
0001
1000
0000
0100
1000
0000
0010
0000
0100
0001
0000
0010
0001
0000
,
1000
0000
0010
0100
0000
0100
0001
0000
1000
0000
0001
0010
0000
0010
0100
0000
,
1000
0000
0100
0010
0000
0010
0001
0000
0100
0000
0100
0000
0010
0000
0000
0000
,
0001
0000
0000
0100
0000
0010
1000
0000
0010
0000
0000
0100
0000
0001
1000
0000
,
0100
0000
0000
0010
0000
0001
1000
0000
0010
0000
0000
0100
0000
0001
0100
0000
,
0001
0000
0000
0010
0000
0100
1000
0000
0001
0000
0000
1000
0000
0001
0100
0000
,
0010
0000
0000
1000
0000
0001
0010
0000
0001
0000
0000
0100
0000
0010
1000
0000
,
0010
0000
0000
1000
0000
0001
0010
0000
0100
0000
0000
1000
0000
0001
1000
0000
,
0100
0000
0000
0010
0000
0001
0100
0000
0010
0000
0000
1000
0000
0001
0010
0000
,
0100
0000
0000
1000
0000
0001
0010
0000
0100
0000
0000
0010
0000
0001
0100
0000
,
0010
0000
0000
1000
0000
0010
0100
0000
0001
0000
0000
1000
0000
0100
0010
0000
,
0200
0000
0000
0000
,
0000
0000
0000
0300
,
1000
0000
0010
0100
0101
0000
0010
0100
,
1100
0000
0010
1000
1100
0000
0010
0001
,
0101
0000
1000
0100
0001
0100
0010
0001
,
0000
0000
1000
0010
0100
0000
0000
0000
0001
0000
0010
0000
0001
0000
0100
0000
,
0101
0001
0100
0101
0000
1010
1000
0010
,
1000
0100
1000
0100
0010
0001
0010
0001
,
1001
1000
0010
0001
0000
1001
0010
0001
,
0100
0010
1000
0001
0100
0010
1000
0001
,
1000
0100
0001
0010
0000
0000
0110
0000
,
0001
0100
1000
0010
0000
0000
0110
0000
,
1000
0000
0100
0000
0001
0000
0010
0000
1000
0000
0001
0000
0100
0010
0100
0010
,
0200
0001
0010
1300
,
0010
1000
0000
1000
0000
0000
0010
0000
1000
0000
0100
0000
0010
0000
0000
0000
,
0001
0100
0000
0100
0000
0000
0001
0000
0100
0000
0010
0000
1000
0000
0000
0000
,
0100
1000
0000
0100
0000
0000
0010
0000
0001
0000
1000
0000
0001
0000
0000
0000
,
0100
0010
0000
1000
0000
0000
0010
0000
0100
0000
0001
0000
1000
0000
0000
0000
,
0001
1000
0000
1000
0000
0001
1000
0000
0100
0000
0010
0000
0110
0000
0000
0000
,
1000
0001
0000
0001
0000
1000
0001
0000
0100
0000
0010
0000
0110
0000
0000
0000
,
0001
0100
0000
0100
0010
0000
0010
1000
0000
1000
0001
0000
1001
0000
0000
0000
,
1000
0100
0000
0100
0010
0000
0010
0001
0000
0001
1000
0000
1001
0000
0000
0000
,
1000
0010
0000
0100
0000
0001
0100
0000
0001
0000
0010
0000
0100
1000
0010
0000
,
0100
0001
0000
1000
0000
0001
0010
0000
0100
0000
1000
0000
0010
0100
0001
0000
,
0010
0001
0000
0010
0000
0100
1000
0000
0010
0000
0100
0000
0001
0100
0001
0000
,
0100
0010
0000
1000
0000
0001
0100
0000
0001
0000
0010
0000
0100
1000
0001
0000
,
0010
0100
0000
1000
0000
0001
0010
0000
0100
0000
1000
0000
0010
0100
0010
0000
,
1000
0010
0000
0100
0000
0001
0100
0000
0010
0000
1000
0000
0010
0100
0010
0000
,
1000
0010
0000
1000
0001
0000
1000
0010
0000
1000
0001
0000
1000
0000
1000
0000
,
0001
0010
0000
0001
1000
0000
0001
0010
0000
0001
1000
0000
0001
0010
0100
1000
,
0000
0000
0000
0000
;
#NOTES:
     dance-double:
     :
     Easy:
     5:
     :
00000000
00000000
00000000
00000000
,
00000000
00000000
00000000
00000000
,
00000000
00000000
00000000
00000000
,
00000000
00000000
00000000
00000000
,
00000000
00000000
00000000
00000000
,
00000001
00000010
00000001
00000000
,
00000010
00000100
00001000
00000000
,
00000100
00010000
00001000
00000000
,
00010000
00001000
00010000
00000000
,
01000000
00100000
01000000
00100000
,
02200000
00000000
03300000
00000000
,
10000000
00100000
10000000
00100000
,
01000000
00010000
01000000
00000000
,
00010000
00100000
00010000
00100000
,
00001000
00010000
00001000
00000000
,
00010000
00000010
00010000
00000010
,
00001000
00000100
00001000
00000000
,
00000001
00000100
00000001
00000100
,
00000010
00001000
00000010
00000000
,
00010000
00010000
00001000
00000000
,
00001000
00001000
01000000
00000000
,
00100000
00100000
10000000
00000000
,
10000000
10000000
01000000
00000000
,
00100000
00100000
00001000
00000000
,
00001000
00001000
00010000
00000000
,
00000100
00000100
00001000
00000000
,
00001000
00001000
00000010
00000000
,
00000001
00000010
00000100
00001000
,
00000100
00010000
00001000
00000000
,
00100000
00010000
00100000
01000000
,
10000000
00100000
01000000
00000000
,
00100000
10000000
00010000
01000000
,
00001000
00010000
00001000
00000000
,
00010000
00000010
00001000
00000100
,
00000010
00000100
00001000
00000000
,
00000001
00000100
00001000
00000000
,
00001000
00000100
00000010
00000000
,
00010000
00001000
00100000
00000000
,
00010000
00100000
01000000
00000000
,
10000000
01000000
00010000
00000000
,
00010000
01000000
00100000
00000000
,
00001000
00010000
00000010
00000000
,
00001000
00000010
00000100
00000000
,
00002002
00000000
00000000
00000000
,
00000000
00000000
00000000
00003003
,
00000002
00000000
00000103
00000000
,
00000200
00000000
00001300
00000000
,
00010000
00010000
00010000
00000000
,
00100000
00100000
00100000
00000000
,
10000000
01000000
10000000
01000000
,
00200000
00000000
00300000
00000000
,
00001000
00010000
00001000
00010000
,
00002000
00000000
00003000
00000000
,
00000010
00000010
00000010
00000000
,
00000100
00000100
00000100
00000000
,
00000010
00000001
00001000
00000100
,
00020000
00000000
00030000
00000000
,
00001000
00100000
00001000
00100000
,
00010000
01000000
00010000
01000000
,
00100000
10000000
00100000
10000000
,
01000000
00100000
00010000
00000000
,
00100000
01000000
01100000
00000000
,
00001000
00010000
00011000
00000000
,
00010000
00001000
00011000
00000000
,
00000010
00000100
00000110
00000000
,
00010000
00000100
00010000
00000100
,
00001000
00000010
00001000
00000010
,
00000100
00000001
00000100
00000001
,
00000010
00000100
00001000
00000000
,
00000100
00000010
00000110
00000000
,
00010000
00001000
00011000
00000000
,
00001000
00000000
00100000
00000000
,
01000000
00100000
01000000
00100000
,
00000000
00000000
00000000
00000000
;
#NOTES:
     dance-double:
     :
     Medium:
     10:
     :
00000000
00000000
00000000
00000000
,
00000000
00000000
00000000
00000000
,
00000000
00000000
00000000
00000000
,
00000000
00000000
00000000
00000000
,
00000000
00000000
00000000
00000000
,
00000010
00000001
00000100
00000000
00000010
00000000
00001000
00000000
,
00000100
00010000
00001000
01000000
,
00010000
00100000
01000000
00000000
10000000
00000000
00100000
00000000
,
01000000
10000000
01000000
00010000
,
00100000
00001000
00100000
00001000
00010000
00001000
00010000
00002000
,
00020000
00000000
00000000
00033000
,
00000010
00000000
00000110
00000000
00001000
00000010
00000100
00000001
,
00000010
00000100
00001000
00000100
00010000
00001000
00100000
00000000
,
01000000
00000000
01100000
00000000
10000000
01000000
00100000
00010000
,
01000000
00100000
10000000
01000000
00100000
00001000
00010000
00000000
,
00000100
00000000
00000110
00000000
00001000
00000001
00000100
00000010
,
00001000
00000001
00000100
00000010
00010000
00001000
00010000
00000000
,
00001000
00000000
01100000
00000000
00010000
01000000
00100000
10000000
,
01000000
00100000
00010000
01000000
00100000
10000000
01000000
00000000
,
00010000
00000000
00010000
00001000
00000010
00000000
00000010
00000001
,
00000100
00000000
00000100
00001000
00010000
00000000
00001000
00000000
,
00011000
00000000
00001000
00010000
00100000
00000000
00100000
10000000
,
01000000
00000000
01000000
00010000
00001000
00000000
00010000
00000000
,
00011000
00000000
00010000
00001000
00000100
00000000
00000100
00000001
,
00000010
00000000
00000010
00000100
00001000
00000000
00010000
00000000
,
00011000
00000000
00001000
00010000
01000000
00000000
01000000
10000000
,
00100000
00000000
00100000
00010000
00001000
00000000
00010000
00000000
,
00000100
00001000
00000100
00001000
00000100
00000010
00000001
00000000
,
00000100
00000010
00000100
00000010
00010000
00000010
00010000
00000000
,
00001000
01000000
00001000
01000000
00010000
00100000
00010000
00000000
,
10000000
01000000
10000000
01000000
00100000
00010000
00100000
00000000
,
00001000
00010000
00000100
00001000
00000100
00000010
00000001
00000000
,
00001000
00000001
00001000
00000100
00010000
00001000
00010000
00000000
,
00001000
00100000
00010000
00000000
00100000
01000000
10000000
00000000
,
00100000
01000000
00100000
01000000
00010000
10000000
00010000
00000000
,
01000000
00000000
01000000
00010000
00100000
00000000
00100000
00001000
,
00010000
00000000
00010000
00000100
00001000
00000000
00000010
00000000
,
00000100
00000000
00000001
00000100
00000010
00000000
00000010
00010000
,
00001000
00000000
00001000
01000000
00010000
00000000
10000000
00000000
,
01000000
00000000
01000000
10000000
00100000
00000000
00100000
01000000
,
00010000
00000000
00010000
00100000
00001000
00000000
00010000
00000000
,
00000100
00000000
00000100
00000010
00000001
00000000
00000001
00000100
,
00000010
00000000
00000010
00010000
00001000
00000000
00010000
00000000
,
00022000
00000000
00000000
00000000
,
00000000
00000000
00000000
00033000
,
00020000
00000000
01000000
00000000
,
00032000
00000000
00000100
00000000
,
00013000
00000000
00100000
00000000
10000000
00100000
10000000
00100000
,
00000000
10000000
01000000
00000000
00100000
00000000
00001000
00010000
,
00001000
00000000
00000100
00000100
00000000
00000001
00000000
00001000
,
00000002
00000203
00002300
00013000
,
00100000
10000000
00100000
10000000
00000000
01000000
00100000
01000000
,
00000000
00100000
00010000
00100000
00000000
00001000
00001000
00000000
,
00010000
00000000
00000100
00000100
00000000
00000000
00011000
00000000
,
00001000
00000000
01000000
01000000
00000000
00000000
00011000
00000000
,
00000100
00000010
00000001
00000100
00000010
00001000
00000100
00010000
,
00002000
00000000
00000000
00003000
,
01000000
00000000
00000000
01000000
00000000
00000000
01000000
00000000
00100000
00000000
00000000
00100000
00000000
00000000
00100000
00000000
,
10000000
00000000
00000000
10000000
00000000
00000000
10000000
00000000
00010000
00000000
00100000
00000000
00010000
00000000
00000000
00000000
,
00100000
00000000
00000000
00100000
00000000
00000000
00100000
00000000
00001000
00000000
00000000
00001000
00000000
00000000
00001000
00000000
,
00010000
00000000
00000000
00010000
00000000
00000000
00010000
00000000
00001000
00000000
00010000
00000000
00001000
00000000
00000000
00000000
,
00000010
00000000
00000000
00000100
00000000
00000000
00000010
00000000
00000100
00000000
00000000
00000000
00001001
00000000
00000000
00000000
,
00000100
00000000
00000000
00010000
00000000
00000000
00000100
00000000
00010000
00000000
00000000
00000000
00011000
00000000
00000000
00000000
,
00010000
01000000
00010000
01000000
10000000
00100000
10000000
00000000
,
00100000
00010000
00100000
00010000
00001000
00010000
00001000
00000000
,
00000100
00000000
00000000
00000100
00000000
00000000
00000100
00000000
00000010
00000000
00000000
00000010
00000000
00000000
00000010
00000000
,
00000001
00000000
00000000
00000001
00000000
00000000
00000001
00000000
00001000
00000000
00000010
00000000
00001000
00000000
00000000
00000000
,
00000010
00000000
00000000
00000010
00000000
00000000
00000010
00000000
00010000
00000000
00000000
00010000
00000000
00000000
00010000
00000000
,
00001000
00000000
00000000
00001000
00000000
00000000
00001000
00000000
00010000
00000000
00001000
00000000
00010000
00000000
00000000
00000000
,
00100000
00000000
00000000
01000000
00000000
00000000
00100000
00000000
01000000
00000000
00000000
00000000
10010000
00000000
00000000
00000000
,
01000000
00000000
00000000
00001000
00000000
00000000
01000000
00000000
00001000
00000000
00000000
00000000
00011000
00000000
00000000
00000000
,
00001000
00000100
00001000
00000100
00000001
00000010
00000001
00000000
,
00000010
00001000
00000010
00001000
00010000
00001000
00010000
00001000
,
00000000
00000000
00000000
00000000
;
#NOTES:
     dance-double:
     :
     Hard:
     13:
     :
00000000
00000000
00000000
00000000
,
00000000
00000000
00000000
00000000
,
00000000
00000000
00000000
00000000
,
00000000
00000000
00000000
00000000
,
00000000
00000000
00000000
00000000
,
00010000
00000000
00000010
00000000
00000100
00000000
00000000
00000001
00000000
00000000
00001001
00000000
00000000
00000000
00000000
00000000
,
00000001
00000000
00000100
00000000
00001000
00000000
00000000
00010000
00000000
00000000
00011000
00000000
00000000
00000000
00000000
00000000
,
00100000
00000000
00010000
00000000
01000000
00000000
00000000
00100000
00000000
00000000
10010000
00000000
00000000
00000000
00000000
00000000
,
10000000
00000000
01000000
00000000
00010000
00000000
00000000
00001000
00000000
00000000
00011000
00000000
00000000
00000000
00000000
00000000
,
00000100
00001000
00000010
00010000
00000100
00010000
00001000
01000000
,
00022000
00000000
00000000
00033000
,
00010000
00000000
00100000
00000000
10000000
00000000
00100000
00000000
01000000
00010000
01000000
00000000
00010000
00000000
00100000
00000000
,
00001000
00010000
00001000
00000000
00010000
00000000
00000010
00000000
00001000
00000000
00000100
00000000
00000010
00000000
00000000
00000000
,
00000001
00000000
00000100
00000000
00000010
00000000
00000100
00000000
00000010
00001000
00000010
00000000
00010000
00000000
00001000
00000000
,
00100000
00010000
00100000
00000000
00010000
00000000
01000000
00000000
00100000
00000000
10000000
00000000
01000000
00000000
00000000
00000000
,
10000000
00000000
00100000
00000000
01000000
00000000
00010000
00000000
00100000
00001000
00010000
00000000
00000010
00000000
00001000
00000000
,
00000010
00000100
00000001
00000000
00001000
00000000
00000100
00000000
00000010
00000001
00001000
00000000
00000010
00000000
00000000
00000000
,
00000100
00000001
00001000
00000100
00010000
00001000
00100000
00001000
,
00010000
01000000
00010000
01000000
10000000
00010000
10000000
00000000
,
01000000
00100000
01000000
00100000
00001000
00010000
00001000
00010000
,
00000100
00001000
00000100
00001000
00000010
00000100
00000001
00000001
,
00000010
00000001
00000010
00000001
00000100
00001000
00000100
00001000
,
00010000
00100000
00010000
00100000
10000000
01000000
00100000
00010000
,
10000000
01000000
00010000
01000000
10000000
00010000
00100000
00001000
,
00010000
00000100
00001000
00000100
00000001
00000100
00000010
00000010
,
00000001
00000100
00001000
00000100
00000001
00000010
00000100
00001000
,
00000100
00010000
00001000
01000000
00010000
00100000
01000000
01000000
,
10000000
00000000
01000000
00100000
00000000
01000000
00100000
00000000
00010000
00000000
01000000
00001000
00000000
01000000
00001000
00000000
,
00010000
00000000
00000100
00001000
00000000
00000100
00001000
00000000
00000100
00000000
00000010
00000000
00000001
00000000
00001000
00000000
,
00000001
00000000
00000100
00000010
00000000
00000100
00000010
00000000
00010000
00000000
00001000
00010000
00000000
00001000
00010000
00000000
,
00001000
00000000
01000000
00010000
00000000
01000000
00010000
00000000
00100000
00000000
01000000
00000000
10000000
00000000
01000000
00000000
,
00100000
00000000
00010000
01000000
00000000
00010000
00100000
00000000
00001000
00000000
00010000
00000100
00000000
00001000
00000100
00000000
,
00000010
00000000
00000001
00001000
00000000
00000001
00000100
00000000
00000010
00000000
00010000
00000100
00000000
00010000
00001000
00000000
,
01000000
00000000
00010000
00100000
00000000
00100000
01000000
00000000
10000000
00000000
01000000
00010000
00000000
00010000
00001000
00000000
,
00010000
00000000
00000010
00001000
00000000
00001000
00000100
00000000
00000010
00000000
00000010
00000000
00000001
00000000
00000000
00000000
,
00000001
00000000
00000000
00000010
00000000
00001000
00010000
00000000
00001000
00000000
00000000
00000100
00000000
00001000
00010000
00000000
,
00100000
00000000
00000000
10000000
00000000
01000000
00010000
00000000
01000000
00000000
00000000
10000000
00000000
00100000
01000000
00000000
,
00010000
00000000
00000000
00100000
00000000
00001000
00010000
00000000
00000100
00000000
00000000
00001000
00000000
00000010
00000001
00000000
,
00000010
00000000
00000000
00000100
00000000
00000001
00001000
00000000
00000100
00000000
00000000
00010000
00000000
00001000
00100000
00000000
,
00010000
00000000
00000000
01000000
00000000
00100000
10000000
00000000
00010000
00000000
00000000
00100000
00000000
01000000
10000000
00000000
,
01000000
00000000
00000000
00010000
00000000
00001000
00010000
00000000
00000010
00000000
00000000
00000100
00000000
00001000
00000100
00000000
,
00000001
00000000
00000000
00000010
00000000
00000100
00001000
00000000
00000010
00000000
00000000
00000100
00000000
00001000
00010000
00000000
,
00100000
00000000
00000000
01000000
00000000
00010000
00100000
00000000
01000000
00000000
00000000
10000000
00000000
01000000
00010000
00000000
,
00002000
00000000
00000000
00000000
,
00000000
00000000
00000000
00003000
,
00000010
00000001
00000010
00000001
00000100
00001000
00000100
00001000
,
00010000
01000000
00010000
01000000
10000000
00100000
10000000
00100000
,
00010000
00000000
00010000
00001000
00000010
00000001
00000010
00001000
,
00000000
00000000
00001000
00010000
00001000
00000000
00000000
00000000
00010000
00000000
00001000
00000000
00000100
00000000
00001000
00000000
,
00010000
00100000
00100000
01000000
00100000
00100000
10000000
00100000
,
10000000
01000000
00100000
00010000
00001000
00000100
00000010
00000001
,
00000100
00000010
00000010
00000001
00000010
00000010
00000100
00000010
,
00001000
00010000
01000000
00100000
00000000
00100000
00010000
00000000
,
00001000
00000100
00000010
00010000
00000000
00000000
00011000
00000000
,
00010000
01000000
00100000
00001000
00000000
00000000
00011000
00000000
,
00001000
00000010
00000001
00000100
00001000
00010000
00100000
01000000
,
02200000
00000000
00000000
03300000
,
10000000
00100000
00000000
00100000
00000000
00000000
10000000
00000000
01000000
00100000
00000000
00100000
00000000
00000000
01000000
00000000
,
00100000
00010000
00100000
00001000
00010000
00001000
00010000
00000000
,
00000100
00001000
00000000
00001000
00000000
00000000
00000001
00000000
00000010
00000100
00000000
00000100
00000000
00000000
00000010
00000000
,
00000001
00000100
00001000
00000100
00001000
00010000
00001000
00000000
,
00010000
01000000
00000000
00010000
00000000
01000000
10000000
00000000
00100000
00000000
01000000
00000000
01100000
00000000
00000000
00000000
,
10000000
01000000
00000000
00010000
00000000
00001000
00010000
00000000
00001000
00000000
00000010
00000000
00000011
00000000
00000000
00000000
,
00000001
00000100
00000000
00000100
00001000
00000000
00001000
00010000
00000000
00010000
01000000
00000000
10010000
00000000
00000000
00000000
,
10000000
00100000
00000000
00100000
00010000
00000000
00010000
00001000
00000000
00001000
00000010
00000000
00001001
00000000
00000000
00000000
,
00000010
00000001
00000000
00000100
00000000
00000010
00001000
00000000
00000100
00000000
00010000
00000000
00001000
00010000
00001000
00000000
,
00100000
00010000
00000000
01000000
00000000
00100000
10000000
00000000
01000000
00000000
00010000
00000000
00001000
00010000
00001000
00000000
,
00010000
00000100
00000000
00001000
00000000
00000010
00000100
00000000
00000001
00000000
00001000
00000000
00000100
00000010
00000100
00000000
,
00001000
00000010
00000000
00000100
00000000
00001000
00010000
00000000
00001000
00000000
01000000
00000000
00010000
00100000
00010000
00000000
,
00100000
01000000
00000000
00100000
00000000
01000000
00100000
00000000
00001000
00000000
00010000
00000000
00001000
00010000
00001000
00000000
,
00000100
00000010
00000000
00000100
00000000
00000010
00000100
00000000
00001000
00000000
00010000
00000000
00001000
00010000
00001000
00000000
,
00100000
00001000
00000000
01000000
00010000
00000000
00100000
00001000
00000000
01000000
00010000
00000000
00100000
00001000
00010000
00000000
,
00000010
00010000
00000000
00000100
00001000
00000000
00000010
00010000
00000000
00000100
00001000
00000000
00000100
00000010
00000001
00000010
,
00000000
00000000
00000000
00000000
;
