
//----- song ID: were -----//
#TITLE:We're so Happy;
#ARTIST:Ryu☆;
#BANNER:We're so Happy.png;
#BACKGROUND:We're so Happy-bg.png;
#CDTITLE:./CDTitles/jubeat saucer.png;
#MUSIC:We're so Happy.ogg;
#SAMPLESTART:57.03;
#SAMPLELENGTH:15;
#BPMS:0=185;
#NOTES:
     dance-single:
     :
     Beginner:
     5:
     :
0000
0000
0000
0000
,
0000
0000
0000
0000
,
0000
0000
0000
0000
,
0000
0000
0000
0000
,
0000
0000
0000
0000
,
0000
0000
0000
0000
,
0000
0000
0000
0000
,
0000
0000
0000
0000
,
0000
0000
0000
0000
,
0000
0000
0000
0000
,
0001
0000
0100
0000
,
0001
0010
0001
0000
,
0100
0000
0010
0000
,
1000
0000
0100
0000
,
1000
0000
0010
0000
,
1000
0100
1000
0000
,
0010
0000
0100
0000
,
0001
0000
0010
0000
,
0001
0001
0001
0000
,
0100
0000
0001
0000
,
0010
0010
0010
0000
,
0100
0000
1000
0000
,
0100
0100
0100
0000
,
1000
0000
0010
0000
,
1000
1000
1000
0000
,
1001
0000
0000
0000
,
0020
0000
0000
0000
,
0030
0000
0000
0000
,
0200
0000
0000
0000
,
0300
0000
0000
0000
,
0002
0000
0000
0000
,
0003
0000
0000
0000
,
2000
0000
0000
0000
,
3000
0000
0000
0000
,
1000
1000
1000
0000
,
0010
0010
0010
0000
,
0001
0001
0001
0000
,
0100
0100
0100
0000
,
1001
0000
0110
0000
,
1001
0000
0110
0000
,
0010
0010
0010
0000
,
0100
0100
0100
0000
,
2002
0000
0000
0000
,
3003
0000
0000
0000
,
0010
0000
0001
0000
,
0100
0001
0010
0000
,
0100
0000
1000
0000
,
0010
1000
0100
0000
,
1000
0000
0010
0000
,
0100
0001
0100
0000
,
0010
0000
0100
0000
,
0001
0010
0100
0000
,
1000
0000
0100
0000
,
1000
0010
1000
0000
,
0100
0000
0001
0000
,
0010
0001
0100
0000
,
0010
0000
1000
0000
,
0100
1000
0010
0000
,
0100
0000
0001
0000
,
1001
0000
0000
0000
,
0010
0010
0010
0000
,
0001
0001
0100
0000
,
0010
0010
0010
0000
,
1000
1000
0100
0000
,
1000
1000
1000
0000
,
0001
0001
0001
0000
,
1001
0000
0110
0000
,
1001
0000
0000
0000
,
0020
0000
0000
0000
,
0030
0000
0000
0000
,
0200
0000
0000
0000
,
0300
0000
0000
0000
,
0010
0010
0010
0000
,
0100
0100
0100
0000
,
0001
0001
0001
0000
,
1000
1000
1000
0000
,
1001
0000
0110
0000
,
1001
0000
0000
0000
,
1000
0000
0100
0000
,
0001
0100
0001
0000
,
0100
0000
1000
0000
,
0001
1000
0001
0000
,
0001
0000
0100
0000
,
1000
0100
1000
0000
,
0100
0000
0001
0000
,
1000
0001
1000
0000
,
0100
0010
0001
0000
,
1000
1000
0001
0000
,
0100
0010
1000
0000
,
0001
0001
1000
0000
,
0100
0010
0100
0000
,
0010
0100
0010
0000
,
1001
0000
0110
0000
,
1000
0001
1000
0000
,
2002
0000
0000
0000
,
0000
0000
0000
0000
,
3003
0000
0000
0000
,
0000
0000
0000
0000
;
#NOTES:
     dance-single:
     :
     Easy:
     9:
     :
0000
0000
0000
0000
,
0000
0000
0000
0000
,
0000
0000
0000
0000
,
0000
0000
0000
0000
,
0000
0000
0000
0000
,
0000
0000
0000
0000
,
0000
0000
0000
0000
,
0000
0000
0000
0000
,
0000
0000
0000
0000
,
0000
0000
0000
0000
,
0001
0001
0100
0010
,
1000
0100
0010
0001
,
1000
1000
0010
0100
,
0001
0010
0100
1000
,
0010
0010
1000
0001
,
0100
0001
0010
0100
,
0010
0010
0001
1000
,
0010
1000
0100
0010
,
0001
0000
0001
0000
1000
0100
1000
0000
,
0010
0000
0010
0000
1000
0100
1000
0000
,
1000
0000
1000
0000
0001
0010
0001
0000
,
1000
0000
1000
0000
0001
0100
0001
0000
,
1000
0100
0001
0000
0100
0000
1000
0000
,
0100
0001
0100
1000
,
0001
0100
1000
0000
0100
0000
0001
0000
,
2002
0000
0000
3003
,
0020
0000
1000
0000
,
0100
0000
1000
0000
,
0230
0000
0001
0000
,
0010
0000
0001
0000
,
0302
0000
0010
0000
,
0100
0000
0010
0000
,
2003
0000
0010
0000
,
3100
0010
0100
0010
0100
0010
0100
0000
,
1000
0000
0010
0000
0001
0100
1000
0000
,
0001
0000
0010
0000
1000
0100
0001
0000
,
1000
0000
0010
0000
0001
0100
1000
0000
,
0001
0000
0010
0000
1000
0100
0001
0000
,
0100
1000
0100
1000
,
0001
0100
0001
0100
,
0010
1000
0010
0000
1000
0100
1000
0000
,
0001
0010
0001
0000
1000
0001
1000
0001
,
0000
0000
0000
0000
,
0000
0010
0010
1001
,
0010
0001
0100
0000
0010
0000
1000
0000
,
0001
0100
0001
0010
,
0100
1000
0010
0000
0100
0000
0001
0000
,
1000
0001
0010
0100
,
1000
0001
0010
0000
0001
0000
0100
0000
,
1000
0100
0001
1000
,
0001
1000
0010
0000
1000
0000
0100
0000
,
0001
0100
1000
0001
,
0010
0001
0100
0000
0010
0000
1000
0000
,
0100
0010
0001
0000
1000
0000
0010
0000
,
0100
0010
1000
0000
0001
0000
0010
0000
,
0100
0010
0001
0000
1000
0000
0100
0000
,
1000
1000
0010
0010
,
0001
0001
0100
0100
,
1000
0010
0100
0000
0001
0010
0100
0000
,
2002
0000
0000
3003
,
0010
0000
1000
0000
0001
1000
0001
0000
,
0100
0001
0010
0100
,
1000
0000
0100
0000
0010
0100
0010
0000
,
0001
0100
0001
0000
,
1000
0001
0011
0011
,
0001
1000
1010
1010
,
0100
0100
0000
0000
0010
0010
0000
0000
,
1000
0001
1000
0001
1000
0000
1001
0000
,
0002
0000
0000
0003
,
0200
0000
0000
0300
,
0020
0000
0000
0030
,
2000
0000
0000
3000
,
1000
0000
0001
0000
0100
0010
0100
0000
,
0001
0000
1000
0000
0100
0010
0100
0000
,
1000
1000
1000
0000
0001
0001
0001
0000
,
0100
0100
0100
0000
0010
0010
0010
0000
,
1010
0000
0011
0000
,
1000
0001
2002
3003
,
0001
0100
1000
0000
0100
0000
0001
0000
,
0100
1000
0100
0001
,
1000
0100
0001
0000
0100
0000
1000
0000
,
0100
0001
0100
1000
,
0001
0010
1000
0000
0010
0000
0001
0000
,
0010
1000
0010
0001
,
1000
0010
0001
0000
0010
0000
1000
0000
,
0010
0001
0010
1000
,
0001
0100
0010
0000
1000
0000
0100
0000
,
0010
0001
0100
0010
,
1000
0100
0010
0000
0001
0000
0100
0000
,
0010
1000
0001
1000
,
0010
0000
0010
0000
0010
0010
0010
0000
,
0100
0000
0100
0000
0100
0100
0100
0000
,
1010
0000
0011
0000
,
1100
0101
1100
0101
,
2002
0000
0000
0000
,
0000
0000
0000
0000
,
3003
0000
0000
0000
,
0000
0000
0000
0000
;
#NOTES:
     dance-single:
     :
     Medium:
     13:
     :
0000
0000
0000
0000
,
0000
0000
0000
0000
,
0000
0000
0000
0000
,
0000
0000
0000
0000
,
0000
0000
0000
0000
,
0000
0000
0000
0000
,
0000
0000
0000
0000
,
0000
0000
0000
0000
,
0000
0000
0000
0000
,
0000
0000
0000
0000
,
0010
1000
0100
0000
0010
0001
0100
0000
,
0010
1000
0001
0100
0001
1000
0010
0000
,
0100
0001
0010
0000
0100
1000
0010
0000
,
1000
0010
0100
0001
0100
0010
1000
0000
,
1000
0001
0010
0000
0001
1000
0100
0000
,
0010
0001
0100
0010
1000
0100
0010
0000
,
0100
1000
0001
0000
0010
0001
1000
0000
,
0010
0100
0001
0010
0100
1000
0001
0000
,
1000
0010
0100
0010
1000
0010
0100
0000
,
0001
0010
0100
0010
0001
0010
0100
0000
,
1000
0001
0010
0001
1000
0001
0010
0000
,
0001
1000
0100
1000
0001
1000
0100
0000
,
1000
0010
1000
0000
0001
0100
0001
0000
,
0000
0010
0000
0010
0000
0100
0000
0100
,
0000
0010
0000
1000
0001
1000
0001
0000
,
2002
0000
0000
3003
,
0001
0000
1000
0010
0000
0010
0000
1000
,
0000
0010
0000
0010
0000
0010
1000
0000
,
1000
0000
0001
0010
0000
0010
0000
0001
,
0000
0010
0000
0010
0001
1000
0001
0000
,
1000
0000
0001
0100
0000
0100
0000
0001
,
0000
0100
0000
0100
0000
0100
0001
0000
,
0001
0000
1000
0100
0000
0100
0000
0100
,
1000
0100
1000
0100
0010
0001
0010
0000
,
0001
0100
1000
0100
0001
0000
1001
0000
,
1000
0100
0001
0100
1000
0000
1001
0000
,
0001
0010
1000
0010
0001
0000
1001
0000
,
1000
0010
0001
0010
1000
0000
1001
0000
,
0001
0010
0100
0000
1000
0010
0100
0000
,
0001
0100
0010
0000
1000
0100
0010
0000
,
0001
0100
0010
1000
0001
0100
0010
1000
,
0001
0000
0010
0000
0100
0000
1000
0000
0001
0000
0010
0000
0100
1000
0100
1000
,
0000
0000
0000
0000
,
0100
0010
1100
0000
0101
0000
1001
0000
,
0010
1000
0100
0010
0001
0100
1000
0100
,
0001
0010
0100
1000
0010
0100
0010
0000
,
1000
0010
0100
0001
0010
0100
0001
0100
,
1000
0001
0100
0010
1000
0001
1000
0000
,
0010
1000
0100
1000
0010
0100
1000
0100
,
0001
0010
0001
0100
0001
1000
0001
0000
,
0010
0001
0100
0001
0010
0100
0001
0100
,
1000
0010
1000
0100
1000
0001
1000
0000
,
0010
0100
0001
1000
0100
0001
1000
0010
,
0001
1000
0001
0100
0010
1000
0010
0100
,
0001
0010
1000
0001
0100
1000
0001
0100
,
0001
0010
0100
1000
0010
1000
0100
0000
,
0010
0100
1000
0001
0100
1000
0001
0010
,
1000
0001
1000
0100
0010
0001
0010
0100
,
1000
0010
0001
1000
0100
0001
1000
0100
,
1000
0010
1010
0000
0011
0000
0101
0000
,
1000
0000
0001
0100
0000
0001
0000
0010
0000
0000
0001
0000
0100
0000
0010
0000
,
1000
0000
0100
0010
0000
0001
0000
1000
0000
0001
0000
0001
0100
0000
0000
0000
,
0010
0000
1000
0001
0000
0100
0000
0010
0000
0000
1000
0000
0100
0000
0001
0000
,
0100
0000
1000
0001
0000
0100
0000
0010
0000
1000
0000
1000
0001
0000
0000
0000
,
1001
0000
0010
1000
0100
0010
0001
1000
,
1001
0000
0100
0001
0010
0100
1000
0001
,
0010
0100
0000
0000
1000
0001
0000
0000
,
0100
0010
0100
0010
0100
0000
0110
0000
,
2002
0000
0000
0003
,
0200
0000
0000
3300
,
2002
0000
0000
3000
,
0200
0000
0000
0303
,
0001
0010
0100
1000
0010
0100
1001
0000
,
1000
0100
0010
0001
0100
0010
1001
0000
,
1000
0010
0001
0000
0001
0010
1000
0000
,
0001
0100
1000
0100
0001
0000
1001
0000
,
1000
1000
0000
0000
0001
0001
0000
0000
,
0100
0010
0100
0010
0100
0000
0110
0000
,
1000
0001
1000
0000
0010
0000
0100
0000
0001
0000
1000
0000
0100
0000
0010
0000
,
0001
0100
0010
1000
0100
1000
0010
0100
,
0001
1000
0001
0000
1000
0000
0100
0000
0010
0000
0001
0000
1000
0000
0100
0000
,
1000
0010
0100
0001
0010
0001
0100
0000
,
0010
0100
0010
0000
1000
0000
0100
0000
0010
0000
0100
0000
1000
0000
0001
0000
,
0100
0010
1000
0001
0100
0001
0010
0001
,
0100
0010
0100
0000
0010
0000
1000
0000
0001
0000
0100
0000
0010
0000
1000
0000
,
0100
0010
0001
1000
0010
0100
0001
0000
,
1000
0010
1000
0000
0010
0000
1000
0000
0100
0000
0001
0000
0100
0000
0010
0000
,
0001
0100
0001
0000
1000
0000
0010
0000
0100
0000
0001
0000
1000
0000
0100
0000
,
0010
0001
0010
0000
0001
0000
0100
0000
1000
0000
0100
0000
0001
0000
1000
0000
,
0100
1000
0100
0000
0010
0000
0001
0000
0010
0000
0100
0000
1000
0000
0001
0000
,
1000
0000
0100
0000
0010
0000
0001
0000
1000
0001
1000
0001
1000
0000
0000
0000
,
0010
0000
1000
0000
0001
0000
0100
0000
0001
1000
0001
1000
0001
0000
0000
0000
,
1000
1000
0000
0000
0001
0001
0000
0000
,
0100
0010
1000
0100
0010
0000
0110
0000
,
2002
0000
0000
0000
,
0000
0000
0000
0000
,
3003
0000
0000
0000
,
0000
0000
0000
0000
;
#NOTES:
     dance-single:
     :
     Hard:
     16:
     :
0000
0000
0000
0000
,
0000
0000
0000
0000
,
0000
0000
0000
0000
,
0000
0000
0000
0000
,
0000
0000
0000
0000
,
0000
0000
0000
0000
,
0000
0000
0000
0000
,
0000
0000
0000
0000
,
0000
0000
0000
0000
,
0000
0000
0000
0000
,
0100
1000
0100
1000
0010
0100
0001
0010
,
0001
1000
0001
1000
0100
0010
0100
1000
,
0010
0100
0010
0100
0001
1000
0010
0100
,
0001
0010
0001
0010
0100
1000
0001
0000
,
0010
0001
0010
0001
0100
0010
1000
0100
,
1000
0001
1000
0001
0010
0100
0010
0001
,
0100
0010
0100
0010
1000
0001
0100
0010
,
1000
0010
0010
0010
,
1000
0100
1000
0000
0001
0000
0100
0000
0010
0000
1000
0000
0001
0000
0010
0000
,
0100
1000
0100
0000
0010
0000
0001
0000
0100
0000
0010
0000
0100
0000
0001
0000
,
1000
0001
1000
0000
0010
0000
0100
0000
0001
0000
0010
0000
0100
0000
1000
0000
,
0001
0100
0001
0000
1000
0000
0010
0000
0100
0000
0001
0000
0010
0000
0000
0000
,
0001
0100
0010
0000
1000
0000
0001
0000
1000
0000
0100
0000
0010
0000
0100
0000
,
1000
0010
0000
0001
0000
0010
0000
1000
,
0000
0000
0100
0000
0000
0000
0010
0000
0001
0000
1000
0000
0001
0010
0100
1000
,
0002
0000
0000
0003
,
1000
0010
0100
0001
0000
1000
0000
0010
,
0000
0100
0000
0001
0000
1000
0010
0000
,
1000
0100
0010
0001
0000
1000
0000
0100
,
0000
0000
0010
0000
0000
0000
0001
0000
1000
0001
0010
0100
1000
0001
0010
0100
,
1000
0001
0100
0010
0000
1000
0000
0001
,
0000
0100
0000
0010
0000
1000
0001
0000
,
1000
0001
0010
0100
0000
1000
0000
0001
,
1000
0100
1000
0100
0010
0001
0010
0001
0100
0001
0100
0001
1000
0010
1000
0010
,
1000
0000
0001
0000
0010
0001
0000
0010
0000
0100
1000
0000
1001
0000
0000
0000
,
0001
0000
1000
0000
0010
1000
0000
0010
0000
0100
0001
0000
1001
0000
0000
0000
,
0100
0000
0001
0000
0010
0100
0000
1000
0000
0010
0100
0000
1001
0000
0000
0000
,
0100
0000
1000
0000
0010
0100
0000
0001
0000
0010
0100
0000
1001
0000
0000
0000
,
1000
0100
0010
0100
1000
0100
0001
0100
,
1000
0100
0010
0100
1000
0100
0001
0100
,
1000
0100
1000
0100
0010
0001
0010
0001
1000
0100
1000
0100
0010
0001
0010
0001
,
1000
0001
1000
0001
1000
0001
1000
0001
1000
0001
1000
0001
1000
0001
1000
0001
,
0000
0000
0000
0000
,
0100
0010
0100
0000
1010
0000
0000
0000
0011
0000
0000
0000
1001
0000
0000
0000
,
0001
0100
0010
0000
1000
0000
0001
0000
1000
0100
0010
0000
0001
0000
0100
0000
,
0010
1000
0001
0000
0100
0000
0010
0000
1000
0100
0010
0000
0001
0000
0100
0000
,
0001
1000
0100
0000
1000
0000
0010
0000
0100
0001
0010
0000
0100
0000
1000
0000
,
0001
0100
0010
0000
1000
0000
0001
0000
0010
0000
0100
0000
0010
0000
0000
0000
,
1000
0010
0100
0000
0001
0000
1000
0000
0001
0010
0100
0000
1000
0000
0010
0000
,
0100
0001
1000
0000
0010
0000
0100
0000
0001
0010
0100
0000
1000
0000
0010
0000
,
1000
0001
0010
0000
0001
0000
0100
0000
0010
1000
0100
0000
0010
0000
0001
0000
,
1000
0010
0100
0000
0001
0000
1000
0000
0100
0000
0010
0000
0100
0000
0000
0000
,
0001
0100
0010
0000
0100
0000
0001
0000
1000
0010
0100
0000
0010
0000
1000
0000
,
0100
0010
0001
0000
0100
0000
0010
0000
1000
0010
0100
0000
0001
0000
1000
0000
,
0100
1000
0010
0000
0100
0000
0001
0000
1000
0100
0010
0000
0001
0000
0100
0000
,
0010
1000
0100
0000
1000
0000
0001
0000
0100
0001
1000
0000
0010
0000
0000
0000
,
1000
0100
0010
0000
0100
0000
1000
0000
0001
0010
0100
0000
0010
0000
0001
0000
,
0100
0010
1000
0000
0100
0000
0010
0000
0001
0010
0100
0000
1000
0000
0001
0000
,
0100
0001
0010
0000
0100
0000
1000
0000
0001
0100
0010
0000
1000
0000
0100
0000
,
0010
0001
0100
0000
0101
0000
0000
0000
1100
0000
0000
0000
1001
0000
0000
0000
,
1000
0000
0010
0100
0000
0010
0000
1000
0000
0100
0010
0000
0001
0000
0100
0000
,
0001
0000
0010
0100
0000
1000
0000
0001
0000
0100
0000
0001
1000
0100
1000
0100
,
0010
0000
0001
0100
0000
0010
0000
0100
0000
0001
1000
0000
0100
0000
0010
0000
,
0001
0000
0100
0010
0000
0100
0000
0001
0000
1000
0000
0001
0200
0000
0000
0000
,
0310
0000
0000
0000
1001
0000
1000
0000
0100
0010
0100
0010
0001
0010
0001
0010
,
0001
0000
0000
0000
1001
0000
0001
0000
0100
0010
0100
0010
1000
0010
1000
0010
,
1000
0100
0000
0000
0001
0100
0000
0000
,
0001
0010
0100
1000
0010
0100
0001
0010
0100
0000
0000
0000
0110
0000
0000
0000
,
2001
0000
0000
0000
,
0200
0000
0000
3000
,
0020
0000
0000
0300
,
0002
0000
0000
0033
,
1000
0000
0100
0000
0010
0100
0000
1000
0000
0100
0010
0000
1001
0000
0000
0000
,
0001
0000
0100
0000
0010
0100
0000
0001
0000
0100
0010
0000
1001
0000
1000
0000
,
0001
0010
0100
1000
0001
0010
0100
1000
,
0010
0100
0001
1000
0010
0100
0001
1000
0001
0000
0000
0000
0110
0000
0000
0000
,
0001
0000
1000
0000
1001
0000
0000
0000
0010
0100
0010
0000
0110
0000
0000
0000
,
0001
0010
0100
1000
0001
0010
0100
1000
0001
0000
0000
0000
1001
0000
0000
0000
,
0010
1000
0010
0000
0100
0000
0001
0000
0010
0100
1000
0000
0001
0000
0100
0000
,
0010
0100
0010
0000
1000
0000
0001
0000
1000
0100
0010
0000
0001
0000
0100
0000
,
0001
0010
0001
0000
0100
0000
0010
0000
1000
0001
0100
0000
0010
0000
0100
0000
,
0001
1000
0010
0000
1000
0000
0100
0000
0010
0001
1000
0000
0001
0000
0000
0000
,
0100
0001
0100
0000
0010
0000
1000
0000
0100
0010
0001
0000
1000
0000
0010
0000
,
0100
0010
0100
0000
0001
0000
1000
0000
0001
0010
0100
0000
1000
0000
0010
0000
,
1000
0100
1000
0000
0010
0000
0100
0000
0001
1000
0010
0000
0100
0000
0010
0000
,
1000
0001
0100
0000
0001
0000
0010
0000
0100
1000
0001
0000
1000
0000
0000
0000
,
0001
0010
0001
0010
0001
0000
0100
0000
0010
0000
1000
0000
0100
0000
1000
0000
,
0010
1000
0010
1000
0010
0000
0100
0000
0001
0000
1000
0000
0100
0000
0010
0000
,
0001
1000
0100
1000
0001
0000
0100
0000
0001
0000
0010
0000
0100
0000
1000
0000
,
0100
0010
0001
0010
0100
0000
1000
0000
0001
0000
0100
0000
0010
0000
1000
0000
,
0001
0000
0010
0000
0100
0000
1000
0000
0001
1000
0010
1000
0001
1000
0010
1000
,
0001
0000
0010
0000
0100
0000
1000
0000
0010
0100
0001
0100
0010
0100
0001
0100
,
0010
1000
0000
0000
0100
0001
0000
0000
,
1000
0100
0010
0001
0100
0010
1000
0100
0010
0000
0000
0000
0110
0000
0000
0000
,
2002
0000
0000
0000
,
0000
0000
0000
0000
,
3003
0000
0000
0000
,
0000
0000
0000
0000
;
#NOTES:
     dance-double:
     :
     Easy:
     9:
     :
00000000
00000000
00000000
00000000
,
00000000
00000000
00000000
00000000
,
00000000
00000000
00000000
00000000
,
00000000
00000000
00000000
00000000
,
00000000
00000000
00000000
00000000
,
00000000
00000000
00000000
00000000
,
00000000
00000000
00000000
00000000
,
00000000
00000000
00000000
00000000
,
00000000
00000000
00000000
00000000
,
00000000
00000000
00000000
00000000
,
00001000
00001000
00000001
00000100
,
00000010
00001000
00000100
00010000
,
00001000
00001000
01000000
00010000
,
00100000
01000000
10000000
00100000
,
01000000
01000000
00010000
10000000
,
00100000
01000000
00010000
00100000
,
00001000
00001000
00010000
00000100
,
00001000
00000010
00001000
00000100
,
00000010
00000000
00000010
00000000
00000001
00001000
00000001
00000000
,
00000100
00000000
00000100
00000000
00001000
00010000
00001000
00000000
,
00010000
00000000
00010000
00000000
00001000
01000000
00001000
00000000
,
00100000
00000000
00100000
00000000
00010000
01000000
00010000
00000000
,
10000000
01000000
00010000
00000000
01000000
00000000
10000000
00000000
,
00010000
00100000
00001000
00010000
,
00001000
00000010
00000001
00000000
00000010
00000000
00001000
00000000
,
00022000
00000000
00000000
00033000
,
00020000
00000000
00030010
00000000
,
00002000
00000000
00003010
00000000
,
00000200
00000000
00010300
00000000
,
00002000
00000000
00013000
00000000
,
00200000
00000000
00310000
00000000
,
02000000
00000000
03100000
00000000
,
00002000
00000000
00013000
00000000
,
00000100
00001000
00000100
00001000
00000100
00000010
00000100
00000000
,
00000010
00000000
00000001
00000000
00000001
00000100
00001000
00000000
,
00000100
00000001
00001000
00000100
,
00010000
00000000
00001000
00000000
00010000
00100000
10000000
00000000
,
00100000
01000000
00010000
10000000
,
01000000
00010000
01000000
00010000
,
00001000
00000010
00001000
00000010
,
00000001
00001000
00000001
00000000
00000100
00000010
00000100
00000000
,
00001000
00010000
00001000
00000000
01000000
00100000
01000000
00100000
,
00000000
00000000
00000000
00000000
,
00000000
00100000
00100000
10010000
,
10000000
00100000
01000000
00000000
00010000
00000000
01000000
00000000
,
00100000
00010000
00001000
00000100
,
00000010
00001000
00000001
00000000
00001000
00000000
00000100
00000000
,
00000010
00000001
00000100
00001000
,
00010000
00001000
01000000
00000000
00010000
00000000
00100000
00000000
,
10000000
00100000
00010000
10000000
,
01000000
00100000
00010000
00000000
00100000
00000000
00001000
00000000
,
00010000
00000100
00000010
00000100
,
00001000
00000010
00001000
00000000
00000001
00000000
00000100
00000000
,
00000010
00010000
00000010
00000000
00010000
00000000
00001000
00000000
,
00100000
00010000
00100000
00000000
01000000
00000000
10000000
00000000
,
00100000
01000000
00100000
00000000
10000000
00000000
01000000
00000000
,
00100000
00100000
00001000
00001000
,
00010000
00010000
00000100
00000100
,
00001000
00000010
00000100
00000000
00000001
00000010
00000100
00000000
,
00002002
00000000
00000000
00003003
,
00000010
00000000
00001000
00000000
00000100
00001000
00000100
00000000
,
00010000
00001000
01000000
00010000
,
00100000
00000000
01000000
00000000
10000000
01000000
10000000
00000000
,
00010000
01000000
00001000
00010000
,
00000100
00001000
00001010
00001010
,
00000001
00000100
00000101
00000101
,
00001000
00001000
00000000
00000000
00000100
00000100
00000000
00000000
,
00010000
00001000
00010000
00001000
00010000
00000000
00011000
00000000
,
00002000
00000000
00000000
00003000
,
00200000
00000000
00000000
00300000
,
00020000
00000000
00000000
00030000
,
02000000
00000000
00000000
03000000
,
00100000
00000000
10000000
00000000
01000000
00100000
01000000
00000000
,
00010000
00000000
00001000
00000000
00000010
00000100
00000010
00000000
,
00000001
00000001
00000001
00000000
00001000
00001000
00001000
00000000
,
00000010
00000010
00000010
00000000
00010000
00010000
00010000
00000000
,
00011000
00000000
00110000
00000000
,
10000000
00010000
20020000
30030000
,
00010000
01000000
10000000
00000000
01000000
00000000
00010000
00000000
,
00100000
00001000
00010000
00000100
,
00001000
00000100
00000001
00000000
00000100
00000000
00001000
00000000
,
00000010
00010000
00001000
00100000
,
00010000
00100000
10000000
00000000
00100000
00000000
00010000
00000000
,
01000000
00001000
00010000
00000100
,
00001000
00000010
00000001
00000000
00000010
00000000
00001000
00000000
,
00000100
00010000
00001000
00100000
,
00010000
00100000
01000000
00000000
10000000
00000000
01000000
00000000
,
00010000
00001000
00000010
00000001
,
00000100
00000010
00001000
00000000
00000001
00000000
00000100
00000000
,
00001000
00010000
00100000
10000000
,
01000000
00000000
01000000
00000000
01000000
01000000
01000000
00000000
,
00100000
00000000
00100000
00000000
00100000
00100000
00100000
00000000
,
00001000
00001000
00000000
00000000
00010000
00010000
00000000
00000000
,
00001010
00000011
00001010
00000011
,
00002002
00000000
00000000
00000000
,
00000000
00000000
00000000
00000000
,
00003003
00000000
00000000
00000000
,
00000000
00000000
00000000
00000000
;
#NOTES:
     dance-double:
     :
     Medium:
     13:
     :
00000000
00000000
00000000
00000000
,
00000000
00000000
00000000
00000000
,
00000000
00000000
00000000
00000000
,
00000000
00000000
00000000
00000000
,
00000000
00000000
00000000
00000000
,
00000000
00000000
00000000
00000000
,
00000000
00000000
00000000
00000000
,
00000000
00000000
00000000
00000000
,
00000000
00000000
00000000
00000000
,
00000000
00000000
00000000
00000000
,
00000010
00000001
00000010
00000000
00000100
00001000
00000100
00000000
,
00010000
00001000
00010000
00001000
01000000
00010000
01000000
00000000
,
00100000
10000000
00100000
00000000
01000000
00010000
01000000
00000000
,
00001000
00010000
00001000
00010000
00000100
00001000
00000100
00000000
,
00000010
00000001
00000100
00000000
00000010
00001000
00000100
00000000
,
00010000
00001000
00010000
00001000
00100000
00010000
00100000
00000000
,
01000000
10000000
00100000
00000000
01000000
00010000
00100000
00000000
,
00001000
00010000
00001000
00010000
00000010
00001000
00000010
00000000
,
00000100
00000010
00001000
00000010
00000100
00000010
00001000
00000000
,
00000100
00010000
00001000
00010000
00000100
00010000
00001000
00000000
,
00100000
00010000
01000000
00010000
00100000
00010000
01000000
00000000
,
00100000
10000000
00010000
10000000
00100000
10000000
00010000
00000000
,
01000000
00010000
00100000
00000000
00001000
00010000
00000100
00000000
,
00000000
00000010
00000000
00000010
00000000
00000100
00000000
00000100
,
00000000
01000000
00000000
01000000
00100000
01000000
00100000
00000000
,
20020000
00000000
00000000
30030000
,
10000000
00000000
01000000
00010000
00000000
00010000
00000000
00001000
,
00000000
00000010
00000000
00000010
00000000
00000010
00000001
00000000
,
00000001
00000000
00000100
00001000
00000000
00001000
00000000
00010000
,
00000000
00100000
00000000
00100000
10000000
00100000
10000000
00000000
,
10000000
00000000
00100000
00010000
00000000
00010000
00000000
00001000
,
00000000
00000100
00000000
00000100
00000000
00000100
00000001
00000000
,
00000001
00000000
00000010
00001000
00000000
00001000
00000000
00010000
,
01000000
10000000
01000000
10000000
00100000
01000000
00100000
00000000
,
10000000
01000000
00010000
01000000
10000000
00000000
01100000
00000000
,
01000000
00010000
00001000
00010000
01000000
00000000
00101000
00000000
,
00010000
00001000
00000010
00001000
00010000
00000000
00001100
00000000
,
00000001
00000100
00001000
00000100
00000001
00000000
00001001
00000000
,
00000001
00000010
00000100
00000000
00001000
00000010
00000100
00000000
,
00001000
00010000
00100000
00000000
01000000
00010000
00100000
00000000
,
10000000
01000000
10000000
01000000
00100000
00010000
00100000
00010000
,
00001000
00000100
00001000
00000100
00000010
00000001
00000010
00000001
,
00000000
00000000
00000000
00000000
,
00000010
00000100
00000101
00000000
00001100
00000000
00001001
00000000
,
00000001
00000100
00000010
00001000
00000100
00000010
00000001
00001000
,
00000100
00010000
00001000
00100000
00001000
00010000
01000000
00000000
,
00100000
00010000
10000000
00100000
01000000
10000000
01000000
00010000
,
00100000
01000000
00010000
00001000
00000010
00000100
00001000
00000000
,
00000001
00000100
00001000
00000100
00000001
00001000
00000100
00010000
,
00001000
00100000
00010000
01000000
00010000
00100000
01000000
00000000
,
10000000
00100000
10000000
01000000
00100000
00010000
00100000
00001000
,
00010000
00000010
00001000
00000100
00000010
00000001
00001000
00000000
,
00000001
00000100
00001000
00000100
00000001
00001000
00000100
00010000
,
00001000
00100000
00010000
01000000
00100000
10000000
00100000
01000000
,
00010000
00100000
01000000
00010000
01000000
10000000
00010000
00100000
,
00001000
00010000
00000100
00001000
00000010
00001000
00000100
00000000
,
00000010
00000001
00000100
00001000
00000100
00000001
00000010
00000100
,
00010000
00001000
01000000
00010000
00100000
01000000
10000000
01000000
,
00010000
01000000
10000000
00100000
01000000
00010000
00100000
01000000
,
00010000
00001000
00011000
00000000
00001010
00000000
00000011
00000000
,
00001000
00000000
00000010
00000100
00000000
00000001
00000000
00000100
00000000
00000000
00000010
00000000
00001000
00000000
00000100
00000000
,
00010000
00000000
00001000
00010000
00000000
00100000
00000000
01000000
00000000
00010000
00000000
00010000
10000000
00000000
00000000
00000000
,
00010000
00000000
10000000
01000000
00000000
00100000
00000000
01000000
00000000
00000000
10000000
00000000
00010000
00000000
00100000
00000000
,
00001000
00000000
00010000
00001000
00000000
00000100
00000000
00000010
00000000
00001000
00000000
00001000
00000001
00000000
00000000
00000000
,
00001001
00000000
00000100
00000010
00001000
00000100
00010000
00001000
,
00100000
00000000
00010000
10000000
01000000
00100000
00001000
00010000
,
00000100
00001000
00000000
00000000
00000001
00000010
00000000
00000000
,
00000001
00001000
00000001
00001000
00000001
00000000
00000110
00000000
,
00002200
00000000
00000000
00003300
,
00020200
00000000
00000000
00030300
,
00022000
00000000
00000000
00033000
,
02002000
00000000
00000000
03003000
,
00010000
00100000
01000000
10000000
00100000
01000000
00010000
00000000
,
00100000
01000000
10000000
00100000
01000000
00001000
00010000
00000000
,
00001000
00000010
00000001
00000000
00000001
00000100
00001000
00000000
,
00010000
00100000
01000000
00100000
00010000
00000000
00011000
00000000
,
00001000
00001000
00000000
00000000
00010000
00010000
00000000
00000000
,
00001000
00010000
00001000
00010000
00001000
00000000
00011000
00000000
,
00000010
00001000
00000010
00000000
00000100
00000000
00000001
00000000
00000010
00000000
00000100
00000000
00001000
00000000
00000010
00000000
,
00000100
00001000
00010000
00001000
00010000
00100000
10000000
01000000
,
10000000
00010000
10000000
00000000
00100000
00000000
01000000
00000000
00010000
00000000
00100000
00000000
01000000
00000000
00010000
00000000
,
00001000
00010000
00001000
00000010
00000001
00001000
00000100
00000000
,
00000010
00000001
00000010
00000000
00000001
00000000
00001000
00000000
00000010
00000000
00000100
00000000
00001000
00000000
00010000
00000000
,
00100000
01000000
00010000
00100000
01000000
00010000
01000000
10000000
,
00100000
01000000
00100000
00000000
10000000
00000000
00010000
00000000
00100000
00000000
00010000
00000000
10000000
00000000
01000000
00000000
,
00010000
00001000
00000010
00000001
00001000
00000100
00000010
00000000
,
00000001
00001000
00000001
00000000
00000100
00000000
00000010
00000000
00001000
00000000
00000100
00000000
00010000
00000000
00001000
00000000
,
00100000
00010000
00100000
00000000
00010000
00000000
01000000
00000000
00100000
00000000
10000000
00000000
00010000
00000000
00100000
00000000
,
01000000
10000000
01000000
00000000
00100000
00000000
00001000
00000000
00010000
00000000
00000100
00000000
00001000
00000000
00000010
00000000
,
00000100
00000001
00000100
00000000
00000010
00000000
00001000
00000000
00000001
00000000
00000010
00000000
00000100
00000000
00010000
00000000
,
00001000
00000000
00000100
00000000
00001000
00000000
00010000
00000000
00100000
01000000
00100000
01000000
00100000
00000000
00000000
00000000
,
01000000
00000000
00001000
00000000
00010000
00000000
00000010
00000000
00000100
00000010
00000100
00000010
00000100
00000000
00000000
00000000
,
00000001
00000010
00000000
00000000
00001000
00010000
00000000
00000000
,
01000000
10000000
01000000
00010000
00001000
00000000
00010000
00000000
,
00022000
00000000
00000000
00000000
,
00000000
00000000
00000000
00000000
,
00033000
00000000
00000000
00000000
,
00000000
00000000
00000000
00000000
;
#NOTES:
     dance-double:
     :
     Hard:
     16:
     :
00000000
00000000
00000000
00000000
,
00000000
00000000
00000000
00000000
,
00000000
00000000
00000000
00000000
,
00000000
00000000
00000000
00000000
,
00000000
00000000
00000000
00000000
,
00000000
00000000
00000000
00000000
,
00000000
00000000
00000000
00000000
,
00000000
00000000
00000000
00000000
,
00000000
00000000
00000000
00000000
,
00000000
00000000
00000000
00000000
,
10000000
01000000
10000000
01000000
00100000
00010000
00100000
00001000
,
00010000
00001000
00010000
00001000
00010000
00000010
00001000
00000010
,
00000100
00000001
00000100
00000001
00000010
00000100
00001000
00000010
,
00000100
00000010
00000100
00000010
00010000
00001000
00010000
00000000
,
00000100
00000010
00000100
00000010
00000001
00001000
00000010
00001000
,
00000100
00010000
00000100
00010000
00001000
00100000
00010000
01000000
,
00100000
01000000
00100000
01000000
00010000
10000000
01000000
00100000
,
00010000
01000000
01000000
01000000
,
10000000
00100000
10000000
00000000
01000000
00000000
00100000
00000000
00010000
00000000
01000000
00000000
00010000
00000000
00100000
00000000
,
00001000
00010000
00001000
00000000
00010000
00000000
00000010
00000000
00001000
00000000
00000100
00000000
00000010
00000000
00000001
00000000
,
00000100
00000010
00000100
00000000
00000001
00000000
00001000
00000000
00000100
00000000
00000010
00000000
00000100
00000000
00010000
00000000
,
00001000
00010000
00001000
00000000
00100000
00000000
00010000
00000000
01000000
00000000
00010000
00000000
00100000
00000000
00000000
00000000
,
01000000
10000000
00010000
00000000
00100000
00000000
01000000
00000000
00010000
00000000
00001000
00000000
00010000
00000000
00000010
00000000
,
00001000
00000100
00000000
00000001
00000000
00000100
00000000
00010000
,
00000000
00000000
00000010
00000000
00000000
00000000
00000100
00000000
00001000
00000000
00010000
00000000
00001000
00100000
00010000
00100000
,
02000000
00000000
00000000
03000000
,
10000000
00100000
00010000
00001000
00000000
00010000
00000000
01000000
,
00000000
10000000
00000000
00100000
00000000
00010000
00001000
00000000
,
00010000
00001000
00000010
00000001
00000000
00000100
00000000
00001000
,
00000000
00000000
00010000
00000000
00000000
00000000
00001000
00000000
00000010
00000100
00001000
00000001
00000010
00000100
00001000
00000001
,
00000010
00000100
00010000
00001000
00000000
00000100
00000000
00000010
,
00000000
00010000
00000000
00001000
00000000
00000010
00000100
00000000
,
00010000
00001000
00100000
00010000
00000000
01000000
00000000
00100000
,
10000000
01000000
10000000
01000000
00100000
00010000
00100000
00010000
00001000
00000100
00001000
00000100
00000010
00000001
00000010
00000001
,
00000010
00000000
00000001
00000000
00000100
00001000
00000000
00010000
00000000
00001000
00010000
00000000
00011000
00000000
00000000
00000000
,
00100000
00000000
10000000
00000000
01000000
00010000
00000000
00001000
00000000
00010000
00001000
00000000
00011000
00000000
00000000
00000000
,
00000100
00000000
00000001
00000000
00000010
00001000
00000000
00010000
00000000
00001000
00010000
00000000
00011000
00000000
00000000
00000000
,
01000000
00000000
10000000
00000000
00100000
00010000
00000000
00001000
00000000
00010000
00001000
00000000
00011000
00000000
00000000
00000000
,
00010000
00000100
00000001
00000100
00010000
00000100
00000001
00000100
,
00010000
00001000
01000000
10000000
01000000
00001000
01000000
10000000
,
01000000
00100000
01000000
00100000
10000000
01000000
10000000
01000000
00100000
00010000
00100000
00010000
00100000
00001000
00100000
00001000
,
00010000
00001000
00010000
00001000
00010000
00001000
00010000
00001000
00010000
00001000
00010000
00001000
00010000
00001000
00010000
00001000
,
00000000
00000000
00000000
00000000
,
00000100
00000010
00000001
00000000
00000011
00000000
00000000
00000000
00001100
00000000
00000000
00000000
00001001
00000000
00000000
00000000
,
00000001
00000100
00000010
00000000
00001000
00000000
00000100
00000000
00000010
00000100
00001000
00000000
00000010
00000000
00010000
00000000
,
00001000
01000000
00010000
00000000
00100000
00000000
01000000
00000000
10000000
01000000
00100000
00000000
00010000
00000000
10000000
00000000
,
00100000
01000000
00010000
00000000
00100000
00000000
00001000
00000000
00010000
00000010
00001000
00000000
00000100
00000000
00000010
00000000
,
00000001
00001000
00000100
00000000
00001000
00000000
00000001
00000000
00000100
00000000
00001000
00000000
00010000
00000000
00000000
00000000
,
00100000
01000000
00010000
00000000
00100000
00000000
01000000
00000000
10000000
01000000
00100000
00000000
01000000
00000000
00100000
00000000
,
00010000
01000000
00001000
00000000
00010000
00000000
00001000
00000000
00000010
00000100
00001000
00000000
00000010
00000000
00000100
00000000
,
00000010
00001000
00000100
00000000
00000001
00000000
00000100
00000000
00000010
00000001
00000100
00000000
00001000
00000000
00010000
00000000
,
00001000
01000000
00010000
00000000
00100000
00000000
01000000
00000000
10000000
00000000
00100000
00000000
01000000
00000000
00000000
00000000
,
00010000
00100000
01000000
00000000
10000000
00000000
01000000
00000000
00010000
00001000
00010000
00000000
00100000
00000000
00010000
00000000
,
00001000
00000100
00000010
00000000
00001000
00000000
00000100
00000000
00000001
00000100
00000001
00000000
00000100
00000000
00000010
00000000
,
00000001
00001000
00000010
00000000
00000100
00000000
00001000
00000000
00010000
00001000
00010000
00000000
00100000
00000000
01000000
00000000
,
00010000
00100000
01000000
00000000
00100000
00000000
00010000
00000000
10000000
01000000
00100000
00000000
00010000
00000000
00000000
00000000
,
01000000
00010000
00100000
00000000
01000000
00000000
00010000
00000000
01000000
00100000
00010000
00000000
01000000
00000000
00001000
00000000
,
00010000
00000010
00000100
00000000
00001000
00000000
00000100
00000000
00000010
00001000
00000001
00000000
00000010
00000000
00000100
00000000
,
00001000
00000010
00010000
00000000
00001000
00000000
00100000
00000000
00010000
01000000
00100000
00000000
10000000
00000000
01000000
00000000
,
00010000
00001000
00010000
00000000
00011000
00000000
00000000
00000000
00001010
00000000
00000000
00000000
00000011
00000000
00000000
00000000
,
00000001
00000000
00000100
00000010
00000000
00001000
00000000
00000100
00000000
00010000
00001000
00000000
00100000
00000000
00010000
00000000
,
10000000
00000000
00100000
01000000
00000000
00001000
00000000
00010000
00000000
01000000
00000000
10000000
00100000
01000000
00100000
01000000
,
00010000
00000000
10000000
01000000
00000000
00010000
00000000
00001000
00000000
00100000
00010000
00000000
01000000
00000000
00001000
00000000
,
00010000
00000000
00000010
00001000
00000000
00000100
00000000
00000001
00000000
00000100
00000000
00001000
00000010
00000000
00000000
00000000
,
00000110
00000000
00000000
00000000
00000001
00000000
00000010
00000000
00001000
00010000
00001000
00010000
00001000
01000000
00001000
01000000
,
00010000
00000000
00000000
00000000
10000000
00000000
00100000
00000000
00010000
00001000
00010000
00001000
00010000
00000100
00010000
00000100
,
00001000
00000001
00000000
00000000
00000100
00000010
00000000
00000000
,
00001000
00000100
00000010
00000001
00000100
00000010
00001000
00000100
00010000
00000000
00000000
00000000
00011000
00000000
00000000
00000000
,
00220000
00000000
00000000
00300000
,
02000000
00000000
03030000
00011000
,
00002020
00000000
00000000
00000030
,
00000002
00000000
00000000
00003003
,
00000001
00000000
00000010
00000000
00000100
00001000
00000000
00000100
00000000
00000010
00000001
00000000
00001001
00000000
00000000
00000000
,
00000100
00000000
00001000
00000000
00010000
00001000
00000000
00000100
00000000
00001000
00010000
00000000
00011000
00000000
00001000
00000000
,
00100000
00010000
10000000
01000000
00100000
00010000
10000000
01000000
,
00100000
00001000
00010000
00000100
00001000
00000010
00010000
00000100
,
00001000
00000000
00000001
00000000
00001001
00000000
00000000
00000000
00000010
00000100
00000010
00000000
00000110
00000000
00000000
00000000
,
00000001
00000100
00000010
00001000
00010000
01000000
00100000
10000000
00010000
00000000
00000000
00000000
10010000
00000000
00000000
00000000
,
00010000
10000000
00010000
00000000
01000000
00000000
00100000
00000000
10000000
01000000
00100000
00000000
00010000
00000000
01000000
00000000
,
00100000
00010000
00001000
00000000
00000100
00000000
00000010
00000000
00001000
00000100
00000010
00000000
00000001
00000000
00000100
00000000
,
00001000
00000100
00000010
00000000
00001000
00000000
00000100
00000000
00000010
00000001
00000100
00000000
00000001
00000000
00001000
00000000
,
00000100
00000010
00001000
00000000
00010000
00000000
01000000
00000000
10000000
01000000
00100000
00000000
01000000
00000000
00000000
00000000
,
10000000
00100000
10000000
00000000
00010000
00000000
10000000
00000000
01000000
00010000
00001000
00000000
00000010
00000000
00000100
00000000
,
00001000
00000010
00001000
00000000
00000001
00000000
00000100
00000000
00000010
00001000
00000100
00000000
00000001
00000000
00000100
00000000
,
00001000
00000010
00000100
00000000
00001000
00000000
00010000
00000000
00100000
01000000
00010000
00000000
10000000
00000000
01000000
00000000
,
00100000
00010000
01000000
00000000
10000000
00000000
01000000
00000000
00100000
00000000
10000000
00000000
00010000
00000000
00000000
00000000
,
00100000
01000000
00100000
01000000
00100000
00000000
00001000
00000000
00010000
00000000
00000100
00000000
00001000
00000000
00000010
00000000
,
00000100
00000001
00000100
00000001
00000100
00000000
00000010
00000000
00010000
00000000
00001000
00000000
00100000
00000000
00010000
00000000
,
01000000
00100000
10000000
00100000
01000000
00000000
00010000
00000000
00100000
00000000
01000000
00000000
00010000
00000000
00001000
00000000
,
00000010
00000100
00000010
00000001
00000010
00000000
00000001
00000000
00001000
00000000
00000010
00000000
00000100
00000000
00001000
00000000
,
00010000
00000000
00100000
00000000
01000000
00000000
00010000
00000000
00100000
01000000
10000000
01000000
00100000
01000000
10000000
01000000
,
00100000
00000000
00001000
00000000
00010000
00000000
00000100
00000000
00001000
00000010
00000100
00000010
00001000
00000010
00000100
00000010
,
00001000
00001000
00000000
00000000
00010000
00010000
00000000
00000000
,
10000000
01000000
00100000
00010000
00001000
00000100
00000010
00000001
00001000
00000000
00000000
00000000
00000110
00000000
00000000
00000000
,
00002002
00000000
00000000
00000000
,
00000000
00000000
00000000
00000000
,
00003003
00000000
00000000
00000000
,
00000000
00000000
00000000
00000000
;
