
//----- song ID: wadi -----//
#TITLE:私をディスコに連れてって TOKYO;
#ARTIST:U1 vs U1 overground;
#TITLETRANSLIT:Watashi wo disco ni tsuretette TOKYO;
#BANNER:Watashi wo disco ni tsuretette TOKYO.png;
#BACKGROUND:Watashi wo disco ni tsuretette TOKYO-bg.png;
#CDTITLE:./CDTitles/RB VOLZZA.png;
#MUSIC:Watashi wo disco ni tsuretette TOKYO.ogg;
#SAMPLESTART:77.738;
#SAMPLELENGTH:15;
#BPMS:0=142;
#NOTES:
     dance-single:
     :
     Beginner:
     3:
     :
0000
0000
0000
0000
,
0000
0000
0000
0000
,
0000
0000
0000
0000
,
0100
0000
0100
0000
,
0110
0000
0000
0000
,
0001
0000
0100
0000
,
0001
0000
1000
0000
,
0010
0000
1000
0000
,
0100
0000
0010
0000
,
0001
0000
0100
0000
,
0001
0000
0010
0000
,
0200
0000
0300
0000
,
1000
0000
0001
0000
,
0100
0000
0000
0000
,
0010
0000
0100
0000
,
0010
0000
0000
0000
,
1000
0000
1000
0000
,
0001
0000
0001
0000
,
0010
0000
0010
0000
,
0100
0000
0100
0000
,
0110
0000
0000
0000
,
1001
0000
0000
0000
,
0001
0000
0100
0000
,
0001
0000
1000
0000
,
0010
0000
0100
0000
,
0001
0000
0000
0000
,
1000
0000
0100
0000
,
0010
0000
0001
0000
,
1000
0000
0010
0000
,
0100
0000
0010
0000
,
1000
1000
1000
0000
,
0100
0100
0100
0000
,
0010
0010
0010
0000
,
0001
0000
1000
0000
,
0010
0000
0010
0000
,
1000
0000
0001
0000
,
0100
0000
0001
0000
,
0010
0000
0000
0000
,
0001
0000
0100
0000
,
0001
0000
1000
0000
,
0100
0000
1000
0000
,
0010
0000
0100
0000
,
0001
0001
0000
0000
,
1000
1000
0000
0000
,
0010
0010
0000
0000
,
0200
0000
0000
0300
,
0010
0000
1000
0000
,
0001
0000
0100
0000
,
0001
0000
0010
0000
,
0100
0000
1000
0000
,
0010
0000
0010
0000
,
0100
0000
0100
0000
,
0001
0000
1000
0000
,
0001
0000
0000
0000
,
0100
0000
0000
0000
,
0100
0000
0000
0000
,
0010
0000
0010
0000
,
1000
0000
1000
0000
,
0001
0000
0001
0000
,
0001
0000
0000
0000
,
0100
0000
0010
0000
,
0100
0000
0001
0000
,
1000
0000
0100
0000
,
1000
0000
0001
0000
,
0100
0000
0010
0000
,
0100
0000
0001
0000
,
0010
0000
0001
0000
,
0100
0000
0010
0000
,
1000
0000
0000
0000
,
0000
0000
0000
0000
;
#NOTES:
     dance-single:
     :
     Easy:
     9:
     :
0000
0000
0000
0000
,
0000
0000
0000
0000
,
0000
0000
0000
0000
,
1000
1000
0010
0100
,
0110
0000
0000
0000
,
0001
0100
0010
0010
,
1000
0100
1000
0000
0001
0100
0001
0000
,
0100
0010
0100
0100
,
0001
0000
0010
0000
0100
1000
0100
0000
,
1000
0010
0100
0100
,
0001
0010
0001
0000
1000
0010
1000
0000
,
0200
0000
0320
0000
,
0031
1000
1001
0000
,
0010
0010
0100
0110
,
0001
1000
0100
0100
,
0010
0010
0001
0100
,
0010
0000
0010
0000
0000
1000
0001
0000
,
0010
0000
0010
0000
0000
0001
1000
0000
,
0010
0000
0010
0000
0000
1000
0100
0000
,
0010
0000
0010
0000
0000
0001
0100
0000
,
0110
0110
1001
0000
,
1001
1001
0110
0000
,
1000
0100
0010
0100
,
1000
0001
1000
0000
0010
0000
0010
0000
,
0100
0010
0100
0000
0010
1000
0010
0000
,
1000
1000
0200
0000
,
1300
1000
0001
0001
,
0100
0100
0010
0010
,
1000
0100
1000
0000
0001
0100
0001
0000
,
1000
0100
0010
0001
,
0100
0100
0010
0000
,
1000
1000
0100
0000
,
0010
0010
0001
1000
,
0010
0100
0010
0000
0100
0010
0100
0000
,
0010
1000
1001
0000
,
0010
0010
0110
1001
,
0001
0100
0010
0010
,
0100
0100
0001
1001
,
1000
0010
0100
0001
,
0010
0001
1000
0010
,
0100
0010
1000
0100
,
0010
0001
1000
0001
,
0100
0100
0100
0100
0000
0000
0010
0000
,
1000
1000
1000
1000
0000
0000
0100
0000
,
0010
0000
0010
0000
0001
1000
0001
1000
,
0020
0000
0000
0030
,
1000
0001
0100
0100
,
0001
0010
0001
0000
1000
0000
1001
0000
,
1000
0010
1000
0000
0001
0010
0001
0000
,
1000
0100
0020
0000
,
0031
0100
0001
0100
,
0010
1000
0010
1000
,
0002
0000
0203
0000
,
0320
0000
0000
0030
,
0001
0000
0001
0000
1000
0010
1000
0000
,
0001
0000
0001
0000
0100
0010
0100
0000
,
0001
1001
1000
1001
,
0110
0110
1001
1001
,
0100
0010
0100
0010
0100
0010
0100
0010
,
0100
0000
0000
0000
,
1000
0000
0010
0000
0100
0001
0100
0000
,
0001
1000
0001
0000
0010
0100
0010
0000
,
0200
2300
3002
0023
,
0230
0320
0032
2003
,
3010
0110
1000
1001
,
0100
0101
0010
0110
,
0101
1100
1010
0011
,
0110
0000
1010
0000
0010
0100
0010
0000
,
1001
0000
0000
0000
,
0000
0000
0000
0000
;
#NOTES:
     dance-single:
     :
     Medium:
     11:
     :
0000
0000
0000
0000
,
0000
0000
0000
0000
,
0000
0000
0000
0000
,
1000
0000
0000
0000
1000
0000
0000
1000
0000
0000
0001
0000
0010
0000
0100
0000
,
1000
0000
0000
0000
0010
0000
0000
0000
0100
0000
0000
0100
0000
0000
0000
0000
,
0001
0010
0001
0100
0010
0000
0010
0000
,
1000
0010
1000
0001
1000
0100
0010
0000
,
0002
0003
2000
3000
0001
0100
0010
1000
,
0001
0001
0100
0100
0001
1000
0010
0000
,
0100
0010
0100
0001
1000
0100
1000
0100
,
0010
0001
0010
0100
0010
0001
1000
0010
,
0200
0000
0302
0000
2003
0000
3010
0100
,
0001
0001
1000
1000
1001
0000
0000
0000
,
0010
0010
0100
0110
,
1000
0100
1000
0100
0010
0000
0001
0000
,
1000
0010
0100
0000
0001
0010
0100
0000
,
1000
0010
1000
0100
0000
0000
0011
0000
,
0010
0001
0010
0100
0000
0000
1010
0000
,
0010
0100
0001
0100
0000
0000
1001
0000
,
1000
0010
0100
0010
0000
0000
0110
0000
,
0001
0010
0100
1000
0000
0000
0110
0000
,
1000
0010
0100
0001
0000
0000
1001
0000
,
1000
0000
1000
0000
0100
0010
0100
0000
,
1000
0010
1000
0000
0001
0010
0001
0000
,
1000
0100
1000
0000
0010
0100
0010
0000
,
1000
1000
1000
1000
0200
0000
0000
0000
,
0310
0000
0010
0000
0001
1000
0001
1000
,
0100
0000
0100
0000
0010
0001
0010
0001
,
0100
0010
1000
0001
,
1000
0100
0010
0001
1000
0010
0100
0001
,
1000
0000
1000
0000
1000
0100
0001
0100
,
0010
0000
0010
0000
0001
0100
1000
0100
,
0010
0010
0010
0010
0000
1000
0100
0010
,
0001
0100
0010
1000
0001
0100
0010
1000
,
0001
0000
0010
0100
0000
0000
0010
0000
0001
0000
0100
0000
0010
0000
0000
0000
,
1000
0100
0010
0100
1000
0001
0100
0000
,
0001
0000
0100
0010
0000
0100
0010
0000
1000
0000
0100
0000
1000
0000
0000
0000
,
0010
0010
0100
0110
,
0001
0000
0010
0000
0000
0001
0000
0000
0100
0000
0000
0010
0000
0000
1000
0000
,
0100
0000
1000
0000
0000
0100
0000
0000
0010
0000
0000
0001
0000
0000
0100
0000
,
0010
0000
1000
0000
0000
0010
0000
0000
0100
0000
0000
0001
0000
0000
1000
0000
,
0100
0000
0010
0000
0000
0100
0000
0000
1000
0000
0000
0001
0000
0000
0010
0000
,
0001
0001
0001
0001
0000
0100
0010
0000
,
1000
1000
1000
1000
0000
0100
0010
0000
,
0001
0100
0001
0100
0010
1000
0100
0010
,
0002
0000
0000
0003
,
0100
0000
0100
0000
0010
1000
0100
0010
,
0001
0100
1000
0000
0100
0001
0010
0000
,
0001
0000
0001
0000
0100
0001
0010
0100
,
1000
0000
0020
0000
0130
0001
0100
0000
,
0001
0000
0001
0000
0010
0001
0010
0001
,
1000
0100
0001
0000
0001
0100
1000
0000
,
0001
0100
0010
1000
0001
0100
0010
1000
,
0200
0000
0000
0300
,
1000
1000
0010
1000
0100
0010
0100
0000
,
0010
0010
0001
0010
0001
0100
0010
0000
,
1000
1000
0100
0000
0001
0001
0100
0000
,
0010
0010
0010
0010
0100
0100
0100
0100
,
0001
1000
0001
1000
0001
1000
0001
1000
,
0001
0000
0000
0000
,
1000
1000
0100
0010
0001
0100
0001
0010
,
0001
0100
1000
0100
0001
1000
0010
0000
,
0200
0320
2030
3002
,
0013
0100
1000
0001
0010
0100
1000
0000
,
0001
0010
0001
1000
0001
0100
0010
0000
,
1000
0000
0000
0001
0100
0000
0000
0010
1000
0000
1000
0000
0001
0000
0000
0000
,
1000
0100
0010
0001
1000
0100
0010
0001
,
0100
0000
0000
0100
0000
0000
0010
0000
0000
0010
0000
0000
1000
0000
0100
0000
1000
0000
0100
0000
1000
0000
0100
0000
,
1000
0000
0000
0000
,
0000
0000
0000
0000
;
#NOTES:
     dance-single:
     :
     Hard:
     14:
     :
0000
0000
0000
0000
,
0000
0000
0000
0000
,
0000
0000
0000
0000
,
0001
0000
0000
0000
0001
0000
0000
0001
0000
0000
1000
0000
0100
0000
0010
0000
,
0110
0000
0000
0000
0011
0000
0000
0000
0100
0000
0000
0010
0000
0000
0000
0000
,
1000
0000
0100
0000
1000
0000
0001
0000
0010
0000
0001
0010
0001
0000
0100
0000
,
0001
0000
1000
0010
1000
0000
0010
1000
0010
0000
0100
0010
0100
0000
0001
0000
,
2000
3100
0020
0130
1000
0010
0100
0001
,
1000
1000
0010
0010
0100
0001
0100
0010
,
1000
0000
0100
0000
1000
0000
0001
0000
0010
0000
0001
0010
0001
0000
0100
0000
,
0010
0000
1000
0010
1000
0000
0010
0100
0010
0000
0100
0001
0100
0000
0001
0000
,
2000
3100
0020
0130
0002
0103
1000
0010
,
1000
0000
0000
1000
0000
0000
0100
0000
0000
0100
0000
0000
0010
0000
0001
0000
0010
0000
0100
0000
1000
0000
0100
0000
,
1000
1000
0001
1001
,
0001
0100
0010
0100
0001
0100
1000
0200
,
0000
0301
1000
0200
0000
0310
0100
0010
,
0001
0000
0100
0000
0010
0100
0010
0000
0000
0000
1000
0000
1010
0000
0001
0000
,
1000
0000
0100
0000
0010
0100
0010
0000
0000
0000
0001
0000
0101
0000
1000
0000
,
0010
0000
0100
0000
0001
0100
0001
0000
0000
0000
0010
0000
0110
0000
1000
0000
,
0001
0000
0100
0000
0010
0100
0010
0000
0000
0000
1000
0000
1100
0000
0001
0000
,
0010
0100
0010
0000
0100
1000
0100
0000
1000
0000
0010
0000
0110
0000
0001
0000
,
0010
0100
0010
0000
0001
0010
0001
0000
0100
0000
0010
0000
0110
0000
0001
0000
,
1000
0010
1000
0010
0100
0001
0010
0001
,
0100
0000
0010
0000
1000
0000
0100
0000
0010
0000
0100
0010
0100
0000
1000
0000
,
0001
0100
0001
0100
0010
1000
0100
0001
,
0100
0000
0000
0000
0000
0000
1000
0000
0000
0000
0000
0000
0001
0000
0000
0010
0000
0000
0001
0000
0000
0010
0000
0000
0001
0000
0000
0000
0010
0000
0000
0000
0100
0000
0000
0000
1000
0000
0000
0000
0010
0000
0000
0000
0100
0000
0000
0000
,
0001
0100
0001
0100
0010
1000
0010
1000
,
0001
0100
0010
1000
0001
0010
0100
1000
,
0001
0001
1000
1000
0001
0010
1000
0010
,
0001
0100
1000
0001
0010
1000
0100
0010
,
0001
0000
0000
0000
0001
0000
0000
0001
0000
0000
1000
0000
0100
0000
0010
0000
,
0100
0000
0000
0000
0100
0000
0000
0100
0000
0000
0010
0000
0001
0000
1000
0000
,
0010
1000
0010
1000
0010
1000
0000
0100
0000
0000
0010
0000
0001
0000
0100
0000
,
0001
0010
0100
1000
0001
0010
0100
1000
,
0001
0000
0100
0010
0000
0000
0100
0001
0100
0000
0001
0000
1000
0000
0001
0000
,
0010
0001
0010
0000
0001
0000
1000
0000
0010
1000
0010
0000
0100
0010
0100
0010
,
0100
0000
0001
0100
0000
1000
0100
0000
0001
0000
0010
0000
0100
0000
1000
0000
,
0001
0001
1000
1001
,
0001
0000
0100
0000
0001
0100
0000
0010
0100
0000
0010
1000
0000
0100
0010
0000
,
0001
0000
1000
0000
0100
0010
0000
0100
1000
0000
0010
0100
0000
0001
0100
0000
,
0010
0000
1000
0000
0001
0100
0000
1000
0100
0000
0010
0100
0000
0001
0010
0000
,
0100
0000
1000
0000
0001
0010
0000
1000
0010
0000
0100
0010
0000
0001
0100
0000
,
0010
0010
0010
0010
0000
1010
1010
0000
,
0100
0100
0100
0100
0000
0110
0110
0000
,
0001
0100
1000
0100
0001
0010
1000
0010
,
2002
0000
0000
3003
,
1000
0000
0010
0000
1000
0000
0010
0000
0100
0000
0001
0000
0010
0000
0100
1000
,
0000
0010
0000
0100
0000
0001
0000
0010
0100
0000
0100
0010
0100
0000
1000
0000
,
0001
0001
1000
1000
0001
0100
1000
0100
,
0001
0000
1000
0000
0020
0000
0000
0000
0130
0001
0100
0001
0100
0000
0001
0000
,
1000
0100
1000
0100
0010
0001
0010
0001
,
1000
0010
0000
0010
0100
0010
0000
0010
1000
0001
0000
0001
0010
0100
0000
0100
,
0010
0001
1000
0001
0100
0010
0100
0001
,
2002
0000
0000
3003
,
0010
0000
0010
0000
1000
0000
0010
0000
0100
0000
0001
0100
0001
0000
1000
0000
,
0100
0000
0100
0000
0010
0000
0100
0000
1000
0000
0010
0100
0010
0000
1000
0000
,
0001
0001
0100
0010
1000
1000
0100
0010
,
0011
0001
1001
1000
1010
0010
0110
0100
,
0010
0100
0010
0100
0010
0100
0010
0100
0010
0100
0010
0100
0010
0100
0010
0100
,
0010
0000
0000
0000
,
0001
0000
0001
0000
0010
0000
0100
0000
1000
0000
0010
1000
0010
0000
1000
0000
,
0001
0010
0000
0010
0000
0010
0000
0001
1000
0000
0010
0000
0100
0000
0001
0000
,
2000
3100
0020
0130
0002
1003
0020
0031
,
0200
1300
0002
0013
2000
3100
0020
0031
,
1000
0000
0010
0100
0010
0000
0100
0001
0100
0000
0001
0010
0001
0000
0010
0100
,
0020
0000
0030
0001
0200
0000
0300
0010
1000
0000
0100
0000
2000
0000
3001
0000
,
0010
0200
0301
0200
1300
0020
0031
2000
,
3100
0000
0000
0020
0000
0000
1030
0000
0000
0002
0000
0000
0013
0000
0100
0000
0010
0000
0001
0000
0100
0000
0010
0000
,
0110
0000
0000
0000
,
0000
0000
0000
0000
;
#NOTES:
     dance-double:
     :
     Easy:
     9:
     :
00000000
00000000
00000000
00000000
,
00000000
00000000
00000000
00000000
,
00000000
00000000
00000000
00000000
,
00000001
00000001
00001000
00000100
,
00001100
00000000
00000000
00000000
,
00010000
00000000
00001000
00000000
00100000
00001000
00100000
00000000
,
00010000
01000000
00010000
00000000
10000000
01000000
10000000
00000000
,
00010000
00000000
00100000
00000000
00001000
00010000
00001000
00000000
,
00010000
00000000
00000010
00000000
00001000
00000100
00001000
00000000
,
00000001
00000000
00000010
00000000
00001000
00000100
00001000
00000000
,
00000100
00010000
00000100
00000000
00010000
00001000
00010000
00000000
,
00002000
00000000
00203000
00000000
,
00310000
10000000
10010000
00000000
,
00010000
00100000
00001000
00011000
,
00010000
00000000
00000100
00000000
00001000
00000010
00001000
00000000
,
00000001
00000010
00000001
00000000
00000100
00000000
00001000
00000000
,
00010000
00000000
00010000
00000000
00000000
00001000
00010000
00000000
,
00100000
00000000
00100000
00000000
00000000
10000000
01000000
00000000
,
00100000
00010000
00100000
00001000
00000000
00010000
00001000
00000000
,
00010000
00000100
00001000
00000100
00000000
00001000
00000010
00000000
,
00000110
00000110
00001001
00000000
,
00011000
00011000
01100000
00000000
,
10000000
01000000
00100000
00010000
,
00100000
00000000
00001000
00000000
00010000
00001000
00010000
00000000
,
00000010
00001000
00000010
00000000
00000100
00000001
00000010
00000000
,
00000001
00000100
00002000
00000000
,
00013000
00010000
01000000
01000000
,
10000000
10000000
00100000
00100000
,
10000000
01000000
00010000
00000000
00001000
00000100
00000001
00000000
,
00001000
00000010
00010000
00001000
,
01000000
01000000
00010000
10000000
,
01000000
01000000
00100000
00010000
,
01000000
00001000
01000000
00000000
00001000
00000000
00010000
00000000
,
00000010
00001000
00000010
00000000
00000100
00000010
00000100
00000000
,
00000001
00000000
00001000
00000000
00000100
00010000
00001000
00000000
,
00010000
00001000
00100000
00000000
00010000
10000000
01000000
00000000
,
00100000
01000000
10000000
00010000
,
00100000
00001000
00010000
00011000
,
00001000
00000100
00000010
00001000
,
00000001
00001000
00000010
00010000
,
00001000
00010000
01000000
00100000
,
00010000
10000000
00100000
01000000
,
00010000
00010000
00010000
00010000
00000000
00000000
00100000
00000000
,
00001000
00001000
00001000
00001000
00000000
00000000
00010000
00000000
,
00000100
00000000
00000100
00000000
00001000
00000010
00001000
00000010
,
00000200
00000000
00000000
00000300
,
00001000
00000000
00000001
00000000
00000100
00000010
00000100
00000000
,
00000010
00000000
00001000
00000000
00000100
00010000
00000100
00000000
,
00010000
00001000
01000000
00000000
00010000
10000000
01000000
00000000
,
00010000
00001000
00020000
00000000
,
00031000
00000100
00000010
00000100
,
00001000
00000001
00000010
00000001
,
00000100
00001000
00010000
00100000
,
20000000
00000000
00000000
30000000
,
00010000
00000000
00010000
00000000
01000000
00010000
01000000
00000000
,
00001000
00000000
00001000
00000000
00010000
00001000
00010000
00000000
,
00000100
00001100
00001000
00011000
,
00110000
00011000
00001010
00000011
,
00001000
00000100
00001000
00000100
00001000
00000100
00001000
00000100
,
00001000
00000000
00000000
00000000
,
00000100
00000000
00010000
00000000
00001000
00010000
00001000
00000000
,
00010000
00100000
10000000
00000000
10000000
00100000
00010000
00000000
,
00002000
00003020
00000032
00000203
,
00002300
00023000
02030000
23000000
,
30010000
00100000
00010000
00000000
01000000
00001000
01000000
00000000
,
00001000
00000000
00010000
00000000
00000010
00010000
00000010
00000000
,
00000000
00001100
00000000
00000101
00000000
00001001
00000000
00001010
,
00000000
00011000
00000000
00100000
00010000
10000000
00100000
01000000
,
00010000
00000000
00000000
00000000
,
00000000
00000000
00000000
00000000
;
#NOTES:
     dance-double:
     :
     Medium:
     11:
     :
00000000
00000000
00000000
00000000
,
00000000
00000000
00000000
00000000
,
00000000
00000000
00000000
00000000
,
10000000
00000000
00000000
00000000
10000000
00000000
00000000
10000000
00000000
00000000
00010000
00000000
00100000
00000000
00001000
00000000
,
00010000
00000000
00000000
00000000
00000100
00000000
00000000
00000000
00001000
00000000
00000000
00001000
00000000
00000000
00000000
00000000
,
00000001
00000010
00000001
00000100
00000010
00000000
00000010
00000000
,
00001000
00000100
00001000
00000000
00000100
00010000
00001000
00000000
,
00200000
00300000
00020000
00030000
01000000
00100000
10000000
01000000
,
00100000
00100000
00010000
00010000
00100000
00001000
00010000
00000000
,
00001000
00010000
00000100
00001000
00000100
00000010
00000001
00001000
,
00000010
00000100
00000010
00001000
00000100
00010000
00001000
00010000
,
02000000
00000000
23000000
00000000
30200000
00000000
10300000
00010000
,
00100000
00100000
00001000
00001000
00011000
00000000
00000000
00000000
,
00010000
00010000
00000010
00001010
,
00000001
00000100
00000001
00000100
00001000
00000000
00010000
00000000
,
00001000
00100000
00010000
00000000
10000000
01000000
00100000
00000000
,
00010000
00100000
00001000
00010000
00000000
00000000
00011000
00000000
,
00010000
00000010
00001000
00000001
00000000
00000000
00000101
00000000
,
00001000
00000100
00010000
00001000
00000000
00000000
00011000
00000000
,
00001000
00100000
00010000
10000000
00000000
00000000
11000000
00000000
,
00100000
10000000
01000000
00010000
00000000
00000000
00011000
00000000
,
00010000
00001000
00000100
00000001
00000000
00000000
00000011
00000000
,
00001000
00000000
00001000
00000000
00000010
00000100
00000010
00000000
,
00001000
00000100
00001000
00000000
00000010
00010000
00000010
00000000
,
00010000
00001000
00010000
00000000
00001000
01000000
00001000
00000000
,
00100000
00100000
00100000
00100000
00020000
00000000
00000000
00000000
,
10030000
00000000
10000000
00000000
01000000
00100000
01000000
00100000
,
00010000
00000000
00010000
00000000
01000000
00001000
01000000
00001000
,
00010000
00000100
00001000
00000010
,
00000100
00000001
00000010
00001000
00010000
01000000
10000000
00100000
,
01000000
00000000
01000000
00000000
00010000
10000000
01000000
00010000
,
00001000
00000000
00001000
00000000
00010000
00001000
00000100
00000001
,
00000010
00000010
00000010
00000010
00000000
00000001
00000100
00000010
,
00001000
00000100
00010000
00001000
00100000
00010000
01000000
00100000
,
10000000
00000000
00010000
10000000
00000000
00000000
00010000
00000000
00100000
00000000
00001000
00000000
00010000
00000000
00000000
00000000
,
00001000
00000100
00000001
00000100
00001000
00010000
00001000
00000000
,
00100000
00000000
00010000
00100000
00000000
00010000
10000000
00000000
01000000
00000000
00100000
00000000
01000000
00000000
00000000
00000000
,
00100000
00100000
00010000
00011000
,
00001000
00000000
00010000
00000000
00000000
00001000
00000000
00000000
00000100
00000000
00000000
00000010
00000000
00000000
00001000
00000000
,
00000100
00000000
00001000
00000000
00000000
00000001
00000000
00000000
00000010
00000000
00000000
00000100
00000000
00000000
00001000
00000000
,
00000100
00000000
00010000
00000000
00000000
00001000
00000000
00000000
00010000
00000000
00000000
00100000
00000000
00000000
10000000
00000000
,
00010000
00000000
01000000
00000000
00000000
00010000
00000000
00000000
00100000
00000000
00000000
00001000
00000000
00000000
00010000
00000000
,
00001000
00001000
00001000
00001000
00000000
00010000
00000010
00000000
,
00001000
00001000
00001000
00001000
00000000
00000100
00000010
00000000
,
00000001
00000100
00000001
00000100
00000010
00001000
00000100
00010000
,
00002000
00000000
00000000
00003000
,
00010000
00000000
00010000
00000000
00001000
00010000
00100000
01000000
,
00010000
10000000
01000000
00000000
00100000
00010000
01000000
00000000
,
00001000
00000000
00001000
00000000
00010000
00001000
00000010
00000100
,
00001000
00000000
00000002
00000000
00000103
00000010
00000100
00000000
,
00000010
00000000
00000010
00000000
00001000
00000100
00001000
00000100
,
00001000
00010000
00100000
00000000
10000000
01000000
00010000
00000000
,
00001000
00010000
00000010
00001000
00000001
00000010
00000100
00001000
,
00020000
00000000
00000000
00030000
,
00001000
00001000
00100000
00010000
01000000
00100000
01000000
00000000
,
00010000
00010000
10000000
01000000
00100000
00010000
00100000
00000000
,
00001000
00001000
00010000
00000000
00010000
00010000
00001000
00000000
,
00000100
00000100
00000100
00000100
00000010
00000010
00000010
00000010
,
00001000
00000001
00001000
00000001
00001000
00000100
00010000
00001000
,
00010000
00000000
00000000
00000000
,
00001000
00001000
00100000
00010000
10000000
01000000
10000000
00100000
,
10000000
01000000
00010000
00001000
00000100
00000001
00000100
00000000
,
00000020
00002030
00003200
00020300
,
00031000
00010000
01000000
00100000
00010000
10000000
00100000
00000000
,
01000000
00010000
01000000
00001000
00010000
00000100
00010000
00000000
,
00000010
00000000
00000000
00001000
00000100
00000000
00000000
00000010
00000001
00000000
00000001
00000000
00000100
00000000
00000000
00000000
,
00000010
00000100
00001000
00010000
00100000
10000000
00010000
01000000
,
00001000
00000000
00000000
00001000
00000000
00000000
00010000
00000000
00000000
00010000
00000000
00000000
00000100
00000000
00001000
00000000
00000100
00000000
00001000
00000000
00000100
00000000
00001000
00000000
,
00000100
00000000
00000000
00000000
,
00000000
00000000
00000000
00000000
;
#NOTES:
     dance-double:
     :
     Hard:
     14:
     :
00000000
00000000
00000000
00000000
,
00000000
00000000
00000000
00000000
,
00000000
00000000
00000000
00000000
,
00000001
00000000
00000000
00000000
00000001
00000000
00000000
00000001
00000000
00000000
00001000
00000000
00000100
00000000
00010000
00000000
,
00011000
00000000
00000000
00000000
01010000
00000000
00000000
00000000
00100000
00000000
00000000
10000000
00000000
00000000
00000000
00000000
,
01000000
00100000
01000000
10000000
00010000
00100000
00001000
00010000
,
00000010
00001000
00000010
00000100
00000001
00000100
00001000
00010000
,
00002000
00103000
00020000
10030000
01000000
00100000
00010000
01000000
,
00001000
00001000
00010000
00010000
00000010
00001000
00000100
00000010
,
00000001
00000100
00000001
00001000
00000100
00010000
00001000
01000000
,
00010000
00100000
00010000
01000000
00100000
10000000
01000000
00010000
,
00002000
00013000
00000020
00001030
00000200
00000310
00000001
00001000
,
00000100
00000000
00000000
00000100
00000000
00000000
00010000
00000000
00000000
00010000
00000000
00000000
00001000
00000000
00010000
00000000
00001000
00000000
01000000
00000000
00010000
00000000
01000000
00000000
,
00010000
00010000
10000000
10010000
,
00010000
10000000
01000000
10000000
00100000
00010000
00001000
00020000
,
00000000
00031000
00000010
00000002
00000000
00001003
00000100
00001000
,
00000010
00010000
00001000
00010000
00000000
00001000
00011000
00010000
,
01000000
00100000
00010000
10000000
00000000
00100000
01100000
01000000
,
00010000
00100000
00001000
00010000
00000000
00001000
00011000
00010000
,
00000010
00001000
00000100
00000010
00000000
00000001
00000101
00000100
,
00000010
00001000
00000010
00001000
00000100
00010000
00010100
00001000
,
00100000
00010000
00100000
00010000
01000000
00100000
01100000
01000000
,
00010000
10000000
00010000
10000000
01000000
00100000
01000000
00010000
,
01000000
10000000
00010000
00100000
00001000
00010000
00000100
00001000
,
00000001
00000010
00000001
00001000
00000010
00000100
00000010
00000001
,
00000010
00000000
00000000
00001000
00000000
00000000
00000100
00000000
00000000
00010000
00000000
00000000
00001000
00000000
00010000
00000000
00001000
00000000
01000000
00000000
00010000
00000000
10000000
00000000
,
00100000
10000000
00100000
10000000
00010000
01000000
00010000
01000000
,
00001000
00010000
00000010
00001000
00000001
00000010
00000100
00001000
,
00000100
00000100
00010000
00010000
00001000
00010000
00100000
10000000
,
01000000
00010000
00001000
00000100
00000001
00000100
00001000
00010000
,
00001000
00000000
00000000
00000000
00001000
00000000
00000000
00001000
00000000
00000000
00100000
00000000
00010000
00000000
01000000
00000000
,
00100000
00000000
00000000
00000000
00100000
00000000
00000000
00100000
00000000
00000000
10000000
00000000
01000000
00000000
00100000
00000000
,
00010000
00000000
00010000
00000000
00010000
00000000
00000000
10000000
00000000
00000000
01000000
00000000
00010000
00000000
00001000
00000000
,
00010000
00001000
00000100
00000010
00001000
00000100
00000010
00000001
,
00000100
00000000
00000010
00000100
00000000
00000000
00000001
00000000
00001000
00000000
00000010
00000000
00001000
00000000
00000100
00000000
,
00010000
00001000
00010000
00000000
00001000
00000000
00100000
00000000
00010000
00100000
00010000
00000000
01000000
00000000
01000000
00000000
,
00100000
00000000
10000000
00010000
00000000
01000000
00010000
00000000
10000000
00000000
01000000
00000000
00100000
00000000
00010000
00000000
,
00100000
00100000
00001000
00011000
,
00010000
00000000
00000100
00000000
00001000
00000100
00000000
00001000
00000001
00000000
00000100
00000001
00000000
00000100
00000010
00000000
,
00001000
00000000
00000001
00000000
00000100
00000010
00000000
00000100
00000001
00000000
00001000
00000010
00000000
00001000
00000100
00000000
,
00010000
00000000
00001000
00000000
00100000
00010000
00000000
00100000
01000000
00000000
10000000
00010000
00000000
10000000
00100000
00000000
,
01000000
00000000
00010000
00000000
00100000
00001000
00000000
00010000
00001000
00000000
00010000
00000010
00000000
00001000
00000010
00000000
,
00000100
00000100
00000100
00000100
00000000
00000101
00000101
00000000
,
00000010
00000010
00000010
00000010
00000000
00001010
00001010
00000000
,
00000001
00000010
00001000
00010000
00100000
10000000
01000000
00010000
,
00002000
00000000
00000000
00003000
,
00010000
00000000
00001000
00000000
00010000
00000000
00000100
00000000
00001000
00000000
00000010
00000000
00001000
00000000
00000001
00000100
,
00000000
00000001
00000000
00001000
00000000
00000010
00000000
00010000
00001000
00000000
00010000
00000000
00001000
00000000
00100000
00000000
,
00010000
00010000
10000000
10000000
01000000
00010000
00001000
00000010
,
00000001
00000000
00001000
00000000
00000020
00000000
00000000
00000000
00010030
00000100
00010000
00000100
00010000
00000000
00001000
00000000
,
01000000
00010000
01000000
00010000
10000000
01000000
10000000
01000000
,
00100000
00010000
00000000
00010000
00100000
00001000
00000000
00001000
00010000
00001000
00000000
00001000
00010000
00000100
00000000
00000100
,
00001000
00000001
00000100
00000010
00001000
00000100
00010000
00001000
,
00022000
00000000
00000000
00033000
,
00001000
00001000
00100000
00001000
00010000
01000000
10000000
00010000
,
10000000
10000000
01000000
10000000
00100000
00010000
00001000
00010000
,
00000010
00000010
00001000
00000100
00000010
00000010
00000001
00000100
,
00000010
00000010
00001000
00001000
00000100
00000100
00010000
00010000
,
00001000
00010000
00001000
00010000
00001000
00010000
00001000
00010000
00001000
00010000
00001000
00010000
00001000
00010000
00001000
00010000
,
00001000
00000000
00000000
00000000
,
00010000
00010000
00100000
01000000
00100000
10000000
01000000
00100000
,
00010000
01000000
00000000
01000000
00000000
01000000
00000000
00001000
00010000
00000000
00001000
00000000
00000100
00000000
00000010
00000000
,
00002000
00003001
00000020
00001030
00020000
00031000
00020000
01030000
,
20000000
30100000
00020000
00130000
02000000
03010000
00200000
00301000
,
00010000
00000100
00010000
00001000
00000010
00000100
00001000
00000010
,
00002000
00000000
00003000
00000001
00000200
00000000
00000300
00000010
00001000
00000000
00000100
00000000
00020000
00000000
00031000
00000000
,
01000000
00020000
10030000
02000000
03010000
00002000
00013000
00002000
,
00003100
00000000
00000000
00000002
00000000
00000000
00000013
00000000
00000000
00002000
00000000
00000000
00013000
00000000
00001000
00000000
00100000
00000000
00010000
00000000
10000000
00000000
00100000
00000000
,
01100000
00000000
00000000
00000000
,
00000000
00000000
00000000
00000000
;
