
//----- song ID: usot -----//
#TITLE:ウソツキ横丁は雨模様;
#ARTIST:夜叉姫神楽;
#TITLETRANSLIT:Usotsuki yokochou wa amemoyou;
#ARTISTTRANSLIT:Yasha-hime Kagura;
#BANNER:Usotsuki yokochou wa amemoyou.png;
#BACKGROUND:Usotsuki yokochou wa amemoyou-bg.png;
#CDTITLE:./CDTitles/DDR A20 PLUS.png;
#MUSIC:Usotsuki yokochou wa amemoyou.ogg;
#SAMPLESTART:71.054;
#SAMPLELENGTH:15;
#BPMS:0=110;
#NOTES:
     dance-single:
     :
     Beginner:
     2:
     :
0000
0000
0000
0000
,
0000
0000
0000
0000
,
0000
0000
0000
0000
,
0000
0000
0000
0000
,
1000
0000
1000
0000
,
0100
0000
0100
0000
,
0010
0000
0010
0000
,
0100
0000
0100
0000
,
0002
0000
0003
0000
,
0020
0000
0030
0000
,
0200
0000
0300
0000
,
2000
0000
3000
0000
,
1000
0000
1000
0000
,
0100
0000
0000
0000
,
0010
0000
0010
0000
,
0001
0000
0000
0000
,
0001
0000
0100
0000
,
0001
0000
0100
0000
,
1000
0000
0010
0000
,
1000
0000
0000
0000
,
1000
0000
0100
0000
,
1000
0000
0100
0000
,
0001
0000
0010
0000
,
0001
0000
0000
0000
,
0100
0000
0010
0000
,
0001
0001
0001
0000
,
0100
0000
0010
0000
,
1000
0000
0000
0000
,
0100
0000
0010
0000
,
1000
1000
1000
0000
,
0100
0000
0010
0000
,
0001
0000
0000
0000
,
1001
0000
0000
0000
,
0001
0000
0100
0000
,
0100
0000
0010
0000
,
0010
0000
1000
0000
,
0000
0000
1000
0000
,
1000
0000
0100
0000
,
0100
0000
0010
0000
,
0010
0000
0001
0000
,
0000
0000
0010
0000
,
1000
0000
0100
0000
,
0100
0000
0010
0000
,
0001
0000
0100
0000
,
0100
0000
0001
0000
,
0010
0000
0100
0000
,
1000
0000
1000
0000
,
0010
0000
0100
0000
,
0001
0000
1001
0000
,
0000
0000
0010
0010
,
0010
0000
1001
0000
,
0000
0000
0100
0100
,
0100
0000
1000
0000
,
0010
0000
1000
0000
,
0010
0000
0001
0000
,
0010
0000
0001
0000
,
1000
0000
1001
0000
,
0000
0000
0000
0000
;
#NOTES:
     dance-single:
     :
     Easy:
     5:
     :
0000
0000
0000
0000
,
0000
0000
0000
0000
,
0000
0000
0000
0000
,
0000
0000
0000
0000
,
0001
0010
0001
0001
,
1000
0010
1000
1000
,
0001
0100
0001
0001
,
1000
0001
1001
0000
,
2000
0000
3001
0000
,
0002
0000
1003
0000
,
0200
0000
0310
0000
,
0020
0000
0130
0000
,
0001
0001
0001
0000
,
0100
0010
1000
0000
,
1000
1000
1000
0000
,
0100
0010
0001
0000
,
0001
1000
0001
0100
,
0010
1000
0010
0100
,
0001
0001
1000
1000
,
0100
0010
0100
0000
,
1000
1000
1000
0000
,
0001
0001
0001
0000
,
0100
0001
0010
0100
,
2000
0000
3000
0000
,
1000
0100
1000
1000
,
0010
0100
0010
0000
,
0001
0010
0001
0001
,
0100
0010
0100
0000
,
0001
0100
1000
0000
,
1000
0100
0001
0000
,
1000
0100
0001
0100
,
2000
0000
3000
0000
,
0000
0000
0001
0100
,
0001
0100
0010
1000
,
0010
1000
0100
0010
,
0100
0010
0001
1000
,
0001
0000
1000
0010
,
1000
0010
0100
0001
,
0100
0001
0010
0100
,
0010
0100
1000
0001
,
1000
0000
0001
0001
,
0100
0010
0100
0000
0010
1000
0010
0000
,
0010
0000
1000
1000
,
0100
0010
0100
0000
0010
0001
0010
0000
,
0010
0000
0001
0010
,
1000
0000
0010
0000
0001
1000
0001
0000
,
1000
0000
1000
0010
,
0001
0000
0010
0000
1000
0001
1000
0000
,
0001
0000
0000
0000
0001
1000
0001
0000
,
1000
0001
1000
0000
0001
0000
0010
0000
,
0100
0000
0000
0000
1000
0001
1000
0000
,
0001
1000
0001
0000
1000
0000
0010
0000
,
0100
0000
1000
0001
,
1000
0001
0100
0010
,
0100
0010
0100
0000
0001
0000
1000
0000
,
0001
1000
0010
0100
,
0110
0000
1001
0000
,
0000
0000
0000
0000
;
#NOTES:
     dance-single:
     :
     Medium:
     8:
     :
0000
0000
0000
0000
,
0000
0000
0000
0000
,
0000
0000
0000
0000
,
0000
0000
0000
0000
,
0001
0100
0001
1000
0100
1000
0010
0000
,
1000
0010
0100
0001
0010
0100
1000
0000
,
0001
0010
0001
1000
0100
0010
0100
0000
,
1000
0000
0000
0010
0000
0000
0100
0000
0000
0001
0000
0000
1000
0000
0000
0000
0000
1001
0000
0000
0000
0000
0000
0000
,
1000
0100
1000
0000
0001
0010
0001
0000
,
0100
0010
0100
0000
0001
1000
0001
0000
,
1000
0000
0100
0000
0001
0100
1000
0000
,
0001
0000
0100
0000
1000
0100
0001
0000
,
1000
0001
1000
0001
2000
0000
3000
0000
,
0010
0100
0220
0330
,
0002
0013
2000
3010
,
1000
0001
1000
0001
0100
0010
0000
0000
,
0100
0001
0100
0000
0001
0100
0001
0000
,
1000
0010
1000
0000
0010
1000
0010
0000
,
1000
0100
1000
0000
0100
1000
0100
0000
,
0010
0001
0010
0000
0001
0010
0001
0000
,
0001
0000
0010
0000
1000
0010
0001
0000
,
1000
0000
0010
0000
0001
0010
1000
0000
,
2000
3100
0002
0103
,
0010
0000
0000
0100
0000
0000
0010
0000
0000
0100
0000
0000
0010
0000
0000
0000
0000
0110
0000
0000
0000
0000
0000
0000
,
0002
0010
0100
0103
,
2000
0100
0001
3001
,
0020
0100
1000
0130
,
0200
0010
0001
0301
,
0001
0010
0100
0000
0010
0100
1000
0000
,
0001
0010
1000
0010
,
0001
1000
0100
0001
,
0200
0000
0000
0000
0000
0000
0000
0000
0000
0000
0000
0000
0300
0000
0000
0010
0000
0000
0000
0000
0010
0000
0000
0000
,
0000
0000
0000
0000
0001
0100
0001
0010
,
0100
0000
0000
0000
0000
0100
0000
0000
0000
0000
0000
0000
1000
0000
0000
0000
0000
1000
0000
0000
0000
1000
0000
0000
,
0010
0000
0000
0000
0000
0010
0000
0000
0000
0000
0000
0000
0000
0000
0000
0100
0000
0000
0001
0000
0000
0100
0000
0000
,
0001
0000
0000
0000
0000
0001
0000
0000
0000
0000
0000
0000
0010
0000
0000
0000
0000
0100
0000
0000
0000
0010
0000
0000
,
0220
0000
0330
0000
0000
1000
0001
0100
,
0010
0000
0000
0000
0000
0010
0000
0000
0000
0000
0000
0000
1000
0000
0000
0000
0000
0001
0000
0000
0000
1000
0000
0000
,
0010
0000
0000
0000
0000
0010
0000
0000
0000
0000
0000
0000
0000
0000
0000
0100
0000
0000
0001
0000
0000
1000
0000
0000
,
0100
0000
0000
0000
0000
0100
0000
0000
0000
0000
0000
0000
0010
0000
0000
0000
0000
0100
0000
0000
0000
0010
0000
0000
,
2002
0000
3003
0000
0010
0100
1000
0000
,
0010
0100
0001
0000
1000
0100
1000
0000
,
0100
0010
0001
0000
0100
0010
1000
0000
,
0100
0010
0001
0000
0100
0001
0100
0000
,
0001
1000
0010
0000
1000
0010
0100
0010
,
1000
0000
1000
0000
0001
0010
0100
0010
,
0001
0000
0001
0000
0001
1000
0001
0000
,
0100
0000
0000
0010
0000
0000
0100
0000
0000
0000
0000
0000
0010
0000
0000
0000
0000
0100
0000
0000
0000
0010
0000
0000
,
2002
0000
3003
0000
1000
0010
0100
0001
,
1000
0000
1000
0000
0100
0010
0001
0000
,
0100
0010
1000
0000
0001
0100
0010
1000
,
0001
0000
0000
0000
0000
0000
0001
0000
0000
0000
0000
0000
1000
0000
0000
0000
0000
0001
0000
0000
0000
1000
0000
0000
,
2002
0000
3003
0000
0001
1000
0100
0010
,
0001
0000
0001
0000
0100
0010
1000
0000
,
0100
0010
0001
0000
0100
0010
1000
0001
,
0100
0000
0100
0000
0010
1000
0100
0010
,
0001
0000
0000
0000
0000
0001
0000
0000
0000
0000
0000
0000
1000
0000
0000
0000
0000
1000
0000
0000
0000
0000
0000
0000
,
0000
0000
0000
0000
;
#NOTES:
     dance-single:
     :
     Hard:
     11:
     :
0000
0000
0000
0000
,
0000
0000
0000
0000
,
0000
0000
0000
0000
,
0000
0000
0000
0000
,
1000
0000
0000
0001
0000
0000
0100
0000
0000
0010
0000
0000
1000
0000
0000
0100
0000
0000
0010
0000
0001
0010
0000
0000
,
0001
0100
1000
0100
0001
1000
0100
0000
,
0001
0000
0000
1000
0000
0000
0100
0000
0000
0010
0000
0000
0001
0000
0000
0100
0000
0000
0010
0000
1000
0010
0000
0000
,
0100
0000
0001
0100
0000
0000
0001
0000
0100
0001
0000
0000
1001
0000
0000
0000
0000
1001
0000
0000
0000
0000
0000
0000
,
1000
0100
1000
0010
0100
0001
0010
0100
,
0010
0001
1000
0010
0100
0001
1000
1000
,
0001
0100
0010
1000
0100
1000
0001
0010
,
0100
1000
0010
0100
0001
1000
0001
0001
,
0100
0100
0010
0010
1000
0100
0001
0100
,
0010
0010
0001
0001
1000
0010
0100
1000
,
0100
0001
0100
0001
0010
0001
0010
0001
,
1000
0000
0100
1000
0000
0100
0000
0000
1000
0100
0000
0000
0010
0000
0000
0220
0000
0000
0000
0000
0000
0330
0000
0000
,
0001
0000
0010
0001
0000
0000
0010
0000
0001
0010
0000
0000
0001
0000
0010
0001
0000
0000
0100
0000
0000
0010
0000
0000
,
1000
0000
0100
1000
0000
0000
0100
0000
1000
0100
0000
0000
1000
0000
0100
1000
0000
0000
0010
0000
0000
0100
0000
0000
,
0001
0001
0010
0010
0100
0100
1000
1000
,
0001
0010
1000
0020
0032
2003
3020
0230
,
0301
0000
0100
0001
0000
0000
0100
0000
0001
0100
0000
0000
0001
0000
0100
0001
0000
0000
0010
0000
0000
0100
0000
0000
,
1000
0000
0100
1000
0000
0000
0100
0000
1000
0100
0000
0000
1000
0000
0100
1000
0000
0000
0001
0000
0000
1000
0000
0000
,
0010
0010
0100
0100
0001
0001
1000
1000
,
0001
0000
1000
0001
0000
0000
1000
0000
0001
1000
0000
0000
0001
0000
0000
0000
0000
1001
0000
0000
0000
0000
0000
0000
,
0002
0000
0103
0010
1000
0100
1000
0000
,
2000
0000
3100
0010
0001
1000
0001
0000
,
0020
0000
1030
0010
0001
1000
0001
0000
,
0200
0000
1300
0100
0001
1000
0001
0000
,
0020
0000
0130
1000
0010
0100
0001
0010
,
0002
0203
2300
3200
,
0302
0023
0230
2300
,
3010
0000
1000
0010
0000
0000
1000
0000
0010
1000
0000
0000
0000
0000
0000
0010
0000
0000
0000
0000
0020
0000
0000
0000
,
0000
0000
0030
0000
0100
0010
1000
0010
,
0100
0000
0000
0001
0000
0000
0010
0000
0001
0010
0000
0000
0001
0000
0000
0100
0000
0000
1000
0000
0000
0100
0000
0000
,
0001
0010
0100
0000
0100
0010
0001
0010
,
0100
0000
0000
1000
0000
0000
0010
0000
1000
0010
0000
0000
1000
0000
0000
0100
0000
0000
0001
0000
0000
0100
0000
0000
,
1000
0010
0100
0000
0010
0100
0001
0100
,
0010
0000
0000
1000
0000
0000
0100
0000
1000
0100
0000
0000
1000
0000
0000
0010
0000
0000
0001
0000
0000
0010
0000
0000
,
1000
0100
0010
0000
0010
0100
1000
0100
,
0010
0000
0000
0001
0000
0000
0100
0000
0001
0100
0000
0000
0001
0000
0000
0000
0000
1000
0000
0000
0000
0001
0000
0000
,
2002
0000
0000
0000
0000
0000
3003
0000
0000
0000
0000
0000
1000
0000
0000
0001
0000
0000
0100
0000
0010
0000
0000
1000
,
0000
0000
0010
0000
0000
0100
0000
0000
0001
1000
0000
0000
0001
0000
0000
0010
0000
0000
0001
0000
0000
0010
0000
0000
,
1000
0000
0000
0010
0000
0000
0001
0000
0000
0000
0000
0000
1000
0000
0000
0001
0000
0000
0100
0000
0010
0000
0000
1000
,
0000
0000
0001
0000
0000
0100
0000
0000
0001
0010
0000
0000
0001
0000
0000
0100
0000
0000
1000
0000
0000
0100
0000
0000
,
1000
0000
0000
0100
0000
0000
0001
0000
0000
0000
0000
0000
0000
0000
0000
1000
0000
0000
0000
0000
0100
0000
0000
0000
,
0000
0000
0000
0001
0000
0000
0000
0000
0100
0000
0000
0000
0010
0000
0000
1000
0000
0000
0001
0000
0000
0010
0000
0000
,
0100
0000
1000
0100
0000
1000
0100
0000
0000
0000
0000
0000
1000
0000
0000
0100
0000
0010
0000
0000
0001
0000
0000
0000
,
0001
0000
0000
0100
0000
0010
0000
0000
1000
0000
0000
0000
0010
0000
0000
0000
0000
0100
0000
0000
0000
0010
0000
0000
,
0220
0000
0000
0000
0000
0000
0330
0000
0000
0000
0000
0000
1000
0000
0010
1000
0000
0010
1000
0000
0010
1000
0000
0000
,
0100
0000
0000
0010
0000
0000
0001
0000
0000
0100
0000
0000
0001
0000
0010
0001
0000
0010
0001
0000
0010
0001
0000
0000
,
1000
0000
0000
0001
0000
0000
1000
0000
0000
0000
0000
0000
0010
0000
0100
0010
0000
0100
0010
0000
0100
0010
0000
0000
,
0100
0000
0000
0001
0000
0000
1000
0000
0000
0100
0000
0000
0010
0000
0000
0000
0000
0010
0000
0000
0000
0010
0000
0000
,
2002
0000
3003
0000
0001
0010
1000
0010
,
0001
0000
0000
1000
0000
0000
0100
0000
0010
0100
0000
0000
0001
0000
0000
0100
0000
0000
1000
0000
0000
0100
0000
0000
,
0001
0100
1000
0000
1000
0010
0001
0010
,
1000
0000
0000
0001
0000
0000
0100
0000
0010
0100
0000
0000
1000
0000
0000
0100
0000
0000
0001
0000
0000
0100
0000
0000
,
0001
0000
0000
0000
0000
1001
0000
0000
0000
0000
0000
0000
0100
0000
0000
0000
0000
1001
0000
0000
0000
0000
0000
0000
,
0000
0000
0000
0000
;
#NOTES:
     dance-double:
     :
     Easy:
     5:
     :
00000000
00000000
00000000
00000000
,
00000000
00000000
00000000
00000000
,
00000000
00000000
00000000
00000000
,
00000000
00000000
00000000
00000000
,
10000000
01000000
10000000
00100000
,
01000000
00010000
00100000
00100000
,
00001000
00010000
00000100
00001000
,
00000010
00000100
00000110
00000000
,
00000002
00000000
00000103
00000000
,
00000200
00000000
00001300
00000000
,
00002000
00000000
00013000
00000000
,
00020000
00000000
00130000
00000000
,
01000000
01000000
01000000
00000000
,
00010000
00001000
00010000
00000000
,
00000100
00000100
00000100
00000000
,
00001000
00010000
00001000
00000000
,
00000010
00000001
00000100
00000001
,
00000010
00000100
00001000
00000100
,
00010000
00010000
00001000
00001000
,
00100000
00010000
01000000
00000000
,
00100000
00100000
00100000
00000000
,
10000000
10000000
10000000
00000000
,
01000000
00100000
00010000
00100000
,
00002000
00000000
00003000
00000000
,
00010000
00000100
00001000
00001000
,
00000010
00000100
00000010
00000000
,
00000001
00000100
00000010
00000010
,
00001000
00000010
00001000
00000000
,
00000100
00010000
00001000
00000000
,
00001000
00100000
00010000
00000000
,
00010000
01000000
10000000
01000000
,
00020000
00000000
00030000
00000000
,
00000000
00000000
00001000
00000100
,
00000010
00000001
00001000
00000100
,
00000010
00000001
00000100
00001000
,
00000100
00001000
00010000
00001000
,
00010000
00000000
00010000
00100000
,
01000000
10000000
00010000
00100000
,
01000000
10000000
00100000
01000000
,
00001000
00100000
00001000
00010000
,
00001000
00000000
00000010
00000010
,
00001000
00000100
00001000
00000000
00000001
00000100
00000001
00000000
,
00000010
00000000
00000100
00000100
,
00001000
00000100
00001000
00000000
00000100
00010000
00000100
00000000
,
00010000
00000000
00001000
00100000
,
00010000
01000000
00001000
00100000
,
00010000
01000000
00100000
10000000
,
01000000
00100000
01000000
00000000
00100000
00010000
00100000
00000000
,
00001000
00000000
00000000
00000000
00000100
00001000
00000100
00000000
,
00001000
00000100
00001000
00000000
00000010
00000000
00000001
00000000
,
00000100
00000000
00001000
00000000
00010000
00001000
00010000
00000000
,
00001000
00010000
00001000
00000000
00010000
00000000
00001000
00000000
,
00011000
00000000
00100000
01000000
,
10000000
01000000
00010000
01000000
,
00100000
00010000
00100000
00000000
00001000
00000000
00010000
00000000
,
00000010
00000000
00001000
00000000
00000100
00000010
00000100
00000000
,
00000010
00000000
00001001
00000000
,
00000000
00000000
00000000
00000000
;
#NOTES:
     dance-double:
     :
     Medium:
     9:
     :
00000000
00000000
00000000
00000000
,
00000000
00000000
00000000
00000000
,
00000000
00000000
00000000
00000000
,
00000000
00000000
00000000
00000000
,
00010000
00001000
00010000
00001000
01000000
00010000
00100000
00000000
,
01000000
10000000
01000000
00100000
00010000
01000000
00100000
00000000
,
01000000
00001000
00010000
00001000
00010000
00000010
00001000
00000000
,
00000001
00000000
00000000
00000100
00000000
00000000
00000010
00000000
00000000
00001000
00000000
00000000
00000001
00000000
00000000
00000000
00000000
00001001
00000000
00000000
00000000
00000000
00000000
00000000
,
00000100
00000001
00000100
00000000
00000010
00001000
00000010
00000000
,
00010000
00001000
00010000
00000000
00001000
00100000
00001000
00000000
,
01000000
00000000
00010000
00000000
10000000
01000000
00010000
00000000
,
01000000
00000000
00100000
00000000
00001000
00010000
00000010
00000000
,
00001000
00000001
00001000
00000001
00002000
00000000
00003000
00000000
,
00000001
00001000
00020000
00030000
,
00001000
00010000
10000000
00010000
,
10000000
00100000
10000000
00100000
01000000
00010000
00000000
00000000
,
00100000
00001000
00100000
00000000
00001000
01000000
00001000
00000000
,
00010000
00000100
00010000
00000000
00000010
00010000
00000010
00000000
,
00000100
00000001
00000100
00000000
00000010
00001000
00000010
00000000
,
00010000
00001000
01000000
00000000
00010000
01000000
00010000
00000000
,
10000000
00000000
00100000
00000000
00010000
00100000
10000000
00000000
,
01000000
00000000
00010000
00000000
00001000
00000010
00000001
00000000
,
00000002
00000013
00002000
00003010
,
00000010
00000000
00000000
00000100
00000000
00000000
00000010
00000000
00000000
00000100
00000000
00000000
00000010
00000000
00000000
00000000
00000000
00000110
00000000
00000000
00000000
00000000
00000000
00000000
,
00002000
00003010
00000100
00010000
,
00002000
01003000
00100000
00010000
,
20000000
31000000
00010000
00100000
,
00002000
00013000
00000010
00000100
,
00001000
00000010
00000100
00000000
00001000
00010000
00100000
00000000
,
01000000
00010000
00100000
00001000
,
00000010
00000100
00000001
00000100
,
00002000
00000000
00000000
00000000
00000000
00000000
00000000
00000000
00000000
00000000
00000000
00000000
00003000
00000000
00000000
00000010
00000000
00000000
00000000
00000000
00000010
00000000
00000000
00000000
,
00000000
00000000
00000000
00000000
00000100
00000001
00000100
00001000
,
00010000
00000000
00000000
00000000
00000000
00010000
00000000
00000000
00000000
00000000
00000000
00000000
00001000
00000000
00000000
00000000
00000000
00001000
00000000
00000000
00000000
00001000
00000000
00000000
,
01000000
00000000
00000000
00000000
00000000
01000000
00000000
00000000
00000000
00000000
00000000
00000000
00000000
00000000
00000000
00010000
00000000
00000000
01000000
00000000
00000000
10000000
00000000
00000000
,
01000000
00000000
00000000
00000000
00000000
01000000
00000000
00000000
00000000
00000000
00000000
00000000
00100000
00000000
00000000
00000000
00000000
01000000
00000000
00000000
00000000
00100000
00000000
00000000
,
02200000
00000000
03300000
00000000
00000000
00010000
00100000
00001000
,
00010000
00000000
00000000
00000000
00000000
00010000
00000000
00000000
00000000
00000000
00000000
00000000
00000100
00000000
00000000
00000000
00000000
00001000
00000000
00000000
00000000
00000001
00000000
00000000
,
00000100
00000000
00000000
00000000
00000000
00000100
00000000
00000000
00000000
00000000
00000000
00000000
00000000
00000000
00000000
00000001
00000000
00000000
00000010
00000000
00000000
00000100
00000000
00000000
,
00001000
00000000
00000000
00000000
00000000
00001000
00000000
00000000
00000000
00000000
00000000
00000000
00010000
00000000
00000000
00000000
00000000
00001000
00000000
00000000
00000000
00010000
00000000
00000000
,
00022000
00000000
00033000
00000000
01000000
00010000
00100000
00000000
,
01000000
10000000
00100000
00000000
01000000
00010000
01000000
00001000
,
00010000
00001000
00010000
00000000
00000010
00001000
00000100
00000000
,
00000010
00000001
00000100
00000000
00000010
00001000
00000010
00010000
,
00001000
00010000
00001000
00000000
00010000
00100000
10000000
00000000
,
10000000
01000000
00010000
00000000
00010000
00001000
01000000
00001000
,
00100000
00001000
00010000
00000000
00001000
00000010
00000001
00000000
,
00000001
00000000
00000000
00000100
00000000
00000000
00001000
00000000
00000000
00000000
00000000
00000000
00010000
00000000
00000000
00000000
00000000
00001000
00000000
00000000
00000000
00010000
00000000
00000000
,
00022000
00000000
00033000
00000000
00000010
00001000
00000001
00000100
,
00000010
00000000
00000010
00000000
00000100
00001000
00010000
00000000
,
00001000
00010000
00100000
00000000
10000000
00100000
01000000
00010000
,
10000000
00000000
00000000
00000000
00000000
00000000
10000000
00000000
00000000
00000000
00000000
00000000
00010000
00000000
00000000
00000000
00000000
10000000
00000000
00000000
00000000
00010000
00000000
00000000
,
20020000
00000000
30030000
00000000
00100000
01000000
00010000
00100000
,
00001000
00010000
00000100
00000000
00010000
00000100
00001000
00000000
,
00000001
00001000
00000010
00000000
00000100
00000010
00001000
00000100
,
00010000
00001000
00100000
00000000
00001000
00010000
00100000
00000000
,
10000000
00000000
00000000
00000000
00000000
10000000
00000000
00000000
00000000
00000000
00000000
00000000
00010000
00000000
00000000
00000000
00000000
00010000
00000000
00000000
00000000
00000000
00000000
00000000
,
00000000
00000000
00000000
00000000
;
#NOTES:
     dance-double:
     :
     Hard:
     11:
     :
00000000
00000000
00000000
00000000
,
00000000
00000000
00000000
00000000
,
00000000
00000000
00000000
00000000
,
00000000
00000000
00000000
00000000
,
00000001
00000000
00000000
00000010
00000000
00000000
00000001
00000000
00000000
00000010
00000000
00000000
00000001
00000000
00000000
00000100
00000000
00000000
00000010
00000000
00001000
00000010
00000000
00000000
,
00001000
00000100
00000010
00000100
00010000
00000100
00010000
00000000
,
00001000
00000000
00000000
01000000
00000000
00000000
00010000
00000000
00000000
00100000
00000000
00000000
00010000
00000000
00000000
01000000
00000000
00000000
00100000
00000000
10000000
00100000
00000000
00000000
,
10000000
00000000
00010000
10000000
00000000
00000000
00010000
00000000
10000000
00010000
00000000
00000000
10010000
00000000
00000000
00000000
00000000
10010000
00000000
00000000
00000000
00000000
00000000
00000000
,
10000000
00100000
10000000
00100000
01000000
00010000
00100000
01000000
,
00010000
00001000
00010000
00001000
00000100
00001000
00000100
00001000
,
00010000
00010000
00001000
00000010
00000001
00000001
00000010
00000100
,
00001000
00000010
00000100
00001000
00010000
00001000
00010000
00000000
,
00100000
00100000
00010000
00010000
00001000
00000000
00001000
00010000
,
02000000
00000000
23000000
00000000
30200000
00000000
00300000
00100000
,
01000000
00010000
00100000
00010000
00100000
00001000
00010000
00000010
,
00001000
00000000
00000010
00001000
00000000
00000010
00000000
00000000
00001000
00000010
00000000
00000000
00000100
00000000
00000000
00000220
00000000
00000000
00000000
00000000
00000000
00000330
00000000
00000000
,
00000001
00000000
00000100
00000001
00000000
00000000
00000100
00000000
00000001
00000100
00000000
00000000
00000010
00000000
00000000
00001000
00000000
00000000
00000100
00000000
00000000
00010000
00000000
00000000
,
00001000
00000000
00010000
00001000
00000000
00000000
00010000
00000000
00001000
00010000
00000000
00000000
00001000
00000000
00000000
01000000
00000000
00000000
00010000
00000000
00000000
00100000
00000000
00000000
,
01000000
01000000
10000000
10000000
00100000
00100000
01000000
01000000
,
00010000
00000100
00001000
00000200
00000302
00000023
00000230
00001300
,
00000001
00000000
00001000
00000001
00000000
00000000
00001000
00000000
00000001
00001000
00000000
00000000
00000001
00000000
00001000
00000001
00000000
00000000
00000010
00000000
00000000
00001000
00000000
00000000
,
00010000
00000000
00001000
00010000
00000000
00000000
00001000
00000000
00010000
00001000
00000000
00000000
00010000
00000000
00001000
00010000
00000000
00000000
00001000
00000000
00000000
01000000
00000000
00000000
,
00010000
00100000
00010000
00000010
00010000
00100000
00010000
01000000
,
00100000
00000000
01000000
00100000
00000000
00000000
01000000
00000000
00100000
01000000
00000000
00000000
00100000
00000000
00000000
00000000
00000000
01100000
00000000
00000000
00000000
00000000
00000000
00000000
,
20000000
00000000
31000000
00010000
01000000
00100000
01000000
00000000
,
00020000
00000000
00031000
00000010
00001000
00010000
00001000
00000000
,
00000200
00000000
00000301
00001000
00000010
00000001
00000010
00000000
,
00002000
00000000
00003010
00010000
00001000
01000000
00010000
00000000
,
00200000
00000000
10300000
00100000
01000000
00100000
00010000
00100000
,
00002000
00003020
00000032
00000203
,
00020300
02030000
03200000
20300000
,
30010000
00000000
10000000
00010000
00000000
00000000
10000000
00000000
00010000
10000000
00000000
00000000
00000000
00000000
00000000
00100000
00000000
00000000
00000000
00000000
00200000
00000000
00000000
00000000
,
00000000
00000000
00300000
00000000
10000000
01000000
10000000
01000000
,
00100000
00000000
00000000
00010000
00000000
00000000
00100000
00000000
00010000
00100000
00000000
00000000
00001000
00000000
00000000
00010000
00000000
00000000
00000100
00000000
00000000
00001000
00000000
00000000
,
00000001
00000010
00000001
00000000
00000001
00000100
00000001
00000100
,
00000010
00000000
00000000
00001000
00000000
00000000
00000010
00000000
00001000
00000010
00000000
00000000
00010000
00000000
00000000
00001000
00000000
00000000
01000000
00000000
00000000
00010000
00000000
00000000
,
10000000
00100000
10000000
00000000
10000000
00100000
00010000
00001000
,
00010000
00000000
00000000
01000000
00000000
00000000
00010000
00000000
00001000
00010000
00000000
00000000
00001000
00000000
00000000
00000010
00000000
00000000
00000001
00000000
00000000
00000010
00000000
00000000
,
00001000
00000010
00000001
00000000
00000001
00000100
00001000
00010000
,
00001000
00000000
00000000
00000010
00000000
00000000
00001000
00000000
00010000
00001000
00000000
00000000
00010000
00000000
00000000
00000000
00000000
00001000
00000000
00000000
00000000
00010000
00000000
00000000
,
00022000
00000000
00000000
00000000
00000000
00000000
00033000
00000000
00000000
00000000
00000000
00000000
00100000
00000000
00000000
00010000
00000000
00000000
01000000
00000000
00100000
00000000
00000000
10000000
,
00000000
00000000
00100000
00000000
00000000
01000000
00000000
00000000
00010000
00100000
00000000
00000000
00001000
00000000
00000000
00010000
00000000
00000000
00000100
00000000
00000000
00001000
00000000
00000000
,
00000100
00000000
00000000
00010000
00000000
00000000
00001000
00000000
00000000
00000000
00000000
00000000
00000100
00000000
00000000
00000001
00000000
00000000
00001000
00000000
00000010
00000000
00000000
00000100
,
00000000
00000000
00000001
00000000
00000000
00000010
00000000
00000000
00000001
00001000
00000000
00000000
00000100
00000000
00000000
00000010
00000000
00000000
00000100
00000000
00000000
00001000
00000000
00000000
,
00000100
00000000
00000000
00010000
00000000
00000000
00001000
00000000
00000000
00000000
00000000
00000000
00000000
00000000
00000000
00020000
00000000
00000000
00000000
00000000
01030000
00000000
00000000
00000000
,
00000000
00000000
00000000
00002000
00000000
00000000
00000000
00000000
00003100
00000000
00000000
00000000
00100000
00000000
00000000
00010000
00000000
00000000
10000000
00000000
00000000
01000000
00000000
00000000
,
00100000
00000000
00010000
00100000
00000000
00010000
00100000
00000000
00000000
00000000
00000000
00000000
00001000
00000000
00000000
01000000
00000000
00001000
00000000
00000000
00010000
00000000
00000000
00000000
,
00010000
00000000
00000000
00000100
00000000
00010000
00000000
00000000
00001000
00000000
00000000
00000000
00010000
00000000
00000000
00000000
00000000
00001000
00000000
00000000
00000000
00010000
00000000
00000000
,
00022000
00000000
00000000
00000000
00000000
00000000
00033000
00000000
00000000
00000000
00000000
00000000
00000010
00000000
00000001
00000010
00000000
00000001
00000010
00000000
00000001
00000010
00000000
00000000
,
00000001
00000000
00000000
00001000
00000000
00000000
00000100
00000000
00000000
00000000
00000000
00000000
00010000
00000000
00001000
00010000
00000000
00001000
00010000
00000000
00001000
00010000
00000000
00000000
,
00001000
00000000
00000000
01000000
00000000
00000000
00010000
00000000
00000000
00000000
00000000
00000000
10000000
00000000
01000000
10000000
00000000
01000000
10000000
00000000
01000000
10000000
00000000
00000000
,
00010000
00000000
00000000
01000000
00000000
00000000
00001000
00000000
00000000
00000000
00000000
00000000
00010000
00000000
00000000
00000000
00000000
00001000
00000000
00000000
00000000
00010000
00000000
00000000
,
00022000
00000000
00033000
00000000
00010000
00000100
00000010
00000001
,
00000100
00010000
00001000
00000010
00010000
00001000
01000000
00100000
,
00010000
00001000
01000000
00100000
00010000
00000010
00000100
00001000
,
01000000
00010000
00100000
00001000
01000000
00100000
00010000
00000010
,
00000100
00000000
00000000
00000000
00000000
00000110
00000000
00000000
00000000
00000000
00000000
00000000
00000001
00000000
00000000
00000000
00000000
00001001
00000000
00000000
00000000
00000000
00000000
00000000
,
00000000
00000000
00000000
00000000
;
