
//----- song ID: umey -----//
#TITLE:梅雪夜;
#ARTIST:Qrispy Joybox feat. mao;
#TITLETRANSLIT:Umeyukiyo;
#BANNER:Umeyukiyo.png;
#BACKGROUND:Umeyukiyo-bg.png;
#CDTITLE:./CDTitles/REFLEC BEAT colette -Winter-.png;
#MUSIC:Umeyukiyo.ogg;
#SAMPLESTART:46.708;
#SAMPLELENGTH:15;
#BPMS:0=167;
#NOTES:
     dance-single:
     :
     Beginner:
     3:
     :
0000
0000
0000
0000
,
0000
0000
0000
0000
,
0000
0000
0000
0000
,
0000
0000
0000
0000
,
0000
0000
0000
0000
,
2002
0000
0000
0000
,
3003
0000
0000
0000
,
0010
0000
1000
0000
,
0100
0000
0010
0000
,
0001
0000
0100
0000
,
0001
0001
0001
0000
,
1000
0000
0100
0000
,
1000
1000
1000
0000
,
0001
0000
0010
0000
,
0001
0001
0001
0000
,
1000
0000
0010
0000
,
0100
0000
0001
0000
,
0001
0000
0100
0000
,
0010
0010
0010
0000
,
1000
0000
0100
0000
,
0010
0010
0010
0000
,
0001
0000
0010
0000
,
0100
0100
0100
0000
,
1000
0000
0010
0000
,
0001
0000
0100
0000
,
0020
0000
0000
0000
,
0030
0000
0000
0000
,
0200
0000
0000
0000
,
0300
0000
0000
0000
,
2000
0000
0000
0000
,
3000
0000
0000
0000
,
0001
0000
1000
0000
,
0001
0000
1000
0000
,
0001
0001
0001
0000
,
0010
0000
0100
0000
,
1000
1000
1000
0000
,
0200
0000
0300
0000
,
0010
0010
0010
0000
,
0100
0100
0100
0000
,
0001
0000
1000
0000
,
1001
0000
0000
0000
,
0010
0010
0010
0000
,
0001
0001
0001
0000
,
0100
0100
0100
0000
,
1000
1000
1000
0000
,
0010
0010
0010
0000
,
1000
1000
1000
0000
,
0001
0000
1000
0000
,
1001
0000
0000
0000
,
1000
1000
1000
0000
,
0100
0000
0010
0000
,
0001
0001
0001
0000
,
0020
0000
0030
0000
,
0100
0100
0100
0000
,
0010
0010
0010
0000
,
1000
0000
0001
0000
,
1001
0000
0000
0000
,
0100
0100
0100
0000
,
1000
1000
1000
0000
,
0010
0010
0010
0000
,
0001
0001
0001
0000
,
0100
0100
0100
0000
,
0001
0001
0001
0000
,
1000
0000
0001
0000
,
2002
0000
0000
0000
,
3003
0000
0000
0000
,
0000
0000
0000
0000
,
0010
0000
0100
0000
,
0010
0000
0000
0000
,
2002
0000
0000
0000
,
3003
0000
0000
0000
,
0100
0000
0010
0000
,
0100
0000
0010
0010
,
0000
0000
0000
0000
;
#NOTES:
     dance-single:
     :
     Easy:
     7:
     :
0000
0000
0000
0000
,
0000
0000
0000
0000
,
0000
0000
0000
0000
,
0000
0000
0000
0000
,
0000
0000
0000
0000
,
1001
0000
0000
0000
,
0001
0000
0100
0000
0010
1000
0010
0000
,
1000
1000
0100
0100
,
0010
0010
0001
0000
,
0001
0010
1000
0010
,
0001
1000
0001
0000
,
1000
0010
0001
0010
,
1000
0001
1000
0000
,
0001
0100
1000
0100
,
0001
1000
0001
0000
,
1001
0000
0110
0000
,
1100
0000
0011
0000
,
0010
0001
0100
0010
,
1000
0001
1000
0000
,
0010
1000
0100
0010
,
0001
1000
0001
0000
,
0100
0001
0010
0100
,
1000
0001
1000
0000
,
0110
0000
1001
0000
,
1010
0000
0101
0000
,
0002
0000
0103
0000
,
2000
0000
3010
0000
,
0020
0000
0130
0000
,
2000
0000
3001
0000
,
0022
0000
0033
0000
,
0220
0000
0330
0000
,
1000
1000
0001
0001
,
0010
0010
0010
0000
,
0001
0000
0100
0000
1000
0100
0001
0000
,
1000
0000
0110
0000
,
1000
0000
0100
0000
0001
0100
1000
0000
,
0001
0000
0110
0000
,
0010
0010
0010
0000
,
0100
0100
0100
0000
,
1000
0000
0001
0000
,
2002
0000
0000
3003
,
0001
0100
0001
0000
0100
0000
0000
0000
,
1000
0010
1000
0000
0010
0000
0000
0000
,
1000
0100
1000
0000
0100
0000
0000
0000
,
0001
0010
0001
0000
0010
0000
0000
0000
,
0001
0010
0100
0000
1000
0000
0000
0000
,
0001
0100
0010
0000
1000
0000
0000
0000
,
2000
0000
3010
0000
,
0002
0000
0103
0000
,
0001
0000
0010
0000
1000
0010
0001
0000
,
1000
0000
0110
0000
,
1000
0000
0010
0000
0001
0010
1000
0000
,
0001
0000
0110
0000
,
0100
0100
0100
0000
,
0010
0010
0010
0000
,
1000
0000
0001
0000
,
2002
0000
0000
3003
,
0001
0010
0100
1000
,
0220
0000
0330
0000
,
1000
0010
0100
0001
,
0220
0000
0330
0000
,
1000
0100
0010
0001
,
2002
0000
3003
0000
,
0001
0100
0010
1000
,
2002
0000
3003
0000
,
0001
0000
0100
0000
,
0010
0000
0010
0000
,
1000
0000
0100
0000
,
0010
0000
0010
0000
,
0001
0000
0100
0000
,
1000
0000
1000
0000
,
0001
0000
0010
0000
,
1000
0000
0001
0000
,
0000
0000
0000
0000
;
#NOTES:
     dance-single:
     :
     Medium:
     11:
     :
0000
0000
0000
0000
,
0000
0000
0000
0000
,
0000
0000
0000
0000
,
0000
0000
0000
0000
,
0000
0000
0000
0000
,
0010
0010
0000
0000
0000
0000
0000
0000
,
0001
0100
0010
1000
0100
1000
0001
0000
,
0100
0100
0010
0010
,
1000
1000
2002
3003
,
0001
1000
0001
1000
0000
1000
0001
0000
,
1000
0100
0010
0000
0001
0000
1000
0010
,
0100
0001
0100
0001
0000
0001
1000
0000
,
0001
1000
0010
0000
2000
0000
3001
0000
,
0100
0010
0100
0010
0000
1000
0100
0000
,
0010
0001
0100
0001
0010
0000
0100
1000
,
0001
0001
0100
1000
,
0010
0010
0002
0003
,
1000
0001
0010
0000
0001
0100
0010
0000
,
1000
0001
1000
0001
2000
0000
3000
0000
,
0001
1000
0010
0000
1000
0100
0010
0000
,
0001
1000
0001
1000
0002
0000
0003
0000
,
0100
0010
1000
0000
0100
0010
0001
0000
,
1000
0010
0100
0010
2000
0000
3001
0000
,
0010
0001
0100
1000
,
0010
0001
0200
0000
,
0300
0010
1000
0000
0010
1000
0100
0000
,
1000
0100
0010
0000
0100
0010
0001
0000
,
0000
0001
0100
0000
0001
0100
0010
0000
,
0100
0010
1000
0000
0002
0000
0003
0000
,
2000
0000
0010
0000
,
3002
0000
0010
0000
,
1003
1000
1010
1010
,
1001
0110
2002
3003
,
1000
0100
0010
0000
0001
0100
0010
0000
,
1000
0100
0001
0100
1000
0000
0001
0000
,
0011
0001
0101
0010
,
2001
0001
0200
3300
,
0001
0000
0010
1000
0010
0000
0001
0000
,
1000
0000
0100
0001
0100
0000
1000
0000
,
0001
1000
0001
0000
1000
0001
1000
0000
,
0220
0000
0000
0330
,
0000
1000
0100
1000
0000
0001
0100
0001
,
0000
1000
0010
1000
0000
0001
0010
0001
,
0000
0100
0001
0010
0000
0010
0001
0100
,
0000
0010
1000
0100
0000
0100
1000
0010
,
0000
1000
0100
0010
0000
0100
0010
0001
,
0000
0001
0100
0010
0000
0100
0010
1000
,
0020
1000
0230
0001
,
0310
1000
2002
3003
,
0001
0100
0010
0000
1000
0100
0010
0000
,
0001
0100
1000
0100
0001
0000
1000
0000
,
1010
1000
1100
0010
,
1002
1000
0200
0303
,
1000
0000
0010
0001
0010
0000
1000
0000
,
0001
0000
0100
1000
0100
0000
0001
0000
,
1000
0001
1000
0000
0001
1000
0001
0000
,
0220
0000
0000
0330
,
0000
1000
0010
0100
0000
0001
0010
0100
,
0000
1000
0010
0100
0000
0001
0010
0100
,
0000
1000
0001
0100
0000
0001
1000
0100
,
0010
0010
0011
0011
,
0000
0010
0100
1000
0000
0010
0100
0001
,
0000
1000
0100
0010
0000
0001
0100
0010
,
1000
0100
1000
0100
0010
0001
0010
0001
,
2000
3020
0230
0302
,
1003
0000
0010
1000
0100
0000
0010
0000
,
0001
0000
1000
0001
0100
0000
0010
0000
,
1000
0000
0001
0010
0100
0000
1000
0000
,
0010
0000
0100
0001
0010
0000
0001
0000
,
1001
0000
0100
0010
1000
0000
0001
0000
,
1000
0000
0100
0010
0001
0000
1000
0000
,
0010
0000
0100
0001
1000
0000
0100
0000
,
0010
0000
0001
0010
0100
0000
1000
0001
,
0000
0000
0000
0000
;
#NOTES:
     dance-single:
     :
     Hard:
     14:
     :
0000
0000
0000
0000
,
0000
0000
0000
0000
,
0000
0000
0000
0000
,
0000
0000
0000
0000
,
0000
0000
0000
0000
,
1001
0000
1001
0000
0000
0000
0000
0000
0000
0000
0000
0000
0000
0000
0010
1000
,
0010
0100
0001
1000
0001
0100
0010
0000
,
1010
1100
0101
0011
,
0110
1001
0220
0330
,
1000
0000
1000
0001
1000
0000
1000
0000
0000
0000
1000
0000
0100
0000
0010
0000
,
0001
0100
0010
0100
0002
0000
1003
0100
,
0010
0000
0010
0001
0010
0000
0010
0000
0000
0000
0010
0000
0001
0000
0100
0000
,
0010
1000
0010
0001
0020
0000
0130
0000
,
0001
0000
0001
1000
0001
0000
0001
0000
0000
0000
0001
0000
0100
0000
0010
0000
,
1000
0100
0010
0100
2000
0000
3001
0000
,
0011
0101
1100
1010
,
1001
0110
2002
3003
,
0001
0000
0010
0100
1000
0000
0001
0000
0100
0000
0010
0000
0100
0000
0000
0000
,
0001
0010
1000
0010
0002
0000
1003
0000
,
0001
0000
0100
0010
1000
0000
0200
0000
0000
0000
0310
0000
0100
0000
1000
0000
,
0001
0010
0001
0100
0002
0000
1003
0000
,
1000
0000
0010
0100
0001
0000
1000
0000
0010
0000
0100
0000
0001
0000
1000
0000
,
0100
0001
0100
1000
0200
0000
0310
0001
,
0011
1010
1100
0101
,
0110
1001
0220
0000
,
0330
1000
0100
0010
1000
0100
0010
0001
,
0100
0010
0001
1000
0100
0010
0001
0000
,
0000
0001
0010
0100
0001
0010
0100
1000
,
0010
0100
1000
0001
0020
0000
0030
0000
,
0010
0100
0010
0100
0001
0010
0001
0010
,
1000
0010
1000
0010
0001
0100
0001
0000
,
0010
0000
0010
0001
0000
0001
1000
0000
1000
0100
0000
0100
,
1000
0000
1000
0001
0000
0001
2000
0000
0000
3000
0000
0000
,
1000
0000
0010
0100
0010
0000
0000
0000
1000
0000
0100
0000
0001
0000
0100
0000
,
1000
0000
0010
0100
0001
0000
0000
0000
1000
0000
0000
0000
1001
0000
0000
0000
,
1000
0000
0100
0010
0001
0000
0000
0000
0100
0000
0010
1000
0100
0000
0000
0000
,
1000
0010
1000
0001
0010
0001
1000
0100
1000
0001
0100
0001
,
1000
0000
0001
0100
0001
0000
0000
0000
0011
0000
0000
0000
0101
0000
0000
0000
,
0001
1000
1100
0000
0010
0001
0101
0000
,
0010
0010
1000
0000
0001
0100
1000
0000
,
1001
0000
0000
0000
0110
0000
0000
0000
0010
1000
0001
0100
0010
1000
0001
0000
,
0100
0000
0100
0010
0100
0000
0100
0000
0000
0000
0100
0000
1000
0000
0100
0000
,
0001
0010
0001
0000
1000
0000
1000
0000
0010
0000
0000
0000
0110
0000
0000
0000
,
0001
0000
0001
1000
0001
0000
0001
0000
0000
0000
0001
0000
1000
0000
0010
0000
,
1000
0100
1000
0000
0001
0000
0001
0000
0010
0000
0000
0000
0110
0000
0000
0000
,
1000
0000
1000
0001
1000
0000
1000
0000
0000
0000
1000
0000
0010
0000
1000
0000
,
0001
0100
0010
0000
1000
0000
1000
0000
0100
0000
0000
0000
0110
0000
0000
0000
,
0001
0000
0010
0100
0000
1000
0010
0000
0100
0001
0000
1000
,
0001
0000
0010
0100
0000
1000
0002
0000
0000
1003
0000
0000
,
0010
0000
1000
0100
0010
0000
0000
0000
0001
0000
0100
0000
1000
0000
0001
0000
,
0010
0000
1000
0100
0010
0000
0000
0000
0001
0000
0010
0000
1000
0000
0001
0000
,
0100
0000
1000
0010
0100
0000
0000
0000
0001
0000
0010
0100
1000
0000
0000
0000
,
1000
0100
1000
0100
0010
0100
0010
0001
0010
0001
1000
0001
,
1000
0000
0001
1000
0100
0000
0000
0000
0010
0000
0001
0000
0100
0000
0000
0000
,
0001
0000
1000
0001
0100
0000
0000
0000
0010
0000
1000
0000
0100
0000
0000
0000
,
0011
0101
1100
1010
,
1002
0000
0200
0303
,
0010
1000
0010
0000
1000
0010
1000
0000
0001
0100
0001
0000
0100
0001
0100
0000
,
0001
1000
0010
0100
0001
0000
1001
0000
,
0001
0010
0001
0000
0010
0001
0010
0000
0100
1000
0100
0000
1000
0100
1000
0000
,
1010
1010
1100
1100
,
0100
0010
0100
0000
0010
0100
0010
0000
0001
1000
0001
0000
1000
0001
1000
0000
,
0001
0010
1000
0100
0001
0010
1000
0100
,
0001
0000
0001
0100
0001
0000
0001
0100
0001
0000
0001
0100
0001
0000
0001
0100
,
0001
0010
0001
0010
0001
0010
0001
1000
0010
1000
0010
1000
,
0010
0000
1000
0100
0010
0000
1000
0100
,
0010
0000
1000
0100
0010
0000
1000
0100
,
0010
0000
0001
0100
0010
0000
0001
0100
,
0010
0000
0001
0100
0010
0000
0001
0100
,
0010
0000
1000
0010
0001
0000
1000
0010
,
0001
0000
1000
0010
0001
0000
1000
0010
,
0001
0000
0001
0100
1000
0000
0001
0100
,
1000
0000
0001
0100
1000
0000
0001
0100
,
0000
0000
0000
0000
;
#NOTES:
     dance-double:
     :
     Easy:
     7:
     :
00000000
00000000
00000000
00000000
,
00000000
00000000
00000000
00000000
,
00000000
00000000
00000000
00000000
,
00000000
00000000
00000000
00000000
,
00000000
00000000
00000000
00000000
,
10010000
00000000
00000000
00000000
,
10000000
00000000
01000000
00000000
00100000
00010000
00100000
00000000
,
00001000
00001000
00010000
00010000
,
00000010
00000010
00001000
00000000
,
00000001
00000100
00001000
00000100
,
00000001
00001000
00000001
00000000
,
00000001
00001000
00000100
00010000
,
00001000
01000000
00010000
00000000
,
10000000
01000000
00010000
01000000
,
10000000
00010000
10000000
00000000
,
10000000
00010000
01000000
00001000
,
00010000
00000100
00001000
00000000
,
00000010
00001000
00000001
00000010
,
00000100
00001000
00000010
00000000
,
00000100
00001000
00000100
00001000
,
00010000
00010000
00010000
00000000
,
00100000
10000000
00010000
00100000
,
01000000
10000000
01000000
00000000
,
01000000
00010000
01000000
00010000
,
00001000
00001000
00001000
00000000
,
00000020
00000000
00000130
00000000
,
00002000
00000000
00003001
00000000
,
00000020
00000000
00000130
00000000
,
00002000
00000000
00013000
00000000
,
02020000
00000000
03030000
00000000
,
20200000
00000000
30300000
00000000
,
10000000
10000000
01000000
01000000
,
00100000
00100000
00100000
00000000
,
00001000
00000010
00000001
00000010
,
00001000
00000000
00000110
00000000
,
00000001
00000100
00001000
00010000
,
00001000
00000000
00011000
00000000
,
01000000
01000000
01000000
00000000
,
00100000
00100000
00100000
00000000
,
10000000
00010000
10000000
00010000
,
20000000
00000000
00000000
30000000
,
01000000
00010000
00001000
00010000
,
00100000
00010000
00001000
00000000
,
00000100
00001000
00010000
00001000
,
00000010
00001000
00010000
00000000
,
00000010
00000100
00001000
00010000
,
00100000
01000000
00010000
00000000
,
00100000
01000000
00010000
00001000
,
00000010
00000100
00001000
00000000
,
00001000
00000100
00000001
00000100
,
00001000
00000000
00000110
00000000
,
00000001
00000010
00001000
00010000
,
00001000
00000000
00011000
00000000
,
01000000
00010000
00100000
00000000
,
01000000
10000000
00100000
00000000
,
00010000
00000000
00001000
00000000
,
00022000
00000000
00000000
00033000
,
00000010
00000100
00000010
00000000
00000100
00000010
00000100
00000000
,
00000010
00000000
00000110
00000000
,
00001000
00010000
00001000
00000000
00010000
00001000
00010000
00000000
,
00001000
00000000
00011000
00000000
,
00100000
01000000
00100000
00000000
01000000
00100000
01000000
00000000
,
00100000
00000000
01100000
00000000
,
00010000
00001000
00010000
00000000
00001000
00010000
00001000
00000000
,
00022000
00000000
00033000
00000000
,
00000100
00000000
00000001
00000000
,
00000010
00000000
00000010
00000000
,
00001000
00000000
00010000
00000000
,
01000000
00000000
01000000
00000000
,
10000000
00000000
00100000
00000000
,
00010000
00000000
00010000
00000000
,
00001000
00000000
00000100
00000000
,
00000001
00000000
00000001
00000000
,
00000000
00000000
00000000
00000000
;
#NOTES:
     dance-double:
     :
     Medium:
     11:
     :
00000000
00000000
00000000
00000000
,
00000000
00000000
00000000
00000000
,
00000000
00000000
00000000
00000000
,
00000000
00000000
00000000
00000000
,
00000000
00000000
00000000
00000000
,
00000010
00000010
00000000
00000000
00000000
00000000
00000000
00000000
,
00000001
00000010
00000100
00001000
00000010
00000100
00001000
00000000
,
00010000
00010000
00100000
00100000
,
10000000
10000000
20020000
30030000
,
10000000
00010000
10000000
00010000
00000000
00010000
00100000
00000000
,
00001000
00010000
00000010
00000000
00001000
00000000
00000100
00000010
,
00000001
00000100
00000001
00000100
00000000
00000100
00000001
00000000
,
00000010
00000100
00001000
00000100
00020000
00000000
00030000
00000000
,
00001000
00100000
00010000
00100000
00000000
01000000
10000000
00000000
,
00100000
01000000
00010000
01000000
00100000
00000000
00010000
00001000
,
00010000
00010000
00000100
00000100
,
00001000
00001000
00000020
00000030
,
00000100
00000000
00000100
00000000
00000001
00001000
00000001
00000000
,
00000100
00001000
00000100
00001000
00020000
00000000
00030000
00000000
,
00001000
00000000
00001000
00000000
01000000
00010000
01000000
00000000
,
00100000
10000000
00100000
10000000
00020000
00000000
00030000
00000000
,
10000000
00000000
10000000
00000000
01000000
00100000
01000000
00000000
,
00100000
00001000
00010000
00001000
00200000
00000000
00310000
00000000
,
00100000
00100000
00010000
00010000
,
00001000
00001000
00000200
00000000
,
00000300
00000010
00000100
00000000
00001000
00000100
00001000
00000000
,
00000100
00010000
00000100
00000000
00010000
00001000
00010000
00000000
,
00000000
00100000
01000000
00000000
00010000
01000000
00010000
00000000
,
01000000
00001000
01000000
00000000
00002000
00000000
00003000
00000000
,
00020000
00000000
00000010
00000000
,
00032000
00000000
00100000
00000000
,
00013000
00010000
00011000
00011000
,
00110000
00011000
00002020
00003030
,
00000100
00000000
00000001
00000000
00000010
00000100
00001000
00000000
,
00000100
00000001
00000100
00001000
00000100
00000000
00000000
00000000
,
00000011
00000001
00000101
00001000
,
00020100
00000100
00002000
00033000
,
00010000
00000000
00100000
01000000
00100000
00000000
00010000
00000000
,
00001000
00010000
01000000
10000000
,
01000000
00100000
00010000
00000000
01000000
00001000
00010000
00000000
,
00022000
00000000
00000000
00033000
,
00000000
00000100
00001000
00000100
00000000
00000010
00000001
00000010
,
00000000
00000001
00000100
00000001
00000000
00001000
00000010
00001000
,
00000000
00000100
00010000
00000100
00000000
00010000
00001000
00010000
,
00000000
00001000
01000000
00001000
00000000
00100000
00010000
00100000
,
00000000
01000000
10000000
00100000
00000000
10000000
00100000
01000000
,
00000000
00010000
00100000
01000000
00000000
00010000
00001000
00010000
,
00000200
00000310
00002000
00013000
,
02000000
03100000
10010000
00000000
,
01000000
00000000
10000000
00000000
00100000
01000000
00010000
00000000
,
01000000
10000000
01000000
00010000
01000000
00000000
00000000
00000000
,
10100000
10000000
11000000
00010000
,
01002000
01000000
00020000
00033000
,
00001000
00000000
00000010
00000100
00000010
00000000
00001000
00000000
,
00010000
00000000
00001000
00000100
00000010
00000000
00000100
00000000
,
00000010
00001000
00000100
00000000
00000010
00001000
00010000
00000000
,
00022000
00000000
00000000
00033000
,
00000000
01000000
00010000
01000000
00000000
00100000
10000000
00100000
,
00000000
10000000
01000000
10000000
00000000
00010000
00100000
00010000
,
00000000
01000000
00001000
01000000
00000000
00001000
00010000
00001000
,
00010000
00000100
00001100
00001010
,
00000000
00000100
00000001
00000010
00000000
00000001
00000010
00000100
,
00000000
00001000
00000010
00000100
00000000
00001000
00010000
00001000
,
01000000
00010000
01000000
00010000
00100000
01000000
00100000
01000000
,
20000000
32000000
03200000
00320000
,
00031000
00000000
00000100
00000010
00000001
00000000
00000100
00000000
,
00000010
00001000
00000100
00010000
,
00001000
00000000
00100000
01000000
10000000
00000000
00100000
00000000
,
00010000
00001000
00000100
00000001
,
00000010
00000000
00000100
00010000
00001000
00000000
01000000
00000000
,
00100000
10000000
00010000
00100000
,
01000000
00000000
00010000
00001000
00000010
00000000
00000001
00000000
,
00000100
00000000
00001000
00000000
00010000
00000000
00001000
00010000
,
00000000
00000000
00000000
00000000
;
#NOTES:
     dance-double:
     :
     Hard:
     14:
     :
00000000
00000000
00000000
00000000
,
00000000
00000000
00000000
00000000
,
00000000
00000000
00000000
00000000
,
00000000
00000000
00000000
00000000
,
00000000
00000000
00000000
00000000
,
00001001
00000000
00001001
00000000
00000000
00000000
00000000
00000000
00000000
00000000
00000000
00000000
00000000
00000000
00000010
00000100
,
00000010
00000100
00001000
00010000
00001000
01000000
00010000
00000000
,
00110000
00011000
00001010
00001100
,
00011000
01010000
20020000
30030000
,
00100000
00000000
00100000
10000000
00100000
00000000
00100000
00000000
00000000
00000000
10000000
00000000
01000000
00000000
00000000
00000000
,
00010000
00001000
00000010
00000001
00002000
00000000
00003001
00000000
,
00000010
00000000
00000010
00000001
00000010
00000000
00000010
00000000
00000000
00000000
00000001
00000000
00000100
00000000
00000000
00000000
,
00001000
00010000
00100000
10000000
00020000
00000000
10030000
00000000
,
00100000
00000000
00100000
01000000
00100000
00000000
00100000
00000000
00000000
00000000
10000000
00000000
00100000
00000000
00000000
00000000
,
00010000
00001000
00000100
00000001
00002000
00000000
00003001
00000000
,
00000010
00001100
00010000
00011000
,
00001100
00001010
00022000
00033000
,
00100000
00000000
01000000
00010000
00100000
00000000
01000000
00000000
00010000
00000000
00001000
00000000
00010000
00000000
00000000
00000000
,
00100000
01000000
00100000
00010000
00002000
00000000
00003000
00000000
,
00000010
00000000
00000100
00001000
00000010
00000000
00000100
00000000
00001000
00000000
00010000
00000000
00001000
00000000
00000000
00000000
,
00000010
00000100
00000010
00001000
00020000
00000000
00030000
00000000
,
01000000
00000000
10000000
00010000
01000000
00000000
00100000
00000000
00010000
00000000
00001000
00000000
00000010
00000000
00000100
00000000
,
00001000
00000001
00000100
00001000
00020000
00000000
00130000
10000000
,
00100000
01010000
00001000
00011000
,
01010000
00110000
00022000
00000000
,
00033000
00010000
00001000
00000100
00010000
00001000
00000100
00000010
,
00000001
00000100
00000001
00000010
00001000
00010000
00001000
00000000
,
00000000
00001000
00010000
01000000
00001000
00010000
01000000
00100000
,
10000000
01000000
10000000
00100000
02000000
00000000
03000000
00000000
,
10000000
01000000
10000000
01000000
00100000
00010000
00100000
00010000
,
00001000
00000100
00001000
00000100
00000010
00000001
00000010
00000000
,
00000001
00000000
00000001
00000100
00000000
00000100
00000010
00000000
00000010
00010000
00000000
00010000
,
00001000
00000000
00001000
01000000
00000000
01000000
00200000
00000000
00000000
00300000
00000000
00000000
,
10000000
00000000
01000000
00100000
01000000
00000000
00000000
00000000
10000000
00000000
01000000
00000000
00010000
00000000
00001000
00000000
,
00010000
00000000
00100000
01000000
00100000
00000000
00000000
00000000
00010000
00000000
00001000
00000000
00000100
00000000
00000000
00000000
,
00000001
00000000
00000010
00000100
00001000
00000000
00000000
00000000
00000010
00000000
00001000
00000010
00000100
00000000
00000000
00000000
,
00000001
00000010
00000001
00000010
00000000
00000000
00000100
00001000
00000100
00001000
00000000
00000000
,
00010000
00000000
00100000
01000000
00100000
00000000
00000000
00000000
00010000
00000000
10000000
00000000
01000000
00000000
00000000
00000000
,
11000000
01100000
00110000
00011000
,
00000100
00000100
00000010
00000000
00000001
00000100
00001000
00000000
,
00000110
00000000
00000000
00000000
00001001
00000000
00000000
00000000
00000010
00001000
00000010
00000100
00000001
00000000
00000000
00000000
,
00000100
00000000
00000100
00000010
00000100
00000000
00000100
00000000
00000000
00000000
00001000
00000000
00010000
00000000
00100000
00000000
,
01000000
00001000
00010000
01000000
10000000
00000000
01100000
00000000
,
01000000
00000000
01000000
00100000
01000000
00000000
01000000
00000000
00000000
00000000
00010000
00000000
00001000
00000000
00000010
00000000
,
00000100
00010000
00001000
00000100
00000001
00000000
00000110
00000000
,
00000001
00000000
00000001
00001000
00000001
00000000
00000001
00000000
00000000
00000000
00000100
00000000
00010000
00000000
00001000
00000000
,
00100000
10000000
00010000
01000000
00100000
00000000
01100000
00000000
,
10000000
00000000
01000000
00100000
00000000
00010000
00100000
00000000
00001000
00010000
00000000
00000100
,
00001000
00000000
00000010
00000100
00000000
00000001
00002000
00000000
00000000
00003001
00000000
00000000
,
00000001
00000000
00000010
00000100
00000010
00000000
00000000
00000000
00000001
00000000
00000010
00000000
00001000
00000000
00010000
00000000
,
00001000
00000000
00000100
00000010
00000100
00000000
00000000
00000000
00001000
00000000
00010000
00000000
00100000
00000000
00000000
00000000
,
10000000
00000000
01000000
00100000
00010000
00000000
00000000
00000000
01000000
00000000
00010000
01000000
00100000
00000000
00000000
00000000
,
10000000
01000000
10000000
01000000
00100000
01000000
00100000
00010000
00100000
00001000
00010000
00000100
,
00001000
00000000
00000100
00000010
00000100
00000000
00000000
00000000
00001000
00000000
00000001
00000000
00000010
00000000
00000000
00000000
,
00000011
00000110
00001100
00011000
,
00100000
10100000
10000000
11000000
,
00100000
00010000
00001000
00000100
00002200
00000000
00003300
00000000
,
00000010
00000001
00000010
00000000
00000001
00000010
00000001
00000000
00001000
00000010
00001000
00000000
00000010
00001000
00000010
00000000
,
00000100
00001000
00010000
01000000
10000000
00000000
10010000
00000000
,
00100000
10000000
00100000
00000000
10000000
00100000
10000000
00000000
00010000
00100000
00010000
00000000
00100000
00010000
00100000
00000000
,
01000000
00010000
00001000
00000100
00000001
00001000
00001000
00000000
,
00000001
00000100
00000010
00000000
00001000
00000000
00000100
00000000
00010000
00001000
01000000
00000000
00010000
00000000
00100000
00000000
,
01000000
10000000
00100000
00000000
01000000
00000000
00010000
00000000
00100000
00001000
00010000
00000000
00000100
00000000
00001000
00000000
,
00000001
00000000
00000100
00000010
00001000
00000000
00000100
00000010
00000001
00000000
00000100
00000010
00001000
00000000
00000100
00000010
,
00000001
00000100
00001000
00000100
00001000
00010000
00100000
10000000
00010000
10000000
00010000
01000000
,
00100000
00000000
10000000
01000000
00010000
00000000
00001000
00010000
,
00100000
00000000
00010000
00001000
00010000
00000000
01000000
10000000
,
01000000
00000000
00010000
00001000
00000010
00000000
00001000
00010000
,
00001000
00000000
00000100
00001000
00010000
00000000
00001000
00000010
,
00000001
00000000
00000100
00001000
00010000
00000000
00001000
00000010
,
00001000
00000000
00010000
01000000
10000000
00000000
00100000
00010000
,
00001000
00000000
00010000
00100000
10000000
00000000
01000000
00010000
,
00001000
00000000
00000010
00001000
00010000
00000000
00001000
00000100
,
00000000
00000000
00000000
00000000
;
