
//----- song ID: uhoh -----//
#TITLE:Uh-Oh;
#ARTIST:kors k;
#BANNER:Uh-Oh.png;
#BACKGROUND:Uh-Oh-bg.png;
#CDTITLE:./CDTitles/bm IIDX 23 copula.png;
#MUSIC:Uh-Oh.ogg;
#SAMPLESTART:100.102;
#SAMPLELENGTH:15;
#BPMS:0=175;
#NOTES:
     dance-single:
     :
     Beginner:
     3:
     :
0000
0000
0000
0000
,
0000
0000
0000
0000
,
0000
0000
0000
0000
,
0000
0000
0000
0000
,
0000
0000
0000
0000
,
1000
0000
0100
0000
,
1000
0000
0000
0000
,
0010
0000
0100
0000
,
0010
0000
0000
0000
,
0001
0000
0010
0000
,
0001
0000
0100
0000
,
0010
0000
0010
0000
,
0010
0000
0000
0000
,
1000
0000
0010
0000
,
1000
0000
0100
0000
,
0010
0000
0010
0000
,
1001
0000
0000
0000
,
0001
0000
0100
0000
,
0010
0000
0100
0000
,
0010
0000
1000
0000
,
0010
0000
0000
0000
,
1000
0000
0100
0000
,
0010
0000
0100
0000
,
0010
0000
0001
0000
,
0010
0000
0000
0000
,
0001
0000
0100
0000
,
0010
0000
0100
0000
,
1000
0000
0100
0000
,
1000
0000
0000
0000
,
1000
0000
0100
0000
,
0010
0000
0100
0000
,
0001
0000
0100
0000
,
0001
0000
0000
0000
,
1001
0000
0000
0000
,
0010
0010
0010
0000
,
1001
0000
0000
0000
,
0100
0100
0100
0000
,
1001
0000
0000
0000
,
1001
0000
0000
0000
,
1001
0000
0000
0000
,
1001
0000
0000
0000
,
0001
0001
0001
0000
,
0100
0000
0010
0000
,
0100
0100
0100
0000
,
0010
0000
0000
0000
,
1000
1000
1000
0000
,
0010
0000
0100
0000
,
0010
0010
0010
0000
,
0100
0000
0000
0000
,
0001
0000
0100
0000
,
1000
0000
0100
0000
,
0001
0000
1000
0000
,
0001
0000
0000
0000
,
1000
0000
0100
0000
,
0001
0000
0100
0000
,
1000
0000
0001
0000
,
1000
0000
0000
0000
,
0010
0000
0010
0000
,
1000
0000
1000
0000
,
0001
0000
0001
0000
,
0100
0000
0000
0000
,
0010
0000
0010
0000
,
0001
0000
0001
0000
,
1000
0000
1000
0000
,
0100
0000
0000
0000
,
0001
0000
0010
0000
,
0100
0000
0010
0000
,
0001
0000
0100
0000
,
0010
0000
1000
0000
,
1000
0000
0010
0000
,
0100
0000
0010
0000
,
1000
0000
0100
0000
,
1001
0000
0000
0000
,
0010
0000
0001
0000
,
0100
0100
0100
0000
,
0001
0000
1000
0000
,
0010
0000
0000
0000
,
0100
0000
0001
0000
,
1000
1000
1000
0000
,
0100
0000
0010
0000
,
1001
0000
0000
0000
,
0100
0000
1000
0000
,
0010
0010
0010
0000
,
1000
0000
0001
0000
,
0100
0000
0000
0000
,
0010
0000
1000
0000
,
0001
0001
0001
0000
,
0010
0000
0100
0000
,
1001
0000
0000
0000
,
1001
0000
0000
0000
,
0000
0000
0000
0000
;
#NOTES:
     dance-single:
     :
     Easy:
     7:
     :
0000
0000
0000
0000
,
0000
0000
0000
0000
,
0000
0000
0000
0000
,
0000
0000
0000
0000
,
0000
0000
0000
0000
,
1000
1000
0100
0100
,
0001
0100
1000
0000
,
0001
0001
0100
0100
,
1000
0100
0001
0000
,
1000
0010
1000
0000
,
1000
0001
1000
0000
,
0001
0010
0001
0000
,
0001
1000
0001
0000
,
1000
0010
1000
0010
,
0100
0001
0100
0001
,
1000
0000
0001
0000
1000
0001
1000
0000
,
0000
0020
0200
0330
,
0001
0010
0001
0100
,
0010
1000
0010
0010
,
1000
0100
0010
0001
,
0100
0010
1000
0000
,
0100
1000
0010
1000
,
0100
0010
0001
0100
,
0010
0010
1000
1000
,
0001
0001
1001
0000
,
1000
0100
1000
0010
,
0100
0001
0100
0100
,
0001
0010
0100
1000
,
0010
0100
0001
0000
,
0010
0001
0100
0001
,
0010
0100
1000
0010
,
0100
0100
0001
0001
,
1000
1000
1001
0000
,
0010
0010
1001
0000
,
1000
0001
1000
0000
,
0100
0100
1001
0000
,
0001
1000
0001
0000
,
1000
0001
0110
0000
,
0001
1000
0110
0000
,
0001
0010
0100
1000
,
0000
0020
0200
0330
,
1000
0010
1000
0100
,
0010
0000
0001
0000
0100
0010
0100
0000
,
0001
0010
0001
0100
,
0010
0000
1000
0000
0100
0010
0100
0000
,
1000
0010
0100
0001
,
0010
0000
0100
0000
1000
0001
1000
0000
,
0010
0100
0010
0010
,
2002
0000
0000
3003
,
0000
0000
1000
0000
0100
0001
0100
0000
,
0000
0000
1000
0000
0010
0001
0010
0000
,
0000
0000
1000
0000
0100
0010
0001
0000
,
1000
1000
0001
0001
,
0010
1001
0010
1001
,
0100
1001
0100
1001
,
0110
1001
0110
1001
,
0220
0000
0000
0330
,
0001
0001
0001
0000
,
0010
0100
0010
0000
,
1000
1000
0010
0010
,
0100
0010
1000
0000
,
1000
1000
1000
0000
,
0010
0100
0010
0000
,
0001
0010
0100
0010
,
0001
0001
0001
0000
,
0000
0001
0100
1010
,
0000
1000
0100
0011
,
0000
0010
0100
1001
,
1000
0100
1000
0000
0001
0100
0001
0000
,
0000
0001
0010
1100
,
0000
1000
0010
0101
,
0001
0010
0100
1000
,
0001
0020
0200
0330
,
0100
1000
0001
0100
,
0010
0000
1000
0000
0001
1000
0001
0000
,
0100
1000
0100
0001
,
0010
0100
0010
0000
0010
0000
0000
0000
,
0100
0010
0001
0100
,
0010
0000
1000
0000
0100
1000
0010
0000
,
0100
0100
0001
0001
,
1000
0001
1000
0000
2002
0000
3003
0000
,
0010
0001
1000
0010
,
0100
0000
0001
0000
1000
0001
1000
0000
,
0010
0001
0010
1000
,
0100
0020
0200
0330
,
0010
0100
1000
0010
,
0100
0000
0001
0000
0010
0001
0100
0000
,
0010
0010
1000
1000
,
0001
1000
0001
0000
1001
0000
0000
0000
,
1001
0000
0000
0000
,
0000
0000
0000
0000
;
#NOTES:
     dance-single:
     :
     Medium:
     11:
     :
0000
0000
0000
0000
,
0000
0000
0000
0000
,
0000
0000
0000
0000
,
0000
0000
0000
0000
,
0000
0000
0000
0000
,
1000
0000
0010
0000
1000
0100
0010
0001
,
0000
0001
0100
0000
1010
0000
1100
0000
,
1000
0100
1000
0000
0001
0100
0001
0000
,
0010
0100
0010
0000
0100
0000
0000
0000
,
0001
0001
0001
0001
,
1000
1000
1000
1000
,
0010
0010
0010
0010
,
0100
0100
0100
0100
,
0001
0010
0001
0000
1000
0010
1000
0000
,
0001
0100
0001
0000
1000
0100
1000
0000
,
0001
0010
0001
0010
0100
1000
0100
1000
,
0100
0020
0200
0330
,
1000
0000
0001
0000
0010
0001
0100
0000
,
0001
0010
0100
0010
0001
0000
1000
0000
,
0010
1000
0010
1000
0001
0100
0001
0100
,
0001
0010
1000
0010
0001
0000
1000
0000
,
0100
0000
0010
0000
0100
1000
0010
0000
,
0100
0010
1000
0010
0100
0000
0001
0000
,
1000
0100
1000
0100
0010
0001
0010
0001
,
1000
0001
2002
3003
,
0001
0000
1000
0000
0100
1000
0010
0000
,
1000
0100
0010
0100
1000
0000
0001
0000
,
0100
0001
0100
0001
1000
0010
1000
0010
,
1000
0100
0001
0100
1000
0000
0001
0000
,
0010
0000
0100
0000
0010
0001
0100
0000
,
0010
0100
0001
0100
0010
0000
1000
0000
,
0001
0010
0001
0010
0100
1000
0100
1000
,
0001
1000
2002
3003
,
2010
0010
0010
0000
,
0001
0001
3001
0000
,
0012
0010
0010
0000
,
1000
1000
1003
0000
,
2000
0100
3100
0000
,
0002
0100
0103
0000
,
2000
3010
0002
0013
,
0000
0020
0200
0330
,
1000
0000
0100
0000
0010
0100
0010
0000
,
0001
0000
0100
0000
0010
0100
0010
0000
,
1000
0000
0100
0000
0001
0100
1000
0000
,
0001
0000
0100
0000
1000
0100
0001
0000
,
0001
0000
0010
0000
0100
1000
0010
0000
,
1000
0000
0010
0000
0100
0001
0010
0000
,
0100
1000
0010
0000
0100
0001
0010
0000
,
2002
0000
0000
3003
,
0000
0100
0010
1000
0001
1000
0010
0100
,
0000
0001
0010
0100
1000
0100
0010
0100
,
0000
1000
0010
0100
0001
0100
0010
1000
,
0000
0010
0100
0001
1000
0100
0010
0000
,
0001
0010
0100
0000
1000
0010
0100
0000
,
0001
0010
0100
0000
1000
0010
0100
0000
,
0001
0010
1000
0010
0001
0100
1000
0100
,
0002
0000
0003
0000
1000
1000
1000
0000
,
0010
0000
0010
0000
1000
0100
0010
0001
,
0000
0001
0100
0000
0110
0000
1001
0000
,
1000
0010
0100
0000
0001
0010
0001
0010
,
0000
0010
0100
0000
1000
0001
1000
0000
,
0001
0000
0010
0000
0001
0100
0010
1000
,
0000
1000
0100
0000
0011
0000
0101
0000
,
0001
0100
0001
0000
1000
0100
1000
0000
,
0010
0100
0010
0000
0100
0000
0000
0000
,
0000
1000
0001
0000
0100
0010
0100
0010
,
0000
0001
1000
0000
0100
0010
0100
0010
,
0000
1000
0100
0000
0010
0001
0100
0000
,
0001
0100
0001
0000
1000
0010
1000
0000
,
0000
0001
0100
0000
0001
0010
0100
1000
,
0000
1000
0010
0000
1000
0100
0010
0000
,
0001
0010
0001
0000
1000
0100
1000
0000
,
0001
0020
0200
0330
,
1000
0001
0010
0000
0010
0001
1000
0000
,
0100
0010
0100
0010
0100
0000
1000
0000
,
0001
1000
0010
0000
0010
1000
0001
0000
,
1000
0100
0010
0001
1000
0000
1001
0000
,
0100
0010
1000
0000
1000
0010
0100
0000
,
0001
0010
0100
0010
0001
0000
1000
0000
,
0010
0100
0010
0100
0001
1000
0001
0000
,
1001
0110
2002
3003
,
0001
1000
0100
0000
0100
1000
0001
0000
,
0010
0100
0010
0100
0010
0000
0001
0000
,
1000
0001
0100
0000
0100
0001
1000
0000
,
1001
0020
0200
0330
,
0010
0100
0001
0000
0001
0100
0010
0000
,
1000
0100
0010
0100
1000
0000
0001
0000
,
0100
0010
0100
0010
1000
0001
1000
0000
,
1001
0110
1001
0000
,
1001
0000
0000
0000
,
0000
0000
0000
0000
;
#NOTES:
     dance-single:
     :
     Hard:
     14:
     :
0000
0000
0000
0000
,
0000
0000
0000
0000
,
0000
0000
0000
0000
,
0000
0000
0000
0000
,
0000
0000
0000
0000
,
0010
0000
0010
0000
0010
0100
0001
0010
,
0000
0010
1000
0010
0001
1000
0100
0000
,
1000
0010
0100
0000
0001
0010
0100
0000
,
1010
0011
1001
0000
,
1001
1000
1000
1000
,
0010
0010
0100
0100
,
1001
0001
0001
0001
,
0010
0010
0100
0100
,
1000
0010
0100
0001
1000
0010
0100
0001
,
1000
0010
0100
0001
1000
0010
0100
0001
,
1000
0100
1000
0000
0001
0100
0001
0000
1000
0001
1000
0001
1000
0001
1000
0001
,
1000
0020
0200
0330
,
1000
0000
0100
0000
0010
0001
0010
0000
0001
0000
1000
0000
0001
0000
0000
0000
,
0100
0000
0010
0000
1000
0010
1000
0000
0001
1000
0001
1000
0001
0000
0000
0000
,
0001
0100
1000
0100
0001
0100
1000
0100
,
0001
0010
1000
0010
0001
0000
1001
0000
,
0001
0000
0010
0000
0100
1000
0100
0000
1000
0000
0001
0000
1000
0000
0000
0000
,
0010
0000
0100
0000
0001
0100
0001
0000
1000
0001
1000
0001
1000
0000
0000
0000
,
1000
0010
0001
0010
1000
0100
0001
0100
,
1000
1000
0001
0001
2002
0000
3003
0000
,
1000
0100
0001
0100
1000
0100
0010
0000
,
0001
0000
0100
0000
0001
0010
0100
0000
1000
0001
1000
0001
1000
0000
0000
0000
,
0010
0001
0010
1000
0001
0100
1000
0100
,
0010
1000
0100
0010
0001
0000
0110
0000
,
0001
0010
1000
0010
0001
0010
0100
0000
,
1000
0000
0010
0000
1000
0100
0010
0000
0001
1000
0001
1000
0001
0000
0000
0000
,
0100
1000
0100
0001
1000
0010
0001
0010
,
0100
0000
0001
1000
0001
0000
0100
0000
0100
0000
0000
0000
0110
0000
0000
0000
,
2001
0001
0100
0100
,
0001
0000
0000
0000
3100
0000
0000
0000
0010
0000
0000
0010
0000
0000
0010
0000
,
1002
1000
0100
0100
,
1000
0000
0000
0000
0103
0000
0000
0000
0010
0000
0000
0010
0000
0000
0010
0000
,
1002
0103
2001
3100
,
1002
0013
2001
3010
,
0012
0103
2010
0200
,
3300
0020
0200
0330
,
0001
0000
0100
0010
0000
0100
0010
0000
1000
0000
0100
0010
0000
0100
0010
0000
,
0001
0000
0010
0100
0000
0010
0100
0000
1000
0000
0010
0100
0010
0000
0100
0000
,
0001
0000
1000
0100
0000
1000
0100
0000
0010
0000
0100
1000
0000
0100
1000
0000
,
0010
0000
0100
0001
0000
0100
0001
0000
0010
0000
0001
0100
0001
0000
0000
0000
,
1000
0000
0010
0100
0000
0010
1000
0000
0001
0000
0100
0010
0000
1000
0010
0000
,
0100
0000
0001
0010
0000
0100
0010
0000
0001
0000
0010
0100
0000
0010
0001
0000
,
0100
0000
0001
1000
0000
0001
1000
0000
0100
0000
1000
0001
0000
1000
0001
0000
,
0010
0000
0001
0000
1000
0000
0200
0000
0000
0300
0000
0000
,
0000
0000
1000
0010
0100
0000
0001
0000
1000
0000
0001
0000
0010
0000
0001
0000
,
0000
0000
0100
0010
1000
0000
0001
0000
1000
0000
0100
0000
1000
0000
0010
0000
,
0000
0000
0100
0010
1000
0000
0001
0000
0010
0000
0100
0000
1000
0000
0001
0000
,
0000
0000
0100
0010
0100
0000
0001
0000
1000
0000
0001
0000
1001
0000
0000
0000
,
0001
0000
0001
0100
0010
0000
0000
0000
1000
0000
1000
0100
0010
0000
0000
0000
,
0001
0000
0001
0100
0010
0000
0000
0000
1000
0000
1000
0100
0010
0000
0000
0000
,
0001
0000
0001
0100
0010
0000
1000
0100
0010
0000
0001
0100
0010
0000
1000
0100
,
0020
0000
0000
0000
0030
0000
0000
0000
0001
1000
0001
1000
0001
0000
0000
0000
,
1000
0000
1000
0000
1000
0100
0001
0100
,
0000
0100
1000
0001
0010
0001
0100
0000
,
0001
0100
0001
0100
0010
1000
0010
1000
,
0000
1000
0010
0001
0010
1000
0001
0000
,
0100
0000
0100
0000
0100
0010
1000
0100
,
0000
0100
0001
0100
1000
0001
0010
0000
,
0001
0100
0010
0000
1000
0100
0010
0000
,
0101
1100
1001
0000
,
0000
0010
1000
0010
0100
0010
0100
0010
,
0000
0100
0001
0010
0100
0010
0100
0010
,
0000
0001
1000
0100
0001
0100
1000
0001
,
0100
0010
0100
1000
0100
0010
1000
0001
,
0000
0100
0001
0100
0010
0100
0010
0100
,
0000
0010
1000
0100
0010
0100
0010
0100
,
1000
0001
0010
1000
0010
0001
1000
0100
,
0010
0020
0200
0330
,
0001
0000
0100
0000
0010
0000
1000
0000
0001
0000
0010
0001
0100
0000
0000
0000
,
0010
0000
1000
0000
0100
1000
0100
0000
0010
0001
0010
0001
0010
0000
0000
0000
,
0001
0100
0010
1000
0100
1000
0010
0100
,
0001
0010
1000
0010
0001
0000
1001
0000
,
0100
0000
1000
0000
0010
0000
0100
0000
0001
0000
1000
0100
0010
0000
0000
0000
,
0001
0000
1000
0000
0001
0100
0001
0000
1000
0010
1000
0010
1000
0000
0000
0000
,
0100
0000
1000
0000
0010
0000
0100
0001
0010
0000
0100
0000
1000
0000
0001
0100
,
0010
0010
0100
0100
0220
0000
0330
0000
,
0010
0000
0001
0000
0100
0000
0010
0000
1000
0000
0001
0010
0100
0000
0000
0000
,
1000
0000
0001
0000
1000
0010
1000
0000
0001
0100
0001
0100
0001
0000
0000
0000
,
0010
0000
0001
0000
0100
0000
0010
1000
0100
0000
0010
0000
0001
0000
1000
0010
,
0100
0020
0200
0330
,
1000
0100
1000
0100
0010
0001
0100
0001
,
0100
0010
0100
0010
1000
0001
1000
0100
,
0010
0000
0001
1000
0010
0000
0100
0000
0001
0000
1000
0100
0010
0000
0001
0000
,
1000
0000
0001
1000
0001
0000
0100
0000
0100
0000
0000
0000
0000
0000
0000
0000
,
1001
0000
0000
0000
,
0000
0000
0000
0000
;
#NOTES:
     dance-double:
     :
     Easy:
     7:
     :
00000000
00000000
00000000
00000000
,
00000000
00000000
00000000
00000000
,
00000000
00000000
00000000
00000000
,
00000000
00000000
00000000
00000000
,
00000000
00000000
00000000
00000000
,
00000001
00000001
00000100
00000100
,
00000010
00001000
00000010
00000000
,
00001000
00001000
00000100
00000100
,
00010000
00001000
00010000
00000000
,
00001000
01000000
00010000
00000000
,
00010000
01000000
00100000
00000000
,
10000000
01000000
00100000
00000000
,
00100000
01000000
10000000
00000000
,
00010000
01000000
00010000
01000000
,
00001000
00010000
00001000
00010000
,
00000010
00000000
00001000
00000000
00000010
00000100
00000010
00000000
,
00000000
00000020
00000200
00000330
,
00000001
00001000
00000100
00000010
,
00000100
00001000
00000010
00001000
,
00000100
00010000
00001000
00010000
,
00001000
00100000
00010000
00000000
,
01000000
00010000
00100000
00010000
,
10000000
01000000
00100000
00010000
,
01000000
00010000
00100000
00001000
,
00010000
00001000
00011000
00000000
,
00001000
00010000
00001000
01000000
,
00010000
00000000
00100000
00000000
01000000
10000000
01000000
00000000
,
00100000
00010000
01000000
00010000
,
00100000
00001000
00010000
00000000
,
00000100
00001000
00000010
00001000
,
00000100
00000000
00000010
00000000
00000001
00000100
00000001
00000000
,
00001000
00000100
00010000
00001000
,
00010000
00010000
00011000
00000000
,
00200000
00000000
01300000
00000000
,
01000000
00010000
00001000
00000000
,
00000020
00000000
00000130
00000000
,
00000100
00001000
00010000
00000000
,
00100000
01000000
00100000
00000000
,
00010000
00001000
00010000
00000000
,
00000100
00000010
00000100
00000010
,
00000000
00000020
00000200
00000330
,
00000001
00000100
00000010
00000100
,
00000010
00000000
00001000
00000000
00000100
00001000
00000100
00000000
,
00010000
00001000
00100000
00010000
,
01000000
00100000
01000000
00000000
,
10000000
00010000
01000000
00010000
,
00100000
00000000
00001000
00000000
00010000
00001000
00010000
00000000
,
00000010
00001000
00000100
00000010
,
00000002
00000000
00000000
00000003
,
00000000
00000000
00000001
00000000
00000100
00001000
00000100
00000000
,
00000000
00000000
00000010
00000000
00010000
00001000
00010000
00000000
,
00000000
00000000
00001000
00000000
00100000
00010000
01000000
00000000
,
00000000
00000000
00100000
00000000
10000000
00010000
10000000
00000000
,
01000000
01000000
00010000
00010000
,
00001000
00001000
00000010
00000010
,
00000001
00000100
00001000
00010000
,
00022000
00000000
00000000
00033000
,
01000000
00010000
01000000
00010000
,
00000000
00010000
10000000
00000000
,
01000000
00100000
01000000
00100000
,
00010000
00100000
00001000
00000000
,
00010000
00000100
00010000
00000100
,
00000000
00001000
00000010
00000000
,
00000100
00000001
00000010
00000100
,
00001000
00000100
00010000
00000000
,
00000000
00001000
00100000
00110000
,
00000000
10000000
01000000
11000000
,
00000000
00100000
00001000
00010000
,
00000100
00001000
00000100
00000000
00001000
00000010
00001000
00000000
,
00000000
00000001
00000100
00000101
,
00000000
00001000
00000010
00001010
,
00001000
00000010
00010000
00001000
,
00011000
00002000
00020000
00033000
,
00100000
00000000
00010000
00000000
01000000
00100000
10000000
00000000
,
00100000
01000000
00010000
00100000
,
01000000
00010000
00001000
00010000
,
00001000
00010000
00001000
00000000
00010000
00000000
00000000
00000000
,
00000100
00000000
00001000
00000000
00000001
00000010
00000001
00000000
,
00000100
00000010
00001000
00000100
,
00010000
00001000
00100000
01000000
,
00010000
00001000
00010000
00000000
00022000
00000000
00033000
00000000
,
00000010
00000000
00001000
00000000
00000100
00000010
00000001
00000000
,
00000010
00000100
00001000
00000010
,
00000100
00001000
00010000
00001000
,
00010000
00002000
00020000
00033000
,
01000000
00000000
00010000
00000000
10000000
00100000
10000000
00000000
,
01000000
00100000
00010000
01000000
,
00001000
00010000
00000010
00000100
,
00001000
00010000
00001000
00000000
00011000
00000000
00000000
00000000
,
00011000
00000000
00000000
00000000
,
00000000
00000000
00000000
00000000
;
#NOTES:
     dance-double:
     :
     Medium:
     11:
     :
00000000
00000000
00000000
00000000
,
00000000
00000000
00000000
00000000
,
00000000
00000000
00000000
00000000
,
00000000
00000000
00000000
00000000
,
00000000
00000000
00000000
00000000
,
00000001
00000000
00000010
00000000
00000001
00000010
00000100
00001000
,
00000000
00001000
00000010
00000100
00000010
00000000
00000110
00000000
,
00000100
00000010
00001000
00000000
00000100
00010000
00001000
00000000
,
00010000
00001000
00010000
00000000
00001000
00000000
00000000
00000000
,
00100000
00100000
00010000
00010000
,
10000000
10000000
01000000
00100000
,
00001000
00001000
00010000
00010000
,
00000100
00000100
00001000
00001000
,
00000010
00000100
00000010
00000000
00001000
00000001
00001000
00000000
,
00000100
00000010
00000100
00000000
00001000
00000100
00001000
00000000
,
00000100
00010000
00001000
00000000
00100000
00010000
01000000
00000000
,
00100000
00200000
02000000
03300000
,
10000000
00000000
01000000
00000000
00100000
00010000
00100000
00000000
,
01000000
00100000
00010000
00100000
00001000
00000000
00010000
00000000
,
00000100
00001000
00000100
00001000
00000010
00001000
00000010
00001000
,
00000001
00000100
00000001
00000010
00000001
00000000
00001000
00000000
,
00000010
00000000
00000100
00000000
00000010
00001000
00000010
00000000
,
00001000
00000100
00010000
00001000
00010000
00000000
00001000
00000000
,
01000000
00010000
01000000
00010000
10000000
00100000
10000000
00100000
,
10000000
00010000
20020000
30030000
,
00100000
00000000
01000000
00000000
00010000
00100000
01000000
00000000
,
00100000
00010000
01000000
00010000
00100000
00000000
00001000
00000000
,
00010000
00000100
00010000
00000100
00001000
00000010
00001000
00000010
,
00000100
00001000
00000100
00000001
00000100
00000000
00000010
00000000
,
00001000
00000000
00000100
00000000
00000010
00000001
00001000
00000000
,
00000100
00001000
00000010
00001000
00000100
00000000
00010000
00000000
,
00001000
01000000
00001000
01000000
00010000
00100000
00010000
00100000
,
01000000
00100000
02200000
03300000
,
10020000
10000000
10000000
00000000
,
00100000
00100000
00130000
00000000
,
00002001
00000001
00000001
00000000
,
00000010
00000010
00003010
00000000
,
00020000
01000000
01030000
00000000
,
00002000
00000100
00003100
00000000
,
00020000
00130000
00002000
00003010
,
00000000
00002000
00020000
00033000
,
00010000
00000000
00001000
00000000
00000010
00000100
00000010
00000000
,
00001000
00000000
00010000
00000000
00000010
00000100
00000010
00000000
,
00001000
00000000
00010000
00000000
00100000
01000000
00100000
00000000
,
00010000
00000000
00001000
00000000
00100000
01000000
00100000
00000000
,
00001000
00000000
00010000
00000000
00000010
00000100
00001000
00000000
,
00010000
00000000
00001000
00000000
00100000
01000000
00010000
00000000
,
00001000
00010000
00001000
00000000
00010000
00001000
00010000
00000000
,
00022000
00000000
00000000
00033000
,
00000000
00001000
00010000
00000100
00001000
00000010
00000100
00000001
,
00000000
00000001
00000010
00000100
00001000
00000100
00010000
00001000
,
00000000
00010000
00001000
01000000
00010000
00100000
01000000
10000000
,
00000000
10000000
00100000
01000000
00010000
00100000
00001000
00000000
,
00010000
00000100
00000010
00000000
00000100
00000010
00000001
00000000
,
00000100
00000010
00001000
00000000
00000010
00001000
00000100
00000000
,
00010000
00001000
00100000
00010000
01000000
00100000
10000000
01000000
,
00200000
00000000
00300000
00000000
01000000
01000000
01000000
00000000
,
00100000
00000000
00010000
00000000
10000000
01000000
00100000
00010000
,
00000000
00010000
01000000
00100000
01000000
00001000
00010000
00000000
,
00000100
00001000
00000010
00000000
00000100
00000001
00000010
00000001
,
00000000
00000001
00001000
00000000
00001010
00000000
00000101
00000000
,
00000001
00000000
00000001
00000000
00000001
00000100
00001000
00000100
,
00000000
00000100
00001000
00010000
00001000
00000000
00010000
00000000
,
00100000
01000000
00100000
00000000
10000000
00010000
10000000
00000000
,
01000000
00100000
01000000
00100000
01000000
00000000
00000000
00000000
,
00000000
10000000
01000000
00000000
10000000
00100000
01000000
00100000
,
00000000
01000000
00010000
00000000
00100000
00001000
00010000
00001000
,
00000000
00010000
00001000
00000000
00010000
00000100
00001000
00000000
,
00000010
00001000
00000010
00000000
00000100
00000001
00000100
00000000
,
00000001
00000010
00000100
00000000
00001000
00000100
00000010
00000000
,
00000001
00001000
00000100
00000000
00001000
00000100
00010000
00000000
,
00001000
00100000
00001000
00100000
00010000
00100000
00010000
00100000
,
01000000
00200000
02000000
03300000
,
10000000
00010000
01000000
00000000
01000000
00010000
00100000
00000000
,
00010000
00100000
00001000
00010000
00001000
00000000
00010000
00000000
,
00000100
00001000
00000001
00000000
00000001
00001000
00000100
00000000
,
00000010
00000001
00000010
00000100
00001000
00000000
00000001
00000000
,
00000100
00000010
00001000
00000000
00001000
00000010
00000100
00000000
,
00000010
00001000
00000010
00010000
00001000
00000000
00100000
00000000
,
01000000
00100000
00010000
00100000
00001000
00010000
00000100
00010000
,
00000100
00001000
00000010
00000000
00002002
00000000
00003003
00000000
,
00000001
00001000
00000010
00000000
00000010
00001000
00000100
00000000
,
00001000
00000100
00010000
00001000
00010000
00000000
00001000
00000000
,
00100000
00010000
10000000
00000000
10000000
00010000
00100000
00000000
,
01000000
00200000
02000000
03300000
,
00100000
01000000
00010000
00000000
00010000
01000000
00100000
00000000
,
01000000
00010000
01000000
00001000
00010000
00000000
00000100
00000000
,
00000010
00000100
00001000
00000100
00010000
00001000
00100000
00001000
,
00100000
00010000
01000000
00000000
10010000
00000000
00000000
00000000
,
10010000
00000000
00000000
00000000
,
00000000
00000000
00000000
00000000
;
#NOTES:
     dance-double:
     :
     Hard:
     14:
     :
00000000
00000000
00000000
00000000
,
00000000
00000000
00000000
00000000
,
00000000
00000000
00000000
00000000
,
00000000
00000000
00000000
00000000
,
00000000
00000000
00000000
00000000
,
00000010
00000000
00000010
00000000
00000010
00000001
00000100
00001000
,
00000000
00001000
00010000
00100000
10000000
00100000
00010000
00000000
,
00001000
00010000
01000000
00000000
00010000
00001000
00000100
00000000
,
00000101
00000011
00001001
00000000
,
00000001
00000100
00000001
00000100
,
00000010
00001000
00000010
00001000
,
00010000
01000000
00010000
01000000
,
00100000
10000000
00100000
10000000
,
10000000
01000000
10000000
01000000
00100000
00010000
00100000
00010000
,
00001000
00000100
00001000
00000100
00000010
00000001
00000010
00000001
,
00000100
00000010
00001000
00000100
00010000
00001000
00100000
00010000
,
01000000
00200000
02000000
03300000
,
00010000
00000000
01000000
00000000
00100000
10000000
00100000
00000000
10000000
00000000
00010000
00000000
10000000
00000000
00000000
00000000
,
01000000
00000000
00010000
00000000
00001000
00000000
00000010
00000000
00000001
00001000
00000001
00001000
00000001
00000000
00000000
00000000
,
00000100
00001000
00010000
00001000
00010000
00001000
00000010
00001000
,
00010000
00000010
00001000
00000100
00000010
00000000
00001001
00000000
,
00001000
00000000
00000010
00000000
00000100
00000001
00000100
00000000
00000001
00000000
00001000
00000000
00000001
00000000
00000000
00000000
,
00000100
00000000
00001000
00000000
00010000
00000000
00100000
00000000
10000000
00010000
10000000
00010000
10000000
00000000
00000000
00000000
,
01000000
00010000
01000000
00010000
00001000
00010000
00100000
00010000
,
00100000
00000000
01000000
00001000
01000000
00000000
00001000
00000000
00010000
00000000
00000000
00000000
00011000
00000000
00000000
00000000
,
00010000
00001000
00000010
00000100
00010000
00001000
00000010
00000000
,
00000100
00000000
00010000
00000000
00001000
00000000
00000100
00000000
00000001
00001000
00000001
00001000
00000001
00000000
00000000
00000000
,
00000100
00001000
00000100
00001000
00010000
00100000
00010000
00100000
,
01000000
00001000
00100000
00001000
00010000
00000000
00011000
00000000
,
00001000
00010000
00100000
01000000
00001000
00010000
00100000
00000000
,
01000000
00000000
00001000
00000000
00010000
00000000
01000000
00000000
10000000
00010000
10000000
00010000
10000000
00000000
00000000
00000000
,
01000000
00010000
01000000
00010000
00001000
00000010
00001000
00000010
,
00000100
00010000
00000010
00010000
00001000
00000000
00011000
00000000
,
00021000
00001000
00100000
00100000
,
00001000
00000000
00000000
00000000
00130000
00000000
00000000
00000000
00001000
00000000
00000000
00010000
00000000
00000000
00001000
00000000
,
00012000
00010000
00000010
00000010
,
00010000
00000000
00000000
00000000
00003010
00000000
00000000
00000000
00010000
00000000
00000000
00001000
00000000
00000000
00010000
00000000
,
00021000
01030000
00100000
00001000
,
00012000
00003100
00000010
00010000
,
00021000
00130000
00012000
00003010
,
00000000
00000020
00000200
00000330
,
00000001
00000000
00000100
00000010
00000000
00000100
00000010
00000000
00001000
00000000
00000100
00000000
00000001
00000000
00000100
00000000
,
00010000
00000000
00001000
00010000
00000000
00001000
00010000
00000000
00001000
00000000
01000000
00000000
00010000
00000000
00100000
00000000
,
01000000
00000000
10000000
00100000
00000000
10000000
00100000
00000000
01000000
00000000
00010000
00000000
00100000
00000000
01000000
00000000
,
00010000
00000000
00001000
00010000
00000000
00001000
00010000
00000000
00000100
00000000
00001000
00000000
00000010
00000000
00000000
00000000
,
00000100
00000000
00000001
00000100
00000000
00000010
00000100
00000000
00000001
00000000
00001000
00000000
00000100
00000000
00010000
00000000
,
00001000
00000000
00100000
00010000
00000000
01000000
00010000
00000000
00100000
00000000
01000000
00000000
10000000
00000000
00010000
00000000
,
01000000
00000000
00001000
00010000
00000000
00000100
00010000
00000000
00000010
00000000
00001000
00000000
00000001
00000000
00000100
00000000
,
00000001
00000000
00000100
00000000
00001000
00000000
00020000
00000000
00000000
00030000
00000000
00000000
,
00000000
00000000
00100000
01000000
00100000
00000000
10000000
00000000
00010000
00000000
00100000
00000000
01000000
00000000
00010000
00000000
,
00000000
00000000
00001000
00010000
00001000
00000000
00000010
00000000
00000100
00000000
00001000
00000000
00000001
00000000
00000100
00000000
,
00000000
00000000
00000010
00000100
00000010
00000000
00001000
00000000
00000001
00000000
00000100
00000000
00001000
00000000
00010000
00000000
,
00000000
00000000
00100000
01000000
00100000
00000000
00010000
00000000
00001000
00000000
00010000
00000000
00011000
00000000
00000000
00000000
,
00001000
00000000
00000010
00000001
00000010
00000000
00000000
00000000
00000001
00000000
00000100
00001000
00000100
00000000
00000000
00000000
,
00001000
00000000
00010000
00100000
00010000
00000000
00000000
00000000
00100000
00000000
10000000
01000000
10000000
00000000
00000000
00000000
,
01000000
00000000
00010000
00001000
00010000
00000000
00000010
00001000
00000010
00000000
00010000
00001000
00010000
00000000
00001000
01000000
,
00002000
00000000
00000000
00000000
00003000
00000000
00000000
00000000
00001000
00010000
00001000
00010000
00001000
00000000
00000000
00000000
,
00010000
00000000
00010000
00000000
00010000
00001000
00000010
00000100
,
00000000
00000100
00001000
00000010
00000100
00001000
00010000
00000000
,
00100000
01000000
00100000
01000000
00100000
00010000
00001000
00010000
,
00000000
00010000
01000000
00010000
00001000
00000010
00001000
00000000
,
00010000
00000000
00010000
00000000
00010000
00000100
00001000
00000010
,
00000000
00000010
00000100
00001000
00010000
00001000
00000100
00000000
,
00000010
00010000
00000100
00010000
00001000
01000000
00001000
00010000
,
00001000
00001000
00010000
00010000
00011000
00000000
00000000
00000000
,
00000000
00000010
00001000
00000100
00000010
00000001
00001000
00000001
,
00000000
00000100
00001000
00010000
00001000
00100000
00001000
00010000
,
00000000
00001000
01000000
00010000
00100000
01000000
00100000
00010000
,
10000000
00100000
01000000
00100000
00010000
00001000
00010000
00001000
,
00000000
00010000
00000100
00001000
00000010
00010000
00000100
00001000
,
00000000
00000010
00000100
00000001
00000010
00000100
00000010
00000001
,
00001000
00000100
00010000
00001000
00100000
00010000
01000000
00100000
,
10000000
00200000
02000000
03300000
,
10000000
00000000
01000000
00000000
10000000
00000000
00100000
00000000
01000000
00000000
00010000
00100000
00010000
00000000
00000000
00000000
,
00100000
00000000
00001000
00000000
00010000
00001000
00010000
00000000
00000010
00001000
00000010
00001000
00000010
00000000
00000000
00000000
,
00000100
00000001
00000100
00001000
00010000
00000100
00001000
00000100
,
00000010
00001000
00010000
00001000
00010000
00000000
00011000
00000000
,
00000100
00000000
00001000
00000000
00000010
00000000
00000100
00000000
00000001
00000000
00001000
00000100
00001000
00000000
00000000
00000000
,
00000010
00000000
00000100
00000000
00001000
00010000
00001000
00000000
00100000
00010000
00100000
00010000
00100000
00000000
00000000
00000000
,
00010000
01000000
10000000
01000000
00010000
00100000
10000000
00100000
,
00010000
00100000
00001000
00010000
00022000
00000000
00033000
00000000
,
00001000
00010000
00000010
00000100
00001000
00000100
00000010
00010000
,
00001000
00100000
00010000
01000000
00100000
00010000
00100000
01000000
,
00010000
00100000
00001000
00010000
00000010
00001000
00000100
00010000
,
00001000
00002000
00020000
00033000
,
00001000
00010000
00100000
10000000
01000000
00100000
00001000
00010000
,
01000000
00100000
00001000
00010000
00000100
00001000
00000010
00000100
,
00000001
00000000
00000010
00000100
00001000
00000000
00000100
00000000
00010000
00000000
00001000
01000000
00010000
00000000
00100000
00000000
,
00010000
00000000
01000000
00100000
01000000
00000000
00100000
00000000
00100000
00000000
00000000
00000000
00000000
00000000
00000000
00000000
,
10010000
00000000
00000000
00000000
,
00000000
00000000
00000000
00000000
;
