
//----- song ID: twiw -----//
#TITLE:Twinkle Wonderland;
#ARTIST:Qrispy Joybox feat.Sana;
#BANNER:Twinkle Wonderland.png;
#BACKGROUND:Twinkle Wonderland-bg.png;
#CDTITLE:./CDTitles/REFLEC BEAT limelight.png;
#MUSIC:Twinkle Wonderland.ogg;
#SAMPLESTART:42.04;
#SAMPLELENGTH:15;
#BPMS:0=188;
#NOTES:
     dance-single:
     :
     Beginner:
     3:
     :
0000
0000
0000
0000
,
0000
0000
0000
0000
,
0000
0000
0000
0000
,
0000
0000
0000
0000
,
0000
0000
0000
0000
,
0100
0000
0000
0000
,
0010
0000
0000
0000
,
1001
0000
0000
0000
,
1001
0000
0000
0000
,
0010
0000
0010
0000
,
0100
0000
0100
0000
,
0001
0000
0001
0000
,
1000
0000
1000
0000
,
0100
0000
0100
0000
,
0010
0000
0010
0000
,
0110
0000
0000
0000
,
1001
0000
0000
0000
,
0100
0000
0010
0000
,
0100
0000
0010
0000
,
1000
0000
0100
0000
,
1000
0000
0100
0000
,
0010
0000
0001
0000
,
0010
0000
0001
0000
,
0100
0000
0001
0000
,
1001
0000
0000
0000
,
2000
0000
3000
0000
,
0010
0000
0010
0000
,
0002
0000
0003
0000
,
0100
0000
0100
0000
,
0020
0000
0030
0000
,
1000
0000
1000
0000
,
0200
0000
0300
0000
,
0020
0000
0030
0000
,
0001
0000
0100
0000
,
0002
0000
0000
0000
,
0000
0000
0003
0000
,
1000
0000
1000
0000
,
0010
0000
1000
0000
,
0200
0000
0000
0000
,
0000
0000
0300
0000
,
1001
0000
0000
0000
,
0001
0000
0100
0000
,
0010
0000
1000
0000
,
0100
0000
0010
0000
,
0001
0000
0010
0000
,
1000
0000
0001
0000
,
0100
0000
0010
0000
,
1000
0000
0000
0000
,
0001
0000
0000
0000
,
0200
0000
0300
0000
,
0020
0000
0030
0000
,
2000
0000
0000
0000
,
3000
0000
0000
0000
,
0200
0000
0300
0000
,
0020
0000
0030
0000
,
0001
0000
0000
0000
,
1000
0000
0000
0000
,
0100
0000
0100
0000
,
0010
0000
0010
0000
,
0001
0000
0001
0000
,
1000
0000
1000
0000
,
0001
0000
0100
0000
,
0001
0000
0100
0000
,
0110
0000
0000
0000
,
1001
0000
0000
0000
,
1000
0000
0100
0000
,
0010
0000
0001
0000
,
1000
0000
0100
0000
,
0010
0000
0001
0000
,
0100
0000
0010
0000
,
1000
0000
0001
0000
,
1000
0000
0000
0000
,
1001
0000
0000
0000
,
0010
0000
0000
0000
,
0100
0000
0000
0000
,
1001
0000
0000
0000
,
0000
0000
0000
0000
;
#NOTES:
     dance-single:
     :
     Easy:
     7:
     :
0000
0000
0000
0000
,
0000
0000
0000
0000
,
0000
0000
0000
0000
,
0000
0000
0000
0000
,
0000
0000
0000
0000
,
0010
0000
0010
0000
,
0100
0001
0100
0000
,
0010
0000
1000
0000
,
0000
0001
0000
0010
0000
0001
0000
0000
,
0100
0001
0020
0030
,
0001
1000
0010
0100
,
0001
1000
0100
0010
,
0200
1300
0200
0310
,
0001
2000
3010
0000
,
0002
2003
3010
0100
,
0001
0000
0000
1000
0000
0000
0000
2002
,
0000
0000
0000
3003
,
0110
0000
0110
0000
,
1000
0010
1000
0010
,
0110
0000
1001
0000
,
0010
0100
0010
1000
,
1001
0000
0110
0000
,
1000
0100
0010
0100
,
0110
0000
0000
0000
1001
0000
0000
0010
,
0000
0100
0000
0010
0000
0000
0000
0000
,
0002
0003
2000
3000
,
0100
0100
0110
0000
,
2000
3000
0002
0003
,
0200
0310
1000
0000
,
0002
0003
0020
0030
,
0001
1000
0010
1000
,
0100
0000
0000
0001
0000
0000
0100
0000
,
0000
1001
0000
0000
0110
0000
0000
0000
,
2000
0000
3010
0000
,
0002
0100
0100
0000
,
1000
0000
0013
0000
,
0100
1000
0100
0010
,
0200
0000
1300
0000
,
0020
0100
0100
0000
,
1000
0000
0000
0000
0130
0000
0000
1000
,
0000
0001
0000
0000
0000
0000
0000
0000
,
0110
0000
1001
0000
,
0002
0103
2000
3100
,
1001
0000
0110
0000
,
0020
1030
0200
0301
,
0110
0000
1001
0000
,
0200
0310
0002
1003
,
0020
0000
0030
0200
,
0000
0000
0000
0300
,
0002
0000
0000
0003
,
2000
0000
0000
3000
,
0020
0000
0000
0000
,
0000
0000
0030
0100
,
0002
0000
0000
0003
,
0020
0000
0000
0030
,
0100
0000
0100
0000
,
0000
1000
0000
0001
0000
1000
0000
0000
,
0010
1000
0001
0010
,
0200
1300
0020
0130
,
0001
1000
0100
0010
,
0002
0103
0020
1030
,
0001
0100
1000
0100
,
0020
0031
0200
0310
,
1000
0000
0000
0001
0000
0000
0000
2002
,
0000
0000
0000
3003
,
0001
0100
0010
0100
,
0010
0000
1000
0000
0001
1000
0001
0000
,
0010
0001
0100
0001
,
1000
0100
0010
0001
,
1000
0100
0010
0100
,
0010
0000
0001
0000
1000
0001
1000
0000
,
0010
0000
0000
1000
0000
0000
0000
0002
,
0000
0000
0000
0003
,
1001
0000
0000
0000
0000
0000
0000
0110
,
0000
0000
0000
0000
,
2002
0000
0000
0000
,
0000
0000
0000
0000
,
3003
0000
0000
0000
,
0000
0000
0000
0000
;
#NOTES:
     dance-single:
     :
     Medium:
     10:
     :
0000
0000
0000
0000
,
0000
0000
0000
0000
,
0000
0000
0000
0000
,
0000
0000
0000
0000
,
0000
0000
0000
0000
,
0001
0010
0001
0010
0000
0100
1000
0100
,
0000
0010
0100
0000
1000
0001
1000
0000
,
0100
0000
0010
0000
,
0000
1000
0000
0001
0000
1001
0000
0000
,
1000
0100
0020
0130
,
1000
0000
0001
0000
0100
0010
0100
0000
,
0001
0100
0010
0100
,
0002
0000
2003
0000
3200
0000
0310
0010
,
0001
2000
3010
0100
,
0002
2003
3010
1000
,
0110
0000
0000
1001
0000
0000
0000
0220
,
0000
0000
0000
0330
,
0011
0000
0101
0000
1000
1000
0000
1010
,
0000
0110
0000
0000
0001
0010
0001
0000
,
1100
0000
1010
0000
0001
0001
0000
0101
,
0000
0110
0000
0000
1000
0100
1000
0000
,
1001
0000
0110
0000
0010
0010
0000
1001
,
0000
0101
0000
0000
0010
1000
0010
0000
,
0101
0000
1100
0000
0001
0001
0000
1000
,
0000
0010
0000
0001
0000
0010
0000
1000
,
2000
3100
0002
0103
,
0010
0000
0010
0000
1000
0100
1000
0000
,
0001
1000
0020
1030
,
0200
0000
1300
0000
0001
0010
0001
0010
,
0100
0000
0010
0000
0100
1000
0100
0000
,
1000
0000
0010
0000
0100
0001
0100
0000
,
0010
0010
0000
2000
0000
0000
3001
0000
,
0000
0110
0000
0000
1001
0000
0000
0000
,
0020
0000
1000
0000
0100
0130
0000
0200
,
0001
0000
0001
0000
0000
0010
0000
0000
,
0001
0000
0001
0000
0001
0301
0000
1000
,
1000
0000
0100
0100
0000
0010
0000
0000
,
0002
0000
0100
0000
1000
1003
0000
2000
,
0010
0000
0010
0000
0000
0001
0000
0000
,
0100
0000
0100
0000
0010
0000
3010
0010
,
0000
1001
0000
0000
0000
0000
0000
0000
,
0010
0000
0000
0010
1000
0000
0001
0020
,
0000
0130
0000
0000
1000
0100
1000
0000
,
0001
2000
0000
3100
0010
0000
0001
0200
,
0000
0310
0000
2000
0000
3010
0000
0000
,
0100
0002
0000
1003
0100
0000
0010
0200
,
0000
0320
0000
0031
0000
0001
0000
0000
,
0100
0200
0000
0310
0000
0000
0110
0000
,
0000
2002
0000
0000
0000
0000
3003
0000
,
0200
0000
0000
0000
0000
0000
0000
0320
,
0000
0000
0130
0000
,
0002
0000
0000
0100
0000
0000
0000
0020
,
0000
0000
0033
1000
,
0020
0000
0000
0000
0000
0000
0000
0230
,
0000
0000
0000
0300
,
0110
0000
1001
0000
,
0000
0010
0000
0100
0000
0020
0000
0000
,
1030
0000
0001
0000
0010
0001
0010
0000
,
0200
2300
3002
0103
,
0010
0000
1000
0000
0100
0010
0100
0000
,
2000
3002
0203
0320
,
1030
0000
0001
0000
0100
0010
0100
0000
,
0002
0023
0230
0320
,
0031
0000
0000
0110
0000
0000
0000
2002
,
0000
0000
0000
3003
0000
0001
0000
0001
,
1000
0010
0100
0000
0001
0010
0100
0000
,
1000
0010
1000
0010
0000
1001
0000
0000
,
0010
1000
0100
0000
0010
0001
0100
0000
,
0010
1000
0010
1000
0000
0110
0000
0000
,
0001
1000
0100
0000
0010
0001
1000
0000
,
0001
0010
0100
1000
0000
0010
0000
0000
,
0110
0000
0000
1001
0000
0000
0000
0220
,
0000
0000
0000
0330
,
1010
0000
0000
0000
0000
0000
0000
0101
,
0000
0000
0000
0000
,
0220
0000
0000
0000
,
0000
0000
0000
0000
,
0330
0000
0000
0000
,
0000
0000
0000
0000
;
#NOTES:
     dance-single:
     :
     Hard:
     13:
     :
0000
0000
0000
0000
,
0000
0000
0000
0000
,
0000
0000
0000
0000
,
0000
0000
0000
0000
,
0000
0000
0000
0000
,
1000
0100
0001
0100
0000
0010
0001
1000
,
0000
0000
0010
0100
0010
0100
0010
0000
1000
0000
0010
0000
0001
0000
0010
0000
,
0110
0000
1001
0000
,
0000
1010
0000
1001
0000
0011
0000
0000
,
0100
1000
0100
0000
0020
0000
0031
1000
,
0100
1000
0010
0100
0000
0101
0000
1010
,
0000
0100
0100
0000
0010
0000
0001
0200
,
0010
0320
1000
2030
0100
3100
0010
0001
,
0000
1000
2000
0000
3010
0000
0100
0001
,
1000
0100
0001
0100
0010
0001
0000
0000
,
1010
0100
0010
0001
0100
1000
0000
2002
,
0000
0000
0000
3003
,
1100
0000
0011
0000
1000
0010
0000
0101
,
0000
1010
0000
0001
0010
1000
0010
0001
,
1001
0000
1100
0000
0001
0010
0000
1010
,
0000
0101
0000
1000
0010
0001
0010
1000
,
1001
0000
0011
0000
1000
0010
0000
1100
,
0000
0011
0000
1000
0100
0001
0100
1000
,
1010
0000
0101
0000
0010
0100
0000
1100
,
0000
0101
0000
0011
0000
1010
0000
0100
,
0010
0001
0100
0010
1000
0100
1000
0001
,
0000
0110
0000
0000
1000
0010
0100
0001
,
0100
0010
1000
0001
2000
0000
3100
2000
,
0000
3001
0100
0110
0000
0101
0000
1100
,
0010
0001
1000
0100
0001
0000
0110
0001
,
0000
1000
0000
0000
0001
0100
0001
0100
,
0010
1000
0000
0200
0000
0000
0310
0000
,
0000
0011
0000
0000
1100
0000
0000
0000
,
0102
0000
1000
0000
1000
0013
0000
2000
,
0001
0000
0001
0100
0000
0001
0000
0010
,
0010
0000
0100
0000
0100
3001
0000
0001
,
0100
0000
1000
0100
0000
0010
0000
0000
,
0120
0000
0001
0000
0100
0031
0000
0200
,
0010
0000
0001
0010
0000
1000
0000
0010
,
0010
0000
0001
0000
0010
1000
0300
0110
,
0000
0101
0000
0000
0000
0000
0000
0000
,
0010
1000
0100
1000
0010
0000
0100
0002
,
0000
0013
0000
0000
0100
1000
0010
0001
,
0010
0200
0001
0301
1000
0000
0010
0120
,
0000
1030
0100
0002
0000
0103
0000
1100
,
0001
0020
0100
0130
1000
0000
0010
2010
,
0000
3200
0000
0310
0000
1001
0000
0000
,
0001
0010
1000
0010
0001
0000
0101
0000
,
0000
0220
0000
0000
0000
0000
0330
0000
,
2000
0000
0000
3002
0000
0000
0000
0100
,
0000
0000
0023
0000
,
0230
0000
0000
2300
0000
0000
0000
3020
,
0000
0000
0000
0100
,
2030
0000
0000
0000
0000
0000
0000
3002
,
0000
0000
0000
0003
,
0011
0000
0101
0000
,
0000
1100
0000
1010
0000
0220
0000
0330
,
0001
0100
0100
0010
1000
0000
0100
0020
,
0100
0032
1000
0203
0001
0310
0000
1000
,
0000
0001
0001
1000
0100
0000
1000
0020
,
1000
0230
0001
0320
0100
2030
0100
3100
,
0000
1000
0010
0001
0010
0000
1000
0020
,
0100
2030
0100
3002
0100
2003
0000
3000
,
1001
0100
0010
0001
0010
0100
0000
2002
,
0000
0000
0000
3003
0000
0100
0000
0100
,
0010
1000
0100
0010
1000
0001
0100
1000
,
0010
0001
0010
1001
0000
1100
0000
0000
,
0010
0100
0001
0010
0100
0001
1000
0010
,
0001
0100
1000
0100
0000
0101
0000
1001
,
0010
0100
1000
0010
0001
0010
1000
0100
,
0001
0100
1000
0010
0000
0100
0000
0000
,
1010
0000
0000
0101
0000
0000
0000
0022
,
0000
0000
0000
0033
,
0110
0000
0000
0000
0000
0000
0000
1010
,
0000
0000
0000
0000
,
2002
0000
0000
0000
,
0000
0000
0000
0000
,
3003
0000
0000
0000
,
0000
0000
0000
0000
;
#NOTES:
     dance-double:
     :
     Easy:
     7:
     :
00000000
00000000
00000000
00000000
,
00000000
00000000
00000000
00000000
,
00000000
00000000
00000000
00000000
,
00000000
00000000
00000000
00000000
,
00000000
00000000
00000000
00000000
,
00001000
00000000
00001000
00000000
,
00010000
00100000
01000000
00000000
,
00010000
00000000
10000000
00000000
,
00000000
01000000
00000000
00010000
00000000
00001000
00000000
00000000
,
00010000
00001000
00020000
00030000
,
00000100
00001000
00000001
00000010
,
00001000
00010000
00100000
10000000
,
02000000
03100000
00020000
01030000
,
00001000
00020000
00030100
00000000
,
00002000
00003002
00000103
00000010
,
00001000
00000000
00000000
00000100
00000000
00000000
00000000
00022000
,
00000000
00000000
00000000
00033000
,
00011000
00000000
00110000
00000000
,
10000000
01000000
00010000
00001000
,
00011000
00000000
00001100
00000000
,
00000001
00000010
00001000
00010000
,
00011000
00000000
01010000
00000000
,
10000000
00100000
00010000
00001000
,
00011000
00000000
00000000
00000000
00001010
00000000
00000000
00010000
,
00000000
00001000
00000000
00010000
00000000
00000000
00000000
00000000
,
00002000
00003000
00020000
00030000
,
00001000
00100000
01100000
00000000
,
20000000
30000000
00020000
00030000
,
00200000
00301000
00010000
00000000
,
00000200
00000300
00002000
00003000
,
00000001
00001000
00000100
00010000
,
00001000
00000000
00000000
01000000
00000000
00000000
00010000
00000000
,
00000000
10000000
00000000
00000000
01100000
00000000
00000000
00000000
,
00010000
00000000
00100000
00000000
,
00002000
00000000
00000000
00000000
,
00000000
00000000
00003000
00000000
,
00010000
00001000
00010000
00000000
,
00001000
00000000
00000100
00000000
,
00020000
00000000
00000000
00000000
,
00000000
00000000
00000000
00000000
00000000
00000000
00030000
00001000
,
00000000
00001000
00000000
00000000
00000000
00000000
00000000
00000000
,
00011000
00000000
00001001
00000000
,
00000020
00001030
00000200
00010300
,
00011000
00000000
10010000
00000000
,
02000000
03010000
00200000
00301000
,
00011000
00000000
00001001
00000000
,
00000200
00001300
00000020
00010030
,
00002000
00000000
00003000
00020000
,
00000000
00000000
00000000
00030000
,
02000000
00000000
00000000
03000000
,
20000000
00000000
00000000
30000000
,
00200000
00000000
00000000
00000000
,
00000000
00000000
00300000
10000000
,
02000000
00000000
00000000
03000000
,
00020000
00000000
00000000
00030000
,
00001000
00000000
00010000
00000000
,
00000000
00001000
00000000
00010000
00000000
00000100
00000000
00000000
,
00001000
00000100
00000010
00000001
,
00000200
00001300
00020000
01030000
,
10000000
00100000
01000000
00010000
,
02000000
03001000
00020000
00030100
,
00001000
00000001
00000010
00001000
,
00020000
00031000
00200000
00310000
,
10000000
00000000
00000000
01000000
00000000
00000000
00000000
00020000
,
00000000
00000000
00000000
00030000
,
00001000
00010000
00001000
00010000
,
00000100
00000000
00001000
00000000
00000010
00000100
00000010
00000000
,
00010000
00001000
00010000
00001000
,
00100000
00001000
00010000
00000000
,
00001000
00000100
00000001
00000010
,
00001000
00000000
00010000
00000000
00001000
00010000
00001000
00000000
,
00100000
00000000
00000000
00010000
00000000
00000000
00000000
02000000
,
00000000
00000000
00000000
03000000
,
01100000
00000000
00000000
00000000
00000000
00000000
00000000
00011000
,
00000000
00000000
00000000
00000000
,
00000220
00000000
00000000
00000000
,
00000000
00000000
00000000
00000000
,
00000330
00000000
00000000
00000000
,
00000000
00000000
00000000
00000000
;
#NOTES:
     dance-double:
     :
     Medium:
     10:
     :
00000000
00000000
00000000
00000000
,
00000000
00000000
00000000
00000000
,
00000000
00000000
00000000
00000000
,
00000000
00000000
00000000
00000000
,
00000000
00000000
00000000
00000000
,
10000000
01000000
10000000
01000000
00000000
00010000
00001000
00000100
,
00000000
00000001
00000010
00000000
00000100
00001000
00000100
00000000
,
00010000
00000000
00001000
00000000
,
00000000
00100000
00000000
00010000
00000000
10010000
00000000
00000000
,
01000000
00100000
20000000
30010000
,
00100000
00000000
00001000
00000000
00010000
00001000
00010000
00000000
,
00000010
00001000
00000001
00000010
,
00000002
00000000
00002003
00000000
00003200
00000000
00010300
00010000
,
00001000
02000000
03010000
00100000
,
00020000
20030000
31000000
00100000
,
00110000
00000000
00000000
00011000
00000000
00000000
00000000
00000220
,
00000000
00000000
00000000
00000330
,
00001010
00000000
00001100
00000000
00010000
00010000
00000000
00011000
,
00000000
01010000
00000000
00000000
00100000
10000000
00100000
00000000
,
01010000
00000000
00011000
00000000
00000010
00000010
00000000
00001100
,
00000000
00000101
00000000
00000000
00000010
00001000
00000010
00000000
,
00011000
00000000
00110000
00000000
10000000
10000000
00000000
11000000
,
00000000
01010000
00000000
00000000
00001000
00010000
00001000
00000000
,
00001010
00000000
00000101
00000000
00001000
00001000
00000000
00000001
,
00000000
00000100
00000000
00001000
00000000
00010000
00000000
01000000
,
20000000
30100000
00020000
01030000
,
00001000
00000000
00001000
00000000
00010000
00000100
00010000
00000000
,
00000010
00001000
00000002
00000103
,
00002000
00000000
00003100
00000000
00010000
00001000
00010000
00001000
,
01000000
00000000
00010000
00000000
00100000
01000000
00100000
00000000
,
10000000
00000000
01000000
00000000
00010000
00001000
00010000
00000000
,
00000100
00000100
00000000
00002000
00000000
00000000
00003010
00000000
,
00000000
00000110
00000000
00000000
00000101
00000000
00000000
00000000
,
00000020
00000000
00001000
00000000
00010000
00010030
00000000
00002000
,
00100000
00000000
00100000
00000000
00000000
00010000
00000000
00000000
,
01000000
00000000
01000000
00000000
01000000
01003000
00000000
00010000
,
00010000
00000000
10000000
10000000
00000000
00100000
00000000
00000000
,
02000000
00000000
00010000
00000000
00001000
03001000
00000000
00020000
,
00000100
00000000
00000100
00000000
00000000
00001000
00000000
00000000
,
00000010
00000000
00000010
00000000
00000100
00000000
00030100
00000100
,
00000000
00001100
00000000
00000000
00000000
00000000
00000000
00000000
,
00000001
00000000
00000000
00000010
00001000
00000000
00010000
00200000
,
00000000
10300000
00000000
00000000
01000000
10000000
01000000
00000000
,
00010000
00002000
00000000
00003100
00000001
00000000
00001000
00000020
,
00000000
00010030
00000000
00002000
00000000
01003000
00000000
00000000
,
00010000
20000000
00000000
31000000
00100000
00000000
00010000
02000000
,
00000000
03002000
00000000
00013000
00000000
00000100
00000000
00000000
,
00001000
00002000
00000000
00003010
00000000
00000000
00000110
00000000
,
00000000
00002002
00000000
00000000
00000000
00000000
00003003
00000000
,
00000020
00000000
00000000
00000000
00000000
00000030
00000000
00020000
,
00000000
00000000
00031000
00000000
,
02000000
00000000
00000000
00010000
00000000
00000000
00000000
00200000
,
00000000
00000000
03300000
10000000
,
02000000
00000000
00000000
00000000
00000000
03000000
00000000
00200000
,
00000000
00000000
00000000
00300000
,
00011000
00000000
00000110
00000000
,
00000000
00000001
00000000
00000010
00000000
00002000
00000000
00000000
,
00013000
00000000
00001000
00000000
00010000
00100000
10000000
00000000
,
02000000
03020000
00032000
00003100
,
00000001
00000000
00000100
00000000
00000001
00000010
00001000
00000000
,
00020000
00230000
20300000
30020000
,
01030000
00000000
00100000
00000000
10000000
01000000
00010000
00000000
,
00002000
00003200
00000302
00000023
,
00000130
00000000
00000000
00011000
00000000
00000000
00000000
02020000
,
00000000
00000000
00000000
03030000
00000000
10000000
00000000
10000000
,
00100000
01000000
00010000
00000000
10000000
01000000
00010000
00000000
,
00001000
00010000
00001000
00010000
00000000
00011000
00000000
00000000
,
00000100
00001000
00000010
00000000
00000100
00000001
00001000
00000000
,
00000100
00010000
00000100
00010000
00000000
00011000
00000000
00000000
,
00100000
00010000
10000000
00000000
00100000
01000000
00010000
00000000
,
10000000
00100000
00010000
00001000
00000000
00000010
00000000
00000000
,
00000110
00000000
00000000
00001100
00000000
00000000
00000000
00022000
,
00000000
00000000
00000000
00033000
,
00110000
00000000
00000000
00000000
00000000
00000000
00000000
00011000
,
00000000
00000000
00000000
00000000
,
00002200
00000000
00000000
00000000
,
00000000
00000000
00000000
00000000
,
00003300
00000000
00000000
00000000
,
00000000
00000000
00000000
00000000
;
#NOTES:
     dance-double:
     :
     Hard:
     13:
     :
00000000
00000000
00000000
00000000
,
00000000
00000000
00000000
00000000
,
00000000
00000000
00000000
00000000
,
00000000
00000000
00000000
00000000
,
00000000
00000000
00000000
00000000
,
00000001
00000100
00000010
00001000
00000000
00000100
00010000
00001000
,
00000000
00000000
00010000
00001000
00010000
00001000
00010000
00000000
01000000
00000000
10000000
00000000
01000000
00000000
00100000
00000000
,
01100000
00000000
00110000
00000000
,
00000000
00011000
00000000
00001100
00000000
00000110
00000000
00000000
,
00000001
00000100
00000001
00000000
00002000
00000000
00003010
00010000
,
00001000
00100000
00010000
01000000
00000000
01100000
00000000
10100000
,
00000000
01000000
01000000
00000000
00100000
00000000
00001000
00020000
,
00000100
00030200
00001000
00002300
00000010
00003010
00000100
00000001
,
00000000
00000010
00000020
00000000
00000031
00000000
00000100
00001000
,
00010000
00001000
00010000
00100000
10000000
00010000
00000000
00000000
,
10000000
01000000
00010000
00001000
00000100
00000001
00000000
00002002
,
00000000
00000000
00000000
00003003
,
00001100
00000000
00011000
00000000
01000000
00010000
00000000
10100000
,
00000000
11000000
00000000
00100000
10000000
01000000
00010000
00001000
,
00000100
00000000
00000101
00000000
00000010
00001000
00000000
00001100
,
00000000
00011000
00000000
00010000
00100000
10000000
00100000
00010000
,
00001000
00000000
00001010
00000000
00000001
00000010
00000000
00001010
,
00000000
00011000
00000000
00010000
01000000
10000000
01000000
00100000
,
01000000
00000000
00110000
00000000
10000000
01000000
00000000
01010000
,
00000000
00011000
00000000
00001010
00000000
00000011
00000000
00000100
,
00000010
00000001
00000100
00001000
00000100
00001000
00010000
00001000
,
00000000
00011000
00000000
00000000
00100000
00010000
01000000
00100000
,
10000000
00010000
01000000
00001000
00020000
00000000
00030100
00002000
,
00000000
00003001
00000100
00000110
00000000
00000101
00000000
00001100
,
00000010
00000001
00000100
00001000
00010000
00000000
01000000
10000000
,
00000000
00100000
00000000
00000000
01000000
00010000
01000000
00010000
,
00100000
00001000
00000000
00020000
00000000
00000000
00030010
00000000
,
00000000
00001010
00000000
00000000
00000101
00000000
00000000
00000000
,
00002010
00000000
00000001
00000000
00000001
00000100
00000000
00023000
,
00100000
00000000
00100000
10000000
00000000
01000000
00000000
10000000
,
10000000
00000000
01000000
00000000
10000000
01030000
00000000
00010000
,
01000000
00000000
00100000
10000000
00000000
01000000
00000000
00000000
,
10020000
00000000
00100000
00000000
10000000
00100000
00000000
00032000
,
00000100
00000000
00000100
00000001
00000000
00000010
00000000
00000001
,
00000001
00000000
00000010
00000000
00000001
00000010
00003000
00011000
,
00000000
00001010
00000000
00000000
00000000
00000000
00000000
00000000
,
00000001
00000010
00001000
00010000
00100000
00000000
10000000
02000000
,
00000000
03100000
00000000
00000000
00100000
00010000
01000000
10000000
,
01000000
00010000
00100000
00001000
00010000
00000000
00000100
00002000
,
00000000
00003010
00000001
00000020
00000000
00000130
00000000
00001000
,
00000010
00020000
00001000
00031000
00100000
00000000
00010000
00020000
,
00000000
20030000
00000000
31000000
00000000
01100000
00000000
00000000
,
00010000
02000000
00001000
03001000
00010000
00000000
00011000
00000000
,
00000000
00002002
00000000
00000000
00000000
00000000
00003003
00000000
,
00000200
00000000
00000000
00002300
00000000
00000000
00000000
00010000
,
00000000
00000000
00203000
00000000
,
00320000
00000000
00000000
20030000
00000000
00000000
00000000
32000000
,
00000000
00000000
00000000
00010000
,
03200000
00000000
00000000
00000000
00000000
00000000
00000000
00302000
,
00000000
00000000
00000000
00003000
,
00011000
00000000
00001010
00000000
,
00000000
00000101
00000000
00001100
00000000
00022000
00000000
00033000
,
00100000
00010000
01000000
00100000
10000000
00000000
01000000
00020000
,
00100000
00230000
00001000
00302000
00010000
00013000
00000000
00000010
,
00000000
00001000
00001000
00000001
00000010
00000000
00000100
00020000
,
00001000
00032000
00010000
00023000
01000000
01030000
00100000
00010000
,
00000000
10000000
01000000
00010000
00001000
00000000
00000100
00000002
,
00000010
00000023
00000100
00000230
00010000
00020300
00000000
00030000
,
00001000
00010000
00100000
10000000
00100000
00010000
00000000
00022000
,
00000000
00000000
00000000
00033000
00000000
00001000
00000000
00001000
,
00000100
00000001
00000100
00001000
00010000
00100000
00010000
00001000
,
00010000
01000000
10000000
01000000
00000000
01010000
00000000
00000000
,
10000000
01000000
00010000
00001000
00000010
00001000
00010000
00001000
,
00000100
00000001
00000100
00001000
00000000
00011000
00000000
00110000
,
10000000
00100000
00010000
00001000
00000010
00000001
00000100
00001000
,
00010000
01000000
10000000
00010000
00000000
00100000
00000000
00000000
,
00011000
00000000
00000000
00001010
00000000
00000000
00000000
00000202
,
00000000
00000000
00000000
00000303
,
00001001
00000000
00000000
00000000
00000000
00000000
00000000
00011000
,
00000000
00000000
00000000
00000000
,
20020000
00000000
00000000
00000000
,
00000000
00000000
00000000
00000000
,
30030000
00000000
00000000
00000000
,
00000000
00000000
00000000
00000000
;
