
//----- song ID: tuio -----//
#TITLE:追憶のアリア;
#ARTIST:Blanc Bunny Bandit;
#TITLETRANSLIT:Tsuioku no aria;
#BANNER:Tsuioku no aria.png;
#BACKGROUND:Tsuioku no aria-bg.png;
#CDTITLE:./CDTitles/DDR A20 PLUS.png;
#MUSIC:Tsuioku no aria.ogg;
#SAMPLESTART:59.873;
#SAMPLELENGTH:15;
#BPMS:0=130;
#NOTES:
     dance-single:
     :
     Beginner:
     2:
     :
0000
0000
0000
0000
,
0000
0000
0000
0000
,
0000
0000
0000
0000
,
0000
0000
0000
0000
,
0000
0000
0000
0000
,
0001
0000
0001
0000
,
0010
0000
0000
0000
,
1000
0000
1000
0000
,
0010
0000
0000
0000
,
1000
0000
0100
0000
,
1000
0000
0000
0000
,
0200
0000
0000
0000
,
0300
0000
0000
0000
,
0001
0000
0100
0000
,
0001
0000
0000
0000
,
0200
0000
0000
0000
,
0300
0000
0000
0000
,
0001
0000
0010
0000
,
0100
0000
0000
0000
,
0020
0000
0000
0000
,
0030
0000
0000
0000
,
2000
0000
0000
0000
,
3000
0000
0000
0000
,
0002
0000
0000
0000
,
0003
0000
0000
0000
,
1000
0000
1000
0000
,
0010
0000
0000
0000
,
0010
0000
0010
0000
,
0001
0000
0000
0000
,
0100
0000
0100
0000
,
1000
0000
0000
0000
,
0001
0000
0001
0000
,
0100
0000
0000
0000
,
0010
0000
0001
0000
,
0100
0000
0001
0000
,
0010
0000
1000
0000
,
0010
0000
0000
0000
,
0100
0000
1000
0000
,
0010
0000
1000
0000
,
0100
0000
0001
0000
,
0010
0000
0000
0000
,
0001
0000
0100
0000
,
0001
0000
0100
0000
,
0010
0000
1000
0000
,
0010
0000
0000
0000
,
1000
0000
0100
0000
,
1000
0000
0100
0000
,
0010
0000
0001
0000
,
0010
0000
0000
0000
,
1001
0000
0000
0000
,
0010
0000
1000
0000
,
0200
0000
0000
0000
,
0300
0000
0000
0000
,
1001
0000
0000
0000
,
0010
0000
0001
0000
,
0200
0000
0000
0000
,
0300
0000
0000
0000
,
1001
0000
0000
0000
,
0000
0000
0000
0000
;
#NOTES:
     dance-single:
     :
     Easy:
     4:
     :
0000
0000
0000
0000
,
0000
0000
0000
0000
,
0000
0000
0000
0000
,
0000
0000
0000
0000
,
0000
0000
0000
0000
,
1000
0000
0000
1000
0000
0000
0000
0000
,
0100
0010
0100
0000
,
0001
0000
0000
0001
0000
0000
0000
0000
,
0100
0010
0100
0000
,
1000
0010
1000
0000
,
1000
0100
0010
0000
,
0001
1000
0001
0000
,
0100
0010
0100
0000
,
0001
0010
0001
0000
,
0001
0100
0010
0000
,
1000
0000
0001
0000
,
2002
0000
0000
3003
,
1000
1000
0100
0000
,
0010
0000
0100
0000
,
0001
0001
0100
0000
,
0010
0000
0100
0000
,
2000
0000
0000
3000
,
0002
0000
0000
0003
,
0020
0000
0000
0030
,
0200
0000
0000
0300
,
1000
0000
0000
1000
0000
0000
0000
0000
,
0010
0000
0000
0010
0000
0000
0000
0000
,
0001
0000
0000
0001
0000
0000
0000
0000
,
0100
0000
0000
0100
0000
0000
0000
0000
,
1000
0000
0000
0100
0000
0000
0220
0000
,
0000
0000
0330
0000
,
0001
0000
1000
0000
,
1001
0000
0000
0000
,
0010
0010
0010
0000
,
0100
0000
0001
0000
,
1000
1000
1000
0000
,
0100
0000
0010
0000
,
0001
0001
0001
0000
,
1000
0000
0010
0000
,
0100
0000
0001
0000
,
1001
0000
0000
0000
,
1000
0100
0001
0000
,
0100
0000
0010
0000
,
0001
0100
1000
0000
,
0100
0000
0010
0000
,
1000
0010
0100
0000
,
0001
0010
0100
0000
,
2000
0000
0000
3000
,
0002
0000
0000
0003
,
1001
0000
0000
0000
,
0010
0000
1000
0000
,
1001
0000
0000
0000
,
0010
0000
0001
0000
,
1001
0000
0000
0000
,
0001
0000
0010
0000
,
0110
0000
0000
0000
,
1000
0000
0001
0000
,
2002
0000
0000
0000
,
0000
0000
0000
0000
,
0000
3003
0000
0000
0000
0000
0000
0000
,
0000
0000
0000
0000
;
#NOTES:
     dance-single:
     :
     Medium:
     7:
     :
0000
0000
0000
0000
,
0000
0000
0000
0000
,
0000
0000
0000
0000
,
0000
0000
0000
0000
,
0000
0000
0000
0000
,
0001
0000
0000
0002
0000
0000
0003
0000
,
1000
0000
0000
2000
0000
0000
3000
0000
,
0010
0000
0000
0020
0000
0000
0030
0000
,
0220
0000
0000
0330
,
1000
0100
1000
0100
,
1000
0000
0001
0000
1000
0001
1000
0000
,
0001
0100
0001
0100
,
0001
0000
1000
0000
0001
1000
0001
0000
,
1000
0010
1000
0010
,
0100
0000
0010
0000
0100
0010
0100
0000
,
0001
0010
0001
0010
,
0220
0000
0000
0330
,
1000
1000
0100
1000
,
0100
0000
0100
0000
0010
0100
0010
0000
,
0001
0010
1000
0010
,
0001
0010
1000
0010
,
0001
0001
0100
0010
,
1000
1000
0100
0010
,
0001
0100
1000
0010
,
0001
0000
0100
0000
0001
1000
0001
0000
,
1000
0000
0000
1000
0100
0000
0000
0000
,
0001
0000
0000
0000
0000
0000
0001
0000
0100
0000
0000
0100
0000
0000
0100
0000
,
0010
0000
0000
0010
1000
0000
0000
0000
,
0010
0000
0000
0010
0001
0000
0100
0000
,
0010
0000
0000
1000
0000
0000
1001
0000
,
2000
3020
0230
0302
,
1003
0000
0100
0010
0000
0010
0000
0110
,
0000
0001
1000
0000
0000
0000
0000
0000
,
1000
0010
1000
0000
1000
0001
1000
0000
,
0001
0100
0010
1000
,
0001
0010
0001
0000
0001
1000
0001
0000
,
1000
0010
0100
0001
,
1000
0100
1000
0000
0010
0100
0001
0000
,
0001
0100
0001
0000
0010
0100
1000
0000
,
0001
0100
1000
0100
,
0001
1000
0001
1000
0001
0000
1001
0000
,
1000
0100
1000
0000
1000
0001
1000
0000
,
0001
0010
0100
1000
,
0001
0100
0001
0000
0001
1000
0001
0000
,
1000
0100
0010
0001
,
1000
0010
1000
0000
0100
0010
0001
0000
,
0001
0010
0001
0000
0100
0010
1000
0000
,
0001
0000
0010
0000
1000
0000
0010
0001
,
0000
0001
1000
0000
0000
0000
0000
0000
,
1000
0000
0001
0020
0000
0000
0030
0000
,
0001
1000
0010
0100
,
0001
0000
1000
0020
0000
0000
0030
0000
,
1000
0001
0100
0010
,
1000
0000
0100
2000
0000
0000
3000
0000
,
0010
0100
0001
0010
,
0001
0000
1000
0002
0000
0000
0003
0000
,
2000
3000
0200
0300
,
0020
0000
0000
0000
,
0000
0000
0000
0000
,
0000
0030
0000
0000
0000
0000
0000
0000
,
0000
0000
0000
0000
;
#NOTES:
     dance-single:
     :
     Hard:
     11:
     :
0000
0000
0000
0000
,
0000
0000
0000
0000
,
0000
0000
0000
0000
,
0000
0000
0000
0000
,
0000
0000
0000
0000
,
1000
0000
0000
1000
0000
0000
2000
0000
0000
0000
0000
0000
3000
0000
0000
0000
,
0010
0000
0000
0100
0000
0000
0010
0000
0000
0000
0100
0000
0000
0010
0000
0000
,
0001
0000
0000
0001
0000
0000
0002
0000
0000
0000
0000
0000
0003
0000
0000
0000
,
0001
0000
0000
1000
0000
0000
0010
0000
0000
0000
0100
0000
0100
0000
0000
0000
,
0010
1000
0100
0010
0001
1000
0001
0100
,
0010
1000
0001
0010
0100
1000
0100
1000
,
0001
0100
1000
0100
0001
0100
1000
0100
,
0001
0000
0000
0010
0000
0000
0001
0000
0000
0000
0100
0000
0000
0010
0000
0000
,
1000
0100
0010
0001
1000
0010
0100
0001
,
0010
0001
1000
0010
0100
0001
0010
0100
,
1000
0010
0100
0001
1000
0100
1000
0010
,
0100
0000
0000
0100
0000
0000
0100
0000
0000
0000
0010
0000
1001
0000
0000
0000
,
0001
0010
0001
0100
0001
1000
0100
0010
,
0001
0010
1000
0010
0001
1000
0100
0010
,
0001
0100
0010
1000
0001
0100
0010
1000
,
0010
0100
0001
1000
0100
0010
0001
1000
,
0100
1000
1000
0010
0100
0100
,
0001
0000
0000
1000
0000
0000
1000
0000
0100
0000
0010
0000
0001
0000
0010
0000
,
0100
0000
0000
0010
0000
0000
0010
0000
0001
0000
0000
0100
0000
0000
0100
0000
,
0010
0000
0000
2002
0000
0000
3003
0000
,
1000
0000
0000
0001
0000
0000
2002
0000
0000
0000
0000
0000
3003
0000
0000
0000
,
0001
0000
0000
0100
0000
0000
0220
0000
0000
0000
0000
0000
0330
0000
1000
0100
,
1000
0000
0000
0001
0000
0000
0022
0000
0000
0000
0000
0000
0033
0000
0000
0000
,
0001
0000
0000
1000
0000
0000
2020
0000
0000
0000
0000
0000
3030
0000
0000
0000
,
0100
0000
0000
0010
0000
0000
0100
0000
0000
0000
0000
0000
0110
0000
0000
0000
,
1000
0010
0100
0001
0010
0100
1000
0100
,
0010
0000
0010
0001
0000
1000
0000
1001
,
0000
0001
1000
0000
0000
0000
0000
0002
,
0000
0103
1000
0100
0001
1000
0100
0010
,
0001
1000
0010
0001
0010
0100
0001
0010
,
0100
0001
0100
1000
0100
0001
0100
1000
,
0010
0001
0010
1000
0010
0001
0010
1000
,
0100
0010
0001
0000
0100
0010
0001
0000
,
1000
0100
0010
0000
1000
0100
0010
0000
,
0001
1000
0001
1000
0100
0010
0100
0100
,
0000
0100
0010
0100
0000
0110
0000
1001
,
1000
0010
0001
0010
1000
0001
0010
0100
,
1000
0001
0100
1000
0100
0010
1000
0100
,
0010
1000
0010
0001
0010
1000
0010
0001
,
0100
1000
0100
0001
0100
1000
0100
0001
,
0010
0100
1000
0000
0010
0100
1000
0000
,
0001
0010
0100
0000
0001
0010
0100
0000
,
1000
0001
1000
0001
0010
0100
0010
0010
,
0000
0010
0010
0010
0000
0100
0000
1000
,
0001
0000
0000
0001
0000
0000
0202
0000
0000
0000
0000
0000
0303
0000
0000
0000
,
0010
0000
0000
1000
0000
0000
0100
0000
0000
0000
0010
0000
0000
0100
0000
0000
,
1000
0000
0000
1000
0000
0000
2200
0000
0000
0000
0000
0000
3300
0000
0000
0000
,
0010
0000
0000
0100
0000
0000
0002
0000
0000
0000
0020
0000
0033
0000
0000
0000
,
0100
0000
0000
0100
0000
0000
0220
0000
0000
0000
0000
0000
0330
0000
0000
0000
,
1000
0000
0000
0100
0000
0000
0010
0000
0000
0000
0001
0000
0000
0100
0000
0000
,
0010
0000
0000
1000
0000
0000
2020
0000
0000
0000
0000
0000
3030
0000
0000
0000
,
0200
0000
0302
0000
,
2000
0000
0000
0000
,
0000
0000
0000
0000
,
0000
3003
0000
0000
0000
0000
0000
0000
,
0000
0000
0000
0000
;
#NOTES:
     dance-double:
     :
     Easy:
     4:
     :
00000000
00000000
00000000
00000000
,
00000000
00000000
00000000
00000000
,
00000000
00000000
00000000
00000000
,
00000000
00000000
00000000
00000000
,
00000000
00000000
00000000
00000000
,
10000000
00000000
00000000
10000000
00000000
00000000
00000000
00000000
,
01000000
00100000
01000000
00000000
,
00010000
00000000
00000000
00010000
00000000
00000000
00000000
00000000
,
00000010
00001000
00000010
00000000
,
00000100
00000100
00000001
00000000
,
00000001
00000100
00000010
00000000
,
00000010
00000010
00010000
00000000
,
00010000
00001000
00010000
00000000
,
00100000
00100000
01000000
00000000
,
01000000
00010000
01000000
00000000
,
00001000
00000000
00010000
00000000
,
00022000
00000000
00000000
00033000
,
00010000
00010000
00000010
00000000
,
00000100
00000000
00000001
00000000
,
00000100
00000100
00001000
00000000
,
00010000
00000000
00001000
00000000
,
00200000
00000000
00000000
00300000
,
00020000
00000000
00000000
00030000
,
20000000
00000000
00000000
30000000
,
02000000
00000000
00000000
03000000
,
00010000
00000000
00000000
00010000
00000000
00000000
00000000
00000000
,
00001000
00000000
00000000
00001000
00000000
00000000
00000000
00000000
,
00000010
00000000
00000000
00000010
00000000
00000000
00000000
00000000
,
00000001
00000000
00000000
00000001
00000000
00000000
00000000
00000000
,
00000100
00000000
00000000
00001000
00000000
00000000
00022000
00000000
,
00000000
00000000
00033000
00000000
,
01000000
00000000
10000000
00000000
,
10010000
00000000
00000000
00000000
,
00100000
00100000
00100000
00000000
,
00001000
00000000
00010000
00000000
,
00000010
00000010
00000010
00000000
,
00010000
00000000
00001000
00000000
,
01000000
01000000
01000000
00000000
,
00001000
00000000
00010000
00000000
,
00000100
00000000
00000010
00000000
,
00000011
00000000
00000000
00000000
,
00000001
00000100
00001000
00000000
,
00010000
00000000
00001000
00000000
,
00010000
00100000
10000000
00000000
,
00100000
00000000
10000000
00000000
,
01000000
00100000
00010000
00000000
,
00001000
00000100
00000010
00000000
,
00000002
00000000
00000000
00000003
,
00002000
00000000
00000000
00003000
,
00001001
00000000
00000000
00000000
,
00100000
00000000
00010000
00000000
,
10010000
00000000
00000000
00000000
,
01000000
00000000
00001000
00000000
,
00011000
00000000
00000000
00000000
,
00000100
00000000
00000010
00000000
,
00000110
00000000
00000000
00000000
,
00000001
00000000
00001000
00000000
,
00002002
00000000
00000000
00000000
,
00000000
00000000
00000000
00000000
,
00000000
00003003
00000000
00000000
00000000
00000000
00000000
00000000
,
00000000
00000000
00000000
00000000
;
#NOTES:
     dance-double:
     :
     Medium:
     7:
     :
00000000
00000000
00000000
00000000
,
00000000
00000000
00000000
00000000
,
00000000
00000000
00000000
00000000
,
00000000
00000000
00000000
00000000
,
00000000
00000000
00000000
00000000
,
10000000
00000000
00000000
20000000
00000000
00000000
30000000
00000000
,
00010000
00000000
00000000
00020000
00000000
00000000
00030000
00000000
,
00001000
00000000
00000000
00002000
00000000
00000000
00003000
00000000
,
00000002
00000000
00000000
00000003
,
00000001
00000010
00000001
00000010
,
00000100
00000000
00001000
00000000
00000010
00000100
00000010
00000000
,
00000100
00001000
00000100
00001000
,
00010000
00000000
00001000
00000000
00010000
00001000
00010000
00000000
,
00001000
01000000
00001000
01000000
,
00010000
00000000
00100000
00000000
00010000
00100000
00010000
00000000
,
01000000
00100000
01000000
00100000
,
02200000
00000000
00000000
03300000
,
10000000
10000000
01000000
00100000
,
01000000
00000000
01000000
00000000
00100000
00001000
00100000
00000000
,
00010000
00010000
00001000
00000100
,
00000001
00000100
00001000
00000100
,
00000010
00000010
00000001
00000100
,
00000010
00000010
00001000
00000100
,
00010000
00001000
00100000
00001000
,
00010000
00000000
01000000
00000000
00100000
01000000
00100000
00000000
,
00010000
00000000
00000000
10000000
00100000
00000000
00000000
00000000
,
01000000
00000000
00000000
00000000
00000000
00000000
00001000
00000000
00010000
00000000
00000000
00010000
00000000
00000000
00010000
00000000
,
00001000
00000000
00000000
00001000
00000010
00000000
00000000
00000000
,
00000001
00000000
00000000
00000001
00001000
00000000
00000010
00000000
,
00000100
00000000
00000000
00001000
00000000
00000000
00011000
00000000
,
00200000
00320000
20030000
30200000
,
01300000
00000000
01000000
00001000
00000000
00001000
00000000
00011000
,
00000000
00010000
00001000
00000000
00000000
00000000
00000000
00000000
,
00000010
00000001
00000010
00000000
00000010
00000100
00000010
00000000
,
00001000
00010000
01000000
00100000
,
01000000
10000000
01000000
00000000
01000000
00100000
01000000
00000000
,
00010000
00001000
00010000
00010000
,
00000100
00001000
00000010
00000000
00000100
00000001
00000100
00000000
,
00000100
00000010
00010000
00000000
00001000
00010000
00001000
00000000
,
00001000
01000000
00100000
10000000
,
00010000
10000000
00010000
10000000
00010000
00000000
10010000
00000000
,
01000000
10000000
01000000
00000000
01000000
00100000
01000000
00000000
,
00010000
00001000
00000010
00000100
,
00000010
00000001
00000010
00000000
00000010
00000100
00000010
00000000
,
00001000
00010000
00001000
00001000
,
00100000
00010000
01000000
00000000
00100000
10000000
00100000
00000000
,
00100000
01000000
00001000
00000000
00010000
00001000
00010000
00000000
,
00010000
00000000
00000010
00000000
00000100
00000000
00000001
00001000
,
00000000
00001000
00000001
00000000
00000000
00000000
00000000
00000000
,
00000001
00000000
00000001
00000020
00000000
00000000
00000030
00000000
,
00000100
00000010
00001000
00000100
,
00010000
00000000
00010000
00002000
00000000
00000000
00003000
00000000
,
00001000
00100000
00010000
01000000
,
00100000
00000000
00100000
20000000
00000000
00000000
30000000
00000000
,
01000000
00010000
00100000
00001000
,
00010000
00000000
00010000
00002000
00000000
00000000
00003000
00000000
,
00000020
00000030
00000002
00000003
,
00000200
00000000
00000000
00000000
,
00000000
00000000
00000000
00000000
,
00000000
00000300
00000000
00000000
00000000
00000000
00000000
00000000
,
00000000
00000000
00000000
00000000
;
#NOTES:
     dance-double:
     :
     Hard:
     11:
     :
00000000
00000000
00000000
00000000
,
00000000
00000000
00000000
00000000
,
00000000
00000000
00000000
00000000
,
00000000
00000000
00000000
00000000
,
00000000
00000000
00000000
00000000
,
10000000
00000000
00000000
10000000
00000000
00000000
20000000
00000000
00000000
00000000
00000000
00000000
30000000
00000000
00000000
00000000
,
00100000
00000000
00000000
00010000
00000000
00000000
00001000
00000000
00000000
00000000
00000100
00000000
00000000
00000010
00000000
00000000
,
00000001
00000000
00000000
00000001
00000000
00000000
00000002
00000000
00000000
00000000
00000000
00000000
00000003
00000000
00000000
00000000
,
00000010
00000000
00000000
00000100
00000000
00000000
00001000
00000000
00000000
00000000
00010000
00000000
00010000
00000000
00000000
00000000
,
00001000
01000000
00010000
01000000
00100000
10000000
01000000
00100000
,
00010000
00100000
00001000
00010000
00000100
00001000
00000010
00001000
,
00000001
00000100
00001000
00000000
00001000
00010000
00001000
00000000
,
00010000
00000000
00000000
00100000
00000000
00000000
10000000
00000000
00000000
00000000
00010000
00000000
00000000
01000000
00000000
00000000
,
00100000
10000000
01000000
10000000
00100000
01000000
00010000
00100000
,
00001000
00010000
00000010
00001000
00000001
00000010
00001000
00010000
,
00000100
00001000
00000100
00010000
00001000
00000010
00000001
00001000
,
00000100
00000000
00000000
00000100
00000000
00000000
00000100
00000000
00000000
00000000
00000100
00000000
00001001
00000000
00000000
00000000
,
00000010
00000100
00000001
00000100
00001000
00000010
00000100
00001000
,
00010000
00001000
01000000
00001000
00010000
01000000
00100000
00010000
,
10000000
00100000
01000000
00010000
10000000
01000000
00100000
00010000
,
00100000
00001000
00010000
00000010
00001000
00000100
00010000
00001000
,
00010000
00001000
00001000
00000010
00000001
00000001
,
00000100
00000000
00000000
00001000
00000000
00000000
00001000
00000000
00010000
00000000
00100000
00000000
01000000
00000000
00010000
00000000
,
00100000
00000000
00000000
01000000
00000000
00000000
01000000
00000000
10000000
00000000
00000000
00010000
00000000
00000000
00010000
00000000
,
00100000
00000000
00000000
00001000
00000000
00000000
00022000
00000000
00000000
00000000
00000000
00000000
00033000
00000000
00000000
00000000
,
00000100
00000000
00000000
00000022
00000000
00000000
00000033
00000000
,
00000100
00000000
00000000
00000000
00000000
00000000
00002020
00000000
00000000
00000000
00000000
00000000
00003030
00000000
00010000
00001000
,
00010000
00000000
00000000
00022000
00000000
00000000
00033000
00000000
,
00100000
00000000
00000000
02020000
00000000
00000000
03030000
00000000
,
00100000
00000000
00000000
10000000
00000000
00000000
10010000
00000000
,
00100000
00010000
01000000
00001000
00100000
00010000
01000000
00001000
,
00010000
00000000
00010000
00000010
00000000
00001000
00000000
00001001
,
00000000
00000001
00001000
00000000
00000000
00000000
00000000
00000002
,
00000000
00000013
00001000
00000010
00000001
00000100
00000010
00001000
,
00000100
00010000
00001000
00010000
01000000
00100000
00010000
01000000
,
10000000
01000000
00010000
01000000
10000000
01000000
00010000
00100000
,
00001000
00010000
01000000
00010000
00001000
00010000
00011000
00000000
,
00001000
00000100
00000010
00000000
00001000
00000100
00000010
00000000
,
00000001
00000100
00001000
00000000
00000100
00001000
00010000
00000000
,
00100000
01000000
00010000
01000000
00001000
00010000
00001000
00100000
,
00000000
01000000
00100000
01000000
00000000
01100000
00000000
10010000
,
10000000
01000000
00010000
01000000
10000000
00100000
01000000
00010000
,
00100000
00001000
00010000
00001000
00000010
00000100
00001000
00000010
,
00000001
00000010
00001000
00000010
00000001
00000010
00001000
00000100
,
00010000
00001000
00000010
00001000
00010000
00001000
00011000
00000000
,
00010000
00100000
01000000
00000000
00010000
00100000
01000000
00000000
,
10000000
00100000
00010000
00000000
00100000
00010000
00001000
00000000
,
00000100
00000010
00001000
00000010
00010000
00001000
00010000
00000100
,
00000000
00000100
00000100
00000100
00000000
00000110
00000000
00000000
,
00000010
00000000
00000000
00002002
00000000
00000000
00003003
00000000
,
00000010
00000000
00000000
00001000
00000000
00000000
00010000
00000000
00000000
00000000
01000000
00000000
00000000
10000000
00000000
00000000
,
00100000
00000000
00000000
20020000
00000000
00000000
30030000
00000000
,
01000000
00000000
00000000
00100000
00000000
00000000
00002000
00000000
00000000
00000000
00020000
00000000
00033000
00000000
00000000
00000000
,
00001000
00000000
00000000
00000220
00000000
00000000
00000330
00000000
,
00000010
00000000
00000000
00001000
00000000
00000000
00000100
00000000
00000000
00000000
00010000
00000000
00000000
00001000
00000000
00000000
,
00010000
00000000
00000000
02200000
00000000
00000000
03300000
00000000
,
00002000
00003000
00020000
00030000
,
00022000
00000000
00000000
00000000
,
00000000
00000000
00000000
00000000
,
00000000
00033000
00000000
00000000
00000000
00000000
00000000
00000000
,
00000000
00000000
00000000
00000000
;
