
//----- song ID: trcr -----//
#TITLE:Triple Cross;
#ARTIST:BEMANI Sound Team "dj TAKA & DJ YOSHITAKA & SYUNN";
#BANNER:Triple Cross.png;
#BACKGROUND:Triple Cross-bg.png;
#CDTITLE:./CDTitles/DDR A20 PLUS.png;
#MUSIC:Triple Cross.ogg;
#SAMPLESTART:86.937;
#SAMPLELENGTH:15;
#BPMS:0=196;
#NOTES:
     dance-single:
     :
     Beginner:
     7:
     :
0000
0000
0000
0000
,
0000
0000
0000
0000
,
0000
0000
0000
0000
,
0000
0000
0000
0000
,
0000
0000
0000
0000
,
0000
0000
0000
0000
,
0000
0000
0000
0000
,
0000
0000
0000
0000
,
0000
0000
0000
0000
,
0001
0000
0100
0000
,
0001
0000
0010
0000
,
0001
0000
0001
0000
,
0010
0000
1000
0000
,
0100
0000
1000
0000
,
0010
0000
1000
0000
,
0100
0000
0100
0000
,
0010
0000
0000
0000
,
0001
0001
0010
0000
,
0001
0100
0001
0000
,
0100
0010
1000
0000
,
1001
0000
0000
0000
,
1000
1000
0010
0000
,
1000
0100
1000
0000
,
0100
0010
0001
0000
,
1001
0000
0000
0000
,
0010
1000
0010
1000
,
0100
1000
0100
0010
,
0001
0100
0001
0100
,
0001
1000
0001
0000
,
0010
0001
0010
0001
,
0100
0001
0100
0010
,
1000
0010
1000
0010
,
2002
0000
0000
3003
,
1000
1000
0010
0010
,
0100
0001
0100
0000
,
0001
0001
0010
0010
,
0100
1000
0100
0000
,
1000
0010
0001
0000
,
0001
0010
1000
0000
,
0001
0100
0010
1000
,
0001
1000
0001
0000
,
0001
0001
0100
0100
,
0010
1000
0010
0000
,
1000
1000
0100
0100
,
0010
0001
0010
0000
,
0001
0100
1000
0000
,
1000
0100
0001
0000
,
1000
0010
0100
0001
,
1000
1000
1000
0000
,
2002
0000
0000
0000
,
0000
0000
0000
0000
,
0000
0000
0000
0000
,
3003
0010
0010
0010
,
1000
0100
0010
0001
,
1000
0001
0010
0100
,
1000
0010
0100
0001
,
1000
0001
0100
0000
,
0010
1000
0010
0000
1000
0000
0000
0000
,
0001
0100
0001
0000
0100
0000
0000
0000
,
0001
0010
0100
1000
,
0010
0100
0010
0000
0110
0000
0000
0000
,
1000
0010
0100
0001
,
0010
0100
1000
0010
,
0100
0001
0100
1000
,
0100
0001
0010
0000
,
0001
0010
0100
0000
1000
0000
0000
0000
,
1000
0010
0100
0000
0001
0000
0000
0000
,
1010
0000
0011
0000
,
1100
0000
0101
0000
,
2002
0000
0000
0000
,
3003
0000
0000
0000
,
0001
0001
0100
0010
,
1000
0010
0001
0010
,
1000
1000
0100
0010
,
0001
0010
1000
0010
,
0001
0100
0001
0100
,
0010
1000
0010
1000
,
0100
0010
0100
0010
,
0001
1000
1001
0000
,
0100
0000
0001
0000
0010
0001
0010
0000
,
0001
1000
0100
1000
,
0010
0000
0100
0000
0010
1000
0010
0000
,
0100
0001
0010
0100
,
0001
0000
0100
0000
1000
0010
1000
0000
,
0001
0100
0010
1000
,
0100
0000
0010
0000
0001
1000
0001
0000
,
0100
0010
0100
0000
0110
0000
0000
0000
,
2000
0000
0010
0000
,
0010
0000
3000
0000
,
0002
0000
0100
0000
,
0100
0000
0003
0000
,
0200
0000
0010
0000
,
0010
0000
0300
0000
,
0001
0000
0000
0000
1000
0000
0000
2002
,
0000
0000
0000
0000
,
0000
0000
0000
0000
,
3003
0000
0000
0000
,
0000
0000
0000
0000
;
#NOTES:
     dance-single:
     :
     Easy:
     9:
     :
0000
0000
0000
0000
,
0000
0000
0000
0000
,
0000
0000
0000
0000
,
0000
0000
0000
0000
,
0000
0000
0000
0000
,
0000
0000
0000
0000
,
0000
0000
0000
0000
,
0000
0000
0000
0000
,
0000
0000
0000
0000
,
0010
0001
0010
0000
,
0001
0100
0001
0000
,
1000
0010
1000
0000
,
0100
1000
0100
0000
,
1000
0001
1000
0001
,
0100
0010
0100
0000
,
0001
1000
0001
1000
,
0100
0010
0100
0000
,
1000
0010
0100
0001
,
0100
0010
1000
0000
,
0100
0010
0001
1000
,
0001
0010
0100
0000
,
1000
0010
0001
0010
,
1000
0100
0010
0000
,
0001
0001
1000
1000
,
2002
0000
0000
3003
,
0001
0100
0010
1000
,
0100
0000
0010
0000
0001
1000
0001
0000
,
0100
1000
0100
0001
,
1000
0100
0010
0001
,
1000
0100
0010
0001
,
0100
0000
0010
0000
1000
0001
1000
0000
,
0100
0001
0100
1000
,
2002
0000
0000
3003
,
0010
1000
0100
0100
,
0010
0001
0100
0100
,
0010
1000
0010
0001
,
0010
0100
0010
0000
1000
0001
1000
0000
,
0200
0010
1300
0010
,
0200
0010
0301
0010
,
0002
0103
2000
3100
,
0020
0000
0000
0000
0100
0100
0130
0000
,
0100
0001
0010
0010
,
0100
1000
0010
0010
,
0100
0001
0100
1000
,
0100
0010
0100
0000
0001
1000
0001
0000
,
0020
0100
0031
0100
,
0020
0100
1030
0100
,
2000
3010
0002
0013
,
0200
0000
0000
0000
0010
0010
0310
0000
,
2002
0000
0000
0000
,
0000
0000
0000
3003
,
0220
0000
0000
0000
,
0330
0100
0100
0100
,
1000
0100
1000
0100
,
0001
0000
0100
0000
0001
0100
0001
0000
,
0010
0001
0010
0001
,
1000
0100
1000
0100
1000
0000
0000
0000
,
0100
1000
0100
0000
0010
0000
0110
0000
,
0001
0100
0001
0000
0010
0000
0110
0000
,
0001
0100
0001
0000
1000
0100
1000
0000
,
0001
1000
0001
1000
0001
0000
0000
0000
,
0001
0010
0001
0010
,
1000
0000
0010
0000
1000
0010
1000
0000
,
0100
1000
0100
1000
,
0001
0010
0001
0010
0001
0000
0000
0000
,
0010
0001
0010
0000
0100
0000
0110
0000
,
1000
0010
1000
0000
0100
0000
0110
0000
,
1000
0010
1000
0000
0001
0010
0001
0000
,
1000
0001
1000
0000
0010
0000
0110
0000
,
0001
0000
0000
0001
0000
0000
0001
0000
,
0000
0000
0000
0000
,
1000
0000
0010
0000
0100
0001
0010
0000
,
0001
0000
0100
0001
0000
1000
0001
1000
,
0000
0000
0100
0000
0001
0100
1000
0000
,
0001
0000
0100
0010
0000
1000
0010
1000
,
0000
0000
0001
0000
0100
0001
0010
0000
,
0100
0000
0001
0100
0000
1000
0010
0100
,
0000
0000
0001
0000
1000
0010
0100
0000
,
0010
1000
0001
0010
0000
0011
0000
1001
,
0000
0000
0110
0000
0001
1000
0100
0000
,
0010
0001
0010
1000
0000
0010
0001
0010
,
0000
0001
1000
0000
0100
0001
0100
0000
,
1000
0010
1000
0010
0000
0100
0000
1001
,
0000
0000
1001
0000
0100
0001
0100
0000
,
0010
0100
0010
0100
0000
0010
1000
0010
,
0000
0000
1001
0000
0100
1000
0010
0000
,
0100
0001
0100
0000
0001
0010
0001
0000
,
2000
0000
0000
0000
0001
0000
0000
3001
,
0000
0011
0101
1100
,
0000
0002
0000
0000
1000
0000
0000
1003
,
0000
1010
1100
0101
,
0020
0000
0000
0000
0100
0000
0000
0130
,
0000
0110
1001
0110
,
0200
0000
0000
0000
0010
0000
0000
0020
,
0000
0000
0000
0000
,
0000
0000
0000
0000
,
0330
0000
0000
0000
,
0000
0000
0000
0000
;
#NOTES:
     dance-single:
     :
     Medium:
     13:
     :
0000
0000
0000
0000
,
0000
0000
0000
0000
,
0000
0000
0000
0000
,
0000
0000
0000
0000
,
0000
0000
0000
0000
,
0000
0000
0000
0000
,
0000
0000
0000
0000
,
0000
0000
0000
0000
,
0000
0000
0000
0000
,
0001
0010
0100
1000
,
0100
0010
0001
0000
,
1000
0010
0100
0001
,
0100
0010
1000
0000
,
0010
1000
0100
0010
,
0001
0100
0010
1000
,
0010
0100
0001
0010
,
0100
1000
0001
0000
,
1000
0000
0010
0000
0100
0001
0100
0001
,
0000
0010
0001
0010
0100
1000
0100
0000
,
1000
0000
0001
0000
0100
0010
0100
0010
,
0000
1000
0100
0000
0010
0001
1000
0000
,
0001
0000
0010
0000
0100
1000
0100
1000
,
0000
0010
1000
0010
0100
0001
0100
0000
,
0001
0000
1000
0000
0100
0010
0100
0010
,
0000
0001
0100
0000
0010
1000
0001
0000
,
0100
0001
0010
0100
1000
0010
0100
0001
,
0010
1000
0010
0001
0010
1000
0010
0001
,
0100
0010
1000
0100
0010
0001
0100
0010
,
1000
0100
0001
0100
1000
0100
0001
0100
,
1000
0010
0100
0010
0001
0010
0100
0010
,
1000
0000
0001
0000
0100
0000
0010
0000
1000
0100
1000
0000
0001
0100
0001
0000
,
2000
0000
0000
0000
0001
0001
0000
0002
,
0000
0000
0000
3003
,
0100
0001
0100
0001
0010
0001
0010
0000
,
0100
1000
0001
1000
0010
0100
0010
0000
,
1000
0010
0100
0001
0010
0001
0100
0001
,
1000
0100
0010
0100
1000
0001
0100
0000
,
0010
0000
1000
0100
0000
1000
0100
0000
,
0010
0000
0001
0100
0000
0001
0100
0000
,
0010
1000
0100
0001
0100
1000
0010
0010
,
0000
0100
0100
0000
0010
1000
1001
0000
,
0010
1000
0010
1000
0100
1000
0100
0000
,
0010
0001
1000
0001
0100
0010
0100
0000
,
0001
0100
0010
1000
0100
1000
0010
1000
,
0001
0010
0100
0010
0001
1000
0010
0000
,
0100
0000
0001
0010
0000
0001
0010
0000
,
0100
0000
1000
0010
0000
1000
0010
0000
,
0100
0001
0010
1000
0010
0001
0100
0100
,
0000
0010
0010
0000
0100
0001
1001
0000
,
2002
0000
0000
0000
,
0000
0000
0000
3003
,
0220
0000
0000
0000
,
0330
0100
0100
0100
,
1000
0010
1000
0010
0000
1000
0100
0000
,
1010
0011
1010
0011
,
0100
1000
0010
0000
0100
0001
0010
0000
,
1100
0101
1001
0000
,
0001
0100
1000
0000
0100
0000
0001
0000
,
1000
0100
0001
0000
0100
0000
1000
0000
,
0001
0010
1000
0000
1000
0010
0001
0000
,
1000
0001
1000
0001
1000
0001
1000
0000
,
0001
0010
0001
0010
0000
0001
0100
0000
,
0011
1010
0011
1010
,
0100
0001
0010
0000
0100
1000
0010
0000
,
0101
1100
1001
0000
,
1000
0100
0001
0000
0100
0000
1000
0000
,
0001
0100
1000
0000
0100
0000
0001
0000
,
1000
0010
0001
0000
0001
0010
1000
0000
,
0001
1000
0001
1000
0001
1000
0001
0000
,
1000
0001
0000
0101
0100
0000
1001
0001
,
0000
0000
0000
0000
,
1000
0100
1000
0100
0010
0100
0010
0001
,
0100
0001
0100
0001
0010
0100
1000
0001
,
0000
0001
0100
0001
1000
0010
1000
0010
,
1000
0100
1000
0100
0010
0001
0010
0100
,
0000
0100
1000
0100
0010
0100
0010
0100
,
1000
0001
0100
0001
0010
0100
1000
0001
,
0000
0001
0100
0001
0010
0001
0010
0001
,
1000
0100
0010
0001
0000
0101
0000
1001
,
0000
1000
0010
0000
1000
0100
0001
0100
,
1000
0001
0010
0001
0100
0001
0100
0101
,
0000
1000
0100
0000
1000
0010
1000
0010
,
0100
0001
0010
0100
0000
1100
0000
1001
,
0000
0010
0001
0000
1000
0100
0010
0100
,
0001
0100
1000
0100
0001
0100
1000
0010
,
0000
1000
0010
0000
1000
0010
1000
0100
,
0010
0001
0010
0001
0010
0100
1000
0100
,
2000
0000
0000
0000
0001
3001
0000
1001
,
0000
0100
0001
0010
0100
1000
0010
0100
,
0002
0000
0000
0000
1000
1003
0000
1001
,
0000
0100
0010
1000
0001
0100
0010
0000
,
0200
0000
0000
0000
0010
0310
0000
0110
,
0000
1000
0100
0001
0100
1000
0010
0001
,
0020
0000
0000
0000
0100
0130
0000
0220
,
0000
0000
0000
0000
,
0000
0000
0000
0000
,
0330
0000
0000
0000
,
0000
0000
0000
0000
;
#NOTES:
     dance-single:
     :
     Hard:
     17:
     :
0000
0000
0000
0000
,
0000
0000
0000
0000
,
0000
0000
0000
0000
,
0000
0000
0000
0000
,
0000
0000
0000
0000
,
0000
0000
0000
0000
,
0000
0000
0000
0000
,
0000
0000
0000
0000
,
0000
0000
0000
0000
,
0001
0100
0001
0100
,
0010
1000
0010
0010
,
1000
0100
1000
0100
,
0010
0001
0010
0010
,
0001
0100
1000
0100
,
0001
1000
0100
0001
,
0100
0010
0001
1000
,
0010
0100
0001
1000
,
0001
0000
0011
0000
0010
0001
0100
0010
,
0000
0000
1000
0010
1000
0000
0001
0010
0001
0000
1000
0100
1000
0000
0000
0000
,
0010
0000
1010
0000
1000
0100
0010
0001
,
0000
0000
1000
0100
1000
0000
0001
0100
0001
0000
1000
0010
1000
0000
0000
0000
,
0001
0000
0101
0000
0010
1000
0001
0100
,
0000
0000
0001
0010
0100
0000
1000
0010
0100
0000
0001
0010
0100
0000
0000
0000
,
1000
0000
1100
0000
0001
0100
0010
1000
,
0000
0000
0100
0010
0001
0000
0100
0010
1000
0000
0100
0010
0001
0000
0000
0000
,
1000
0000
0010
0000
1000
0010
1000
0000
0001
0000
0100
0000
0001
0100
0001
0000
,
0010
0000
0001
0010
0001
0010
0100
0010
0100
0000
1000
0100
1000
0100
1000
0000
,
0001
0000
0010
0000
0001
0010
0001
0000
1000
0000
0100
0000
1000
0100
1000
0000
,
0010
0000
1000
0000
0100
0000
0010
0000
0001
1000
0100
0010
0001
1000
0100
0010
,
0001
0000
0010
0000
0001
0010
0001
0000
1000
0000
0100
0000
1000
0100
1000
0000
,
0010
0000
1000
0010
1000
0010
0100
0010
0100
0000
0001
0100
0001
0100
0001
0000
,
2000
0000
0000
0000
0010
3010
0000
2002
,
0000
0000
0000
3003
,
1000
0000
0100
0001
0100
0000
1000
0000
0100
0000
0001
0000
0100
0000
1000
0000
,
0010
0000
0100
1000
0100
0000
0001
0000
0100
0000
1000
0000
0100
0000
0010
0000
,
1000
0000
0100
0010
0001
0000
1000
0000
0001
0010
0100
0000
1000
0000
0010
0000
,
0100
0001
0010
0000
0100
1000
0010
0000
0100
0000
0001
0000
1000
0001
1000
0001
,
1000
0000
0010
0000
0010
0000
0001
0000
0010
0000
0010
0000
1000
0100
0010
0001
,
1000
0000
0100
0000
0100
0000
0001
0000
0100
0000
0100
0000
1000
0010
0100
0001
,
1000
0000
0100
1000
0010
1000
0010
1000
0001
0100
0001
0100
0001
0000
1001
0000
,
0000
0000
1000
0001
1000
0001
1000
0000
0001
0000
0010
0000
0100
0000
1000
0000
,
0001
0000
0010
1000
0010
0000
0001
0000
0010
0000
1000
0000
0010
0000
0001
0000
,
0100
0000
0010
0001
0010
0000
1000
0000
0010
0000
0001
0000
0010
0000
0100
0000
,
0001
0000
0010
0100
1000
0000
0001
0000
1000
0100
0010
0000
0001
0000
0100
0000
,
0010
1000
0100
0000
0010
0001
0100
0000
0010
0000
1000
0000
0001
1000
0001
1000
,
0001
0000
0100
0000
0100
0000
1000
0000
0100
0000
0100
0000
0001
0010
0100
1000
,
0001
0000
0010
0000
0010
0000
1000
0000
0010
0000
0010
0000
0001
0100
0010
1000
,
0001
0000
0010
0001
0100
0001
0100
0001
1000
0010
1000
0010
1000
0000
1001
0000
,
0000
0000
0001
1000
0001
1000
0001
0000
1000
0000
0100
0000
0010
0000
0001
0000
,
2002
0000
0000
0000
,
0000
0000
0000
0000
3003
0010
0000
0020
,
0200
0000
0000
0000
,
0330
0100
0100
0100
,
0001
0000
0010
0000
0010
0000
0010
0000
0000
0000
0010
0000
0010
0000
0001
0100
,
0010
0000
1000
0000
0100
0000
0100
0000
0000
0000
0010
0000
0100
1000
0001
1000
,
0100
0000
0010
0000
0010
0000
0010
0000
0000
0000
0010
0000
0001
0010
0100
1000
,
0001
0000
0100
0010
0100
0000
0001
1000
0001
0000
0000
0000
1001
0000
0000
0000
,
0100
0001
0010
0100
0000
0100
1000
1000
,
0010
1000
0100
0010
0000
0010
0001
0001
,
1000
0000
0100
0000
0001
0000
0100
0000
1000
0010
0100
0010
1000
0000
0001
0000
,
1000
0000
1100
0000
0001
0000
0101
0000
0010
0100
0010
0100
0001
1000
0001
1000
,
0001
0000
0100
0000
0100
0000
0100
0000
0000
0000
0100
0000
0100
0000
0001
0010
,
0100
0000
1000
0000
0010
0000
0010
0000
0000
0000
0100
0000
0010
1000
0001
1000
,
0010
0000
0100
0000
0100
0000
0100
0000
0000
0000
0100
0000
0001
0100
0010
1000
,
0001
0000
0010
0100
0010
0000
0001
1000
0001
0000
0000
0000
1001
0000
0000
0000
,
1000
0000
1000
0100
1000
0000
1000
0010
1000
0000
0000
0000
0110
0000
0000
0000
,
0001
0000
0001
0100
0001
0000
0001
0010
0001
0000
0000
0000
0110
0000
0000
0000
,
0011
0001
0001
1010
1000
1000
1001
0001
,
0101
0100
0001
1000
1001
0000
0110
0000
,
0110
0110
0000
0101
0101
0000
1001
1001
,
0000
0000
0000
0000
,
1000
0000
0001
1000
0001
0000
0100
0000
0001
0000
0010
0100
0010
0000
0001
0000
,
1000
0100
1000
0001
0100
0000
0101
0000
0000
0000
1010
0000
0000
0000
1001
0000
,
0000
0000
0010
0001
0010
0000
0001
0000
1000
0000
0010
1000
0010
0000
0100
0000
,
0001
0100
0001
0010
0001
0000
0011
0000
0000
0000
0101
0000
0000
0000
1001
0000
,
0000
0000
1000
0100
1000
0000
0001
0000
0100
0000
0010
1000
0010
0000
1000
0000
,
0001
0010
0001
1000
0100
0000
1100
0000
0000
0000
1001
0000
0000
0000
0101
0000
,
0000
0000
1000
0010
1000
0000
0010
0000
1000
0000
0001
0100
0001
0000
0100
0000
,
0001
0100
0010
1000
0010
0000
1010
0000
0000
0000
0011
0000
0000
0000
1001
0000
,
0000
0000
0100
0001
1000
0000
0001
0000
0010
0000
0100
1000
0001
0000
0100
0000
,
0010
1000
0001
0100
0010
0000
1010
0000
0000
0000
1100
0000
0000
0000
0110
0000
,
0000
0000
0000
0000
1001
0000
1000
0000
0100
0000
1000
0001
0100
0000
0010
0000
,
1000
0001
0010
0100
1000
0000
1010
0000
0000
0000
0101
0000
0000
0000
1001
0000
,
0000
0000
0000
0000
0110
0000
0100
0000
0001
0000
1000
0010
0100
0000
0001
0000
,
1000
0000
0010
0100
0001
0000
1000
0000
0100
0010
0001
0010
0100
0000
1100
0000
,
0000
0000
0000
0000
1010
0000
0010
0000
0100
0000
0010
0001
0010
0000
1000
0000
,
0001
0100
0001
0000
1000
0100
1000
0000
0100
0000
0110
0000
0000
0000
0000
0000
,
1002
0000
0000
0000
0010
0010
0000
0103
,
0000
0000
0001
0100
0010
0100
0010
0100
0010
1000
0010
1000
0001
1000
0001
0000
,
2000
0000
0000
0000
0100
0100
0000
3010
,
0000
0000
1000
0100
0010
0100
0010
0001
0010
0001
1000
0001
1000
0001
0010
0000
,
0200
0000
0000
0000
0001
0001
0000
1300
,
0000
0000
0010
1000
0010
0100
0001
0100
0001
0010
0001
1000
0100
0010
0100
0000
,
0020
0000
0000
0000
0100
0130
0000
2002
,
0000
0000
0000
0000
,
0000
0000
0000
0000
,
3003
0000
0000
0000
,
0000
0000
0000
0000
;
#NOTES:
     dance-double:
     :
     Easy:
     8:
     :
00000000
00000000
00000000
00000000
,
00000000
00000000
00000000
00000000
,
00000000
00000000
00000000
00000000
,
00000000
00000000
00000000
00000000
,
00000000
00000000
00000000
00000000
,
00000000
00000000
00000000
00000000
,
00000000
00000000
00000000
00000000
,
00000000
00000000
00000000
00000000
,
00000000
00000000
00000000
00000000
,
10000000
01000000
10000000
00000000
,
00100000
01000000
00010000
00000000
,
00100000
00001000
00100000
00000000
,
00001000
00010000
00001000
00000000
,
00010000
00000100
00010000
00000000
,
00000010
00001000
00000010
00000000
,
00000100
00000001
00000100
00000000
,
00000001
00000010
00000100
00000000
,
00000010
00000001
00000100
00000010
,
00000100
00001000
00010000
00100000
,
10000000
00010000
01000000
00100000
,
01000000
00010000
10000000
00000000
,
00100000
10000000
01000000
00100000
,
01000000
00010000
00001000
00000010
,
00000001
00000100
00000010
00001000
,
00000010
00000100
00000001
00000000
,
00000100
00000010
00001000
00000010
,
00010000
00001000
00010000
00000000
00001000
00000000
00000000
00000000
,
01000000
00010000
00100000
00010000
,
10000000
01000000
10000000
00000000
00100000
00000000
00000000
00000000
,
10000000
00010000
01000000
00100000
,
00010000
00001000
00010000
00000000
00001000
00000000
00000000
00000000
,
00000010
00000001
00001000
00000001
,
00002002
00000000
00000000
00003003
,
00000010
00000001
00000100
00000001
,
00000010
00000100
00010000
00001000
,
01000000
00010000
00100000
00010000
,
01000000
00100000
01000000
00000000
00010000
10000000
00010000
00000000
,
20000000
00000000
00000000
32000000
00000000
00000000
03010000
00000000
,
00002000
00000000
00000000
00023000
00000000
00000000
00130000
00000000
,
02000000
00000000
03010000
00000000
00200000
00000000
00301000
00010000
,
00000000
00010000
00001000
00000000
00100000
00010000
01000000
00000000
,
00100000
10000000
01000000
10000000
,
00100000
01000000
00001000
00010000
,
00000100
00001000
00000010
00001000
,
00000100
00000010
00000100
00000000
00001000
00000001
00001000
00000000
,
00000002
00000000
00000000
00000203
00000000
00000000
00001300
00000000
,
00020000
00000000
00000000
00032000
00000000
00000000
00003010
00000000
,
00000200
00000000
00001300
00000000
00000020
00000000
00010030
00001000
,
00000000
00001000
00010000
00000000
00000010
00001000
00000100
00000000
,
00000220
00000000
00000000
00000000
,
00000000
00000000
00000000
00000330
,
00002002
00000000
00000000
00000000
,
00003003
00001000
00000001
00001000
,
00000001
00000100
00000001
00000100
,
00000010
00001000
00000010
00001000
,
00010000
01000000
00010000
01000000
,
00100000
10000000
00100000
10000000
00100000
00000000
00000000
00000000
,
10000000
01000000
00010000
00000000
00001000
00000000
00000000
00000000
,
00001000
00000010
00001000
00000000
00010000
00000000
00000000
00000000
,
00001000
00010000
00001000
00000000
00100000
00010000
00100000
00000000
,
00010000
10000000
00010000
10000000
00010000
00000000
00000000
00000000
,
10000000
01000000
10000000
01000000
,
00100000
00010000
00100000
00010000
,
00001000
00000100
00001000
00000100
,
00000010
00000001
00000010
00000001
00000010
00000000
00000000
00000000
,
00000001
00000100
00001000
00000000
00010000
00000000
00000000
00000000
,
00100000
10000000
01000000
00000000
00010000
00000000
00000000
00000000
,
00001000
00000010
00001000
00000010
,
00000001
00000000
00001000
00000001
00001000
00000000
00000000
00000000
,
00000001
00000000
00000000
00000001
00000000
00000000
00001000
00000000
,
00000000
00000000
00000000
00000000
,
00001000
00000010
00001000
00000100
,
00010000
00000000
00001000
00010000
00000000
00001000
00000000
00010000
,
00000000
00001000
01000000
00010000
,
00100000
00000000
00010000
01000000
00000000
00010000
00000000
01000000
,
00000000
00100000
10000000
01000000
,
00100000
00000000
00010000
00100000
00000000
00001000
00000000
00100000
,
00000000
00001000
00010000
00000100
,
00001000
00000000
00000100
00000010
00000000
00000001
00000000
00001000
,
00000000
00000001
00000010
00001000
,
00000010
00000000
00001000
00010000
00000000
00001000
00000000
00010000
,
00000000
01000000
10000000
00100000
,
10000000
00000000
00010000
01000000
00000000
00010000
00000000
00100000
,
00000000
00000000
01000000
00000000
00010000
00000000
00001000
00010000
,
00000000
00000000
00001000
00000010
00000000
00000000
00000001
00001000
,
00000000
00000010
00000100
00000010
,
00020000
00030000
00002000
00003000
,
00022000
00000000
00000000
00000000
,
00033000
00001000
01000000
00000000
00010000
01000000
00100000
00000000
,
02200000
00000000
00000000
00000000
,
03300000
10000000
01000000
00000000
00100000
00001000
00010000
00000000
,
00022000
00000000
00000000
00000000
,
00033000
00010000
00000100
00000000
00001000
00000100
00000010
00000000
,
00000220
00000000
00000000
00000000
00000330
00000000
00000000
00002002
,
00000000
00000000
00000000
00000000
,
00000000
00000000
00000000
00000000
,
00003003
00000000
00000000
00000000
,
00000000
00000000
00000000
00000000
;
#NOTES:
     dance-double:
     :
     Medium:
     13:
     :
00000000
00000000
00000000
00000000
,
00000000
00000000
00000000
00000000
,
00000000
00000000
00000000
00000000
,
00000000
00000000
00000000
00000000
,
00000000
00000000
00000000
00000000
,
00000000
00000000
00000000
00000000
,
00000000
00000000
00000000
00000000
,
00000000
00000000
00000000
00000000
,
00000000
00000000
00000000
00000000
,
10000000
01000000
10000000
01000000
,
10000000
00100000
10000000
00000000
,
00010000
00100000
00010000
00100000
,
00001000
00010000
00001000
00000000
,
00010000
00000010
00010000
00000010
,
00001000
00000010
00001000
00000000
,
00000001
00000010
00000001
00000010
,
00000100
00001000
00000100
00000000
,
00001000
00000000
00000010
00000000
00000100
00000010
00000100
00000010
,
00000000
00001000
00000100
00010000
00001000
00100000
00010000
00000000
,
01000000
00000000
00010000
00000000
00100000
01000000
00100000
01000000
,
00000000
00100000
00001000
00010000
00000100
00001000
00000010
00000000
,
00000100
00000000
00000001
00000000
00001000
00000001
00001000
00000001
,
00000000
00000100
00000010
00000100
00001000
00010000
00100000
00000000
,
10000000
00000000
01000000
00000000
10000000
00010000
10000000
00010000
,
00000000
00100000
01000000
00010000
00001000
00000010
00000001
00000000
,
00000100
00000001
00000010
00000001
00000100
00000010
00001000
00000100
,
00000010
00000100
00010000
00001000
00010000
00001000
01000000
00010000
,
00100000
00010000
01000000
00100000
01000000
00010000
10000000
01000000
,
00100000
01000000
00100000
00010000
01000000
00001000
00010000
00001000
,
00010000
00000010
00001000
00000010
00000100
00000001
00000010
00000001
,
00000010
00000000
00000100
00000000
00001000
00000000
00000100
00000000
00010000
00000000
00001000
00000000
00010000
00001000
00010000
00001000
,
00020000
00000000
00000000
00000000
00001000
00001000
00000000
00002000
,
00000000
00000000
00000000
00033000
,
00001000
00010000
00001000
00010000
01000000
00010000
01000000
00000000
,
10000000
00100000
10000000
00100000
01000000
00010000
01000000
00000000
,
00010000
00100000
00001000
00010000
00000100
00001000
00000010
00000000
,
00000001
00000010
00001000
00000000
00000001
00000100
00001000
00000000
,
00020000
00100000
00001000
00031000
,
00002000
00000010
00010000
00013000
,
00001000
00010000
01000000
00100000
01000000
00010000
00001000
00010000
,
00000000
00000010
00000100
00000000
00000010
00010000
00001000
00000000
,
00010000
00001000
00010000
00001000
00000100
00001000
00000100
00000000
,
00000001
00000010
00000001
00000010
00000100
00001000
00000100
00000000
,
00001000
00000010
00010000
00001000
01000000
00010000
00100000
00000000
,
10000000
00100000
00010000
00000000
10000000
01000000
00010000
00000000
,
00002000
00000010
00010000
00013000
,
00020000
00100000
00001000
00031000
,
00010000
00001000
00000100
00000010
00000100
00001000
00010000
00001000
,
00000000
00100000
01000000
00000000
00100000
00001000
00010000
00000000
,
00022000
00000000
00000000
00000000
,
00000000
00000000
00000000
00000000
,
00000000
00000000
00000000
00000000
,
00033000
00010000
00001000
00010000
,
00001000
00000010
00001000
00000010
00000001
00000010
00000001
00000100
,
00000010
00001000
00000010
00010000
00001000
00010000
00001000
00100000
,
00010000
01000000
00010000
01000000
00100000
10000000
00100000
10000000
,
01000000
00010000
01000000
10000000
00010000
00000000
10010000
00000000
,
10000000
00100000
01000000
00000000
00100000
00000000
00010000
00000000
,
00001000
00010000
00001000
00000000
00000100
00000000
00000010
00000000
,
00001000
00000100
00000010
00000000
00000001
00000100
00000010
00000000
,
00001000
00000010
00010000
00001000
00010000
00000000
00011000
00000000
,
00010000
00100000
00010000
00100000
10000000
00100000
10000000
01000000
,
00100000
00010000
00100000
00001000
00010000
00001000
00010000
00000010
,
00001000
00000100
00001000
00000100
00000010
00000001
00000010
00000001
,
00000100
00001000
00000100
00000001
00001000
00000000
00001001
00000000
,
00000001
00000010
00000100
00000000
00000010
00000000
00001000
00000000
,
00010000
00001000
00010000
00000000
01000000
00000000
00100000
00000000
,
00010000
01000000
00100000
00000000
10000000
01000000
00100000
00000000
,
00001000
00000000
00010000
00000100
00000010
00000000
00001001
00000000
,
00000001
00000010
00000000
00001000
00010000
00000000
00011000
00011000
,
00000000
00000000
00000000
00000000
,
00002000
00023000
00230000
20300000
,
30010000
01000000
00100000
10000000
01000000
00100000
00010000
00100000
,
00002000
00023000
00030020
00000230
,
00001300
00010000
00100000
01000000
00000000
00001000
00000000
00011000
,
00020000
00030200
00002300
00003020
,
00000031
00000010
00001000
00000001
00000100
00000010
00001000
00000100
,
00000020
00002030
00023000
02030000
,
03100000
00001000
00010000
00010100
00000000
01001000
00000000
00010000
,
00200000
00320000
02030000
23000000
,
31000000
00100000
10000000
01000000
00010000
00001000
00000010
00000100
,
00020000
00032000
00203000
00302000
,
00013000
00000010
00001000
00001100
00000000
00001010
00000000
00000010
,
00000200
00002300
00003200
00000302
,
00000013
00000100
00001000
00000001
00000100
00001000
00010000
00100000
,
20000000
32000000
03200000
00320000
,
00031000
00000100
00001000
00000100
00000010
00000001
00000010
00000000
,
00000002
00000000
00000000
00000000
00001000
00001003
00000000
00001001
,
00000000
00000001
00000100
00001000
00010000
00100000
10000000
00000000
,
00020000
00000000
00000000
00000000
10000000
10030000
00000000
10010000
,
00000000
00100000
01000000
00001000
00010000
01000000
10000000
00000000
,
00020000
00000000
00000000
00000000
10000000
10030000
00000000
10010000
,
00000000
10000000
01000000
00010000
00001000
00000010
00000001
00000000
,
00000200
00000000
00000000
00000000
00000010
00000310
00000000
00000220
,
00000000
00000000
00000000
00000000
,
00000000
00000000
00000000
00000000
,
00000330
00000000
00000000
00000000
,
00000000
00000000
00000000
00000000
;
#NOTES:
     dance-double:
     :
     Hard:
     17:
     :
00000000
00000000
00000000
00000000
,
00000000
00000000
00000000
00000000
,
00000000
00000000
00000000
00000000
,
00000000
00000000
00000000
00000000
,
00000000
00000000
00000000
00000000
,
00000000
00000000
00000000
00000000
,
00000000
00000000
00000000
00000000
,
00000000
00000000
00000000
00000000
,
00000000
00000000
00000000
00000000
,
10000000
01000000
10000000
01000000
,
00100000
00010000
00100000
00010000
,
00001000
00000100
00001000
00000100
,
00000010
00000001
00000010
00000010
,
00000001
00000100
00000001
00000100
,
00000010
00001000
00000010
00001000
,
00010000
01000000
00010000
01000000
,
00100000
10000000
00100000
00100000
,
10000000
00000000
10100000
00000000
00100000
10000000
01000000
00100000
,
00000000
00100000
01000000
00010000
00001000
00000010
00000001
00000000
,
00000100
00000000
00000101
00000000
00001000
00000001
00000100
00001000
,
00000000
00001000
00010000
00100000
10000000
00010000
01000000
00100000
,
10000000
00000000
10100000
00000000
01000000
10000000
00100000
01000000
,
00000000
01000000
00100000
00010000
00001000
00000100
00000001
00000000
,
00001000
00000000
00001010
00000000
00001000
00000001
00000010
00001000
,
00000000
00001000
00010000
01000000
10000000
00010000
01000000
00000000
,
00100000
00000000
10000000
00000000
01000000
00100000
01000000
00000000
10000000
00000000
00010000
00000000
01000000
00100000
01000000
00000000
,
00010000
00000000
00100000
00010000
00100000
00000000
00001000
00010000
00001000
00000000
00010000
00000010
00010000
00000000
00000100
00000000
,
00000010
00000000
00000001
00000000
00000100
00000010
00000100
00000000
00000001
00000000
00001000
00000000
00000100
00000010
00000100
00000000
,
00001000
00000000
00000100
00010000
00000100
00000000
00010000
00001000
00010000
00000000
00001000
01000000
00001000
01000000
00010000
00000000
,
01000000
00000000
00100000
00000000
10000000
01000000
00100000
00000000
00010000
00000000
01000000
00000000
00010000
00100000
01000000
00000000
,
00010000
00000000
00001000
00000010
00001000
00000000
00000010
00000001
00000010
00000000
00000001
00000100
00000001
00001000
00000001
00000000
,
00002000
00000000
00000000
00000000
00000010
00003010
00000000
00002002
,
00000000
00000000
00000000
00003003
,
00000001
00000100
00001000
00010000
00100000
01000000
00010000
00100000
,
01000000
00010000
00001000
00000010
00000001
00001000
00000100
00000010
,
00000001
00000100
00001000
00010000
00100000
00010000
00001000
00000100
,
00000001
00000000
00000010
00000000
00000100
00000000
00001000
00000000
00000010
00000000
00000100
00000000
00000001
00001000
00000001
00001000
,
00000001
00000100
00000100
00001000
00000100
00000100
00000001
00000100
,
00001000
00010000
00010000
00100000
00010000
00010000
00001000
00010000
,
00001000
00000000
01000000
00010000
01000000
00000000
00100000
10000000
00100000
00000000
10000000
01000000
00100000
00000000
01100000
00000000
,
00000000
00001000
00010000
01000000
10000000
00010000
01000000
00010000
,
10000000
01000000
00010000
00001000
00000010
00000100
00001000
00000010
,
00000100
00001000
00010000
00100000
10000000
00010000
01000000
00100000
,
10000000
01000000
00010000
00001000
00000010
00001000
00010000
01000000
,
10000000
00000000
00100000
00000000
01000000
00000000
00010000
00000000
00100000
00000000
01000000
00000000
10000000
00010000
10000000
00010000
,
10000000
01000000
01000000
00010000
01000000
01000000
10000000
01000000
,
00010000
00001000
00001000
00000010
00001000
00001000
00010000
00001000
,
00010000
00000000
00000100
00001000
00000100
00000000
00000010
00000001
00000010
00000000
00000001
00000100
00000010
00000000
00000110
00000000
,
00000000
00010000
00001000
00000100
00000001
00001000
00000100
00001000
,
00000020
00000000
00000000
00000000
,
00000000
00000000
00000000
00000000
00000030
00001000
00000000
00020000
,
00002000
00000000
00000000
00000000
,
00033000
00001000
00010000
00011000
,
00010000
00000000
00001000
00000000
00010000
00000000
00001000
00000000
01000000
00000000
00010000
00000000
00100000
00010000
00100000
00010000
,
00100000
00000000
01000000
00000000
00100000
00000000
01000000
00000000
10000000
00000000
00010000
00000000
10000000
00100000
10000000
00100000
,
10000000
00000000
01000000
00000000
10000000
00000000
01000000
00000000
00100000
00000000
00010000
00000000
00100000
00001000
00010000
00000000
,
00001000
00000000
00010000
00000010
00010000
00000000
00001000
00010000
00001000
00000000
00000000
00000000
00011000
00000000
00000000
00000000
,
00001000
00000010
00000100
00001000
00000000
00001000
00000010
00000100
,
00001000
00010000
00100000
01000000
00000000
01000000
00010000
00100000
,
01000000
00010000
00001000
00000010
00001000
00010000
00100000
00010000
,
00001000
00000000
00000100
00000000
00001000
00000000
00010000
00000000
00100000
01000000
00100000
01000000
00001000
00010000
00001000
00010000
,
00001000
00000000
00010000
00000000
00001000
00000000
00010000
00000000
00000010
00000000
00001000
00000000
00000100
00001000
00000100
00001000
,
00000100
00000000
00000010
00000000
00000100
00000000
00000010
00000000
00000001
00000000
00001000
00000000
00000001
00000100
00000001
00000100
,
00000001
00000000
00000010
00000000
00000001
00000000
00000010
00000000
00000100
00000000
00001000
00000000
00000100
00010000
00001000
00000000
,
00100000
00000000
00001000
00100000
00001000
00000000
00010000
00001000
00010000
00000000
00000000
00000000
00011000
00000000
00000000
00000000
,
00010000
01000000
00100000
00010000
00100000
00000000
00010000
00000000
00100000
00000000
00000000
00000000
10010000
00000000
00000000
00000000
,
10000000
00100000
10000000
00100000
00010000
00000000
00001000
00000000
00000100
00000000
00000000
00000000
00000110
00000000
00000000
00000000
,
00000001
00000100
00000001
00000100
00000010
00000000
00001000
00000100
00001000
00000100
00010000
00000000
00001000
00010000
00001000
00000000
,
01000000
00010000
01000000
00010000
10000000
00000000
00100000
00000000
10000000
00000000
00000000
00000000
10010000
00000000
00000000
00000000
,
01100000
01100000
00000000
10010000
10010000
00000000
00011000
00011000
,
00000000
00000000
00000000
00000000
,
00000001
00000000
00000100
00000000
00000010
00001000
00000010
00000000
00000100
00000000
00000001
00000010
00000001
00000000
00000100
00000000
,
00001000
00010000
00100000
10000000
00000000
10100000
00000000
10010000
,
00000000
00000000
01000000
00000000
10000000
00100000
10000000
00000000
01000000
00000000
00100000
00010000
00100000
00000000
01000000
00000000
,
00010000
00001000
00000010
00000011
00000000
00000101
00000000
00001001
,
00000000
00000000
00000000
00000000
00000010
00001000
00000010
00000000
00000100
00000000
00000001
00000010
00000100
00000000
00001000
00000000
,
00000100
00010000
00001000
01000000
00000000
01010000
00000000
01100000
,
00000000
00000000
00000000
00000000
00100000
10000000
00010000
00000000
10000000
00000000
01000000
00100000
00010000
00000000
01000000
00000000
,
00001000
00010000
00000010
00001010
00000000
00000011
00000000
00001001
,
00000000
00000000
00000000
00000000
00001000
00000010
00000100
00000000
00000001
00000000
00000010
00000100
00010000
00000000
00001000
00000000
,
01000000
00010000
10000000
00100000
00000000
10100000
00000000
01010000
,
00000000
00000000
00000000
00000000
10000000
01000000
00100000
00000000
00010000
00000000
01000000
00001000
00010000
00000000
00000010
00000000
,
00000100
00000001
00000010
00000110
00000000
00010100
00000000
00011000
,
00000000
00000000
00000000
00000000
00001000
00010000
00001000
00000000
01000000
00000000
00010000
00100000
01000000
00000000
10000000
00000000
,
01000000
00010000
00001000
00000010
00000001
00001000
00000100
00000110
,
00000000
00000000
00000000
00000000
00001000
00000001
00001000
00000000
00000010
00000000
00000100
00001000
00010000
00000000
00100000
00000000
,
10000000
00010000
01000000
00001000
00010000
01000000
00000000
00000000
,
20000000
00000000
00000000
00000000
00100000
00100000
00000000
31000000
,
00000000
00000000
10000000
01000000
00100000
00010000
00100000
00010000
00100000
00001000
00100000
00001000
00010000
00001000
00010000
00000000
,
00000200
00000000
00000000
00000000
00000001
00000001
00000000
00001300
,
00000000
00000000
00000001
00001000
00000010
00001000
00000010
00010000
00001000
00010000
00001000
01000000
00010000
01000000
00010000
00000000
,
02000000
00000000
00000000
00000000
10000000
10000000
00000000
03010000
,
00000000
00000000
00100000
00001000
00010000
00001000
00010000
00000100
00001000
00000100
00001000
00000010
00000100
00000010
00000100
00000000
,
00000002
00000000
00000000
00000000
00001000
00001003
00000000
00002002
,
00000000
00000000
00000000
00000000
,
00000000
00000000
00000000
00000000
,
00003003
00000000
00000000
00000000
,
00000000
00000000
00000000
00000000
;
