
//----- song ID: tosh -----//
#TITLE:東京神話;
#ARTIST:DJ TECHNORCH feat.宇宙★海月 vs BEMANI Sound Team "U1-ASAMi";
#TITLETRANSLIT:Tokyo shinwa;
#ARTISTTRANSLIT:DJ TECHNORCH feat. Uchuu★kurage vs BEMANI Sound Team "U1-ASAMi";
#BANNER:Tokyo shinwa.png;
#BACKGROUND:Tokyo shinwa-bg.png;
#MUSIC:Tokyo shinwa.ogg;
#SAMPLESTART:47.748;
#SAMPLELENGTH:15;
#DISPLAYBPM:98:196;
#BPMS:0=197,4=196,149=98,151=196,240=98,257=196;
#STOPS:116=0.918,211=0.918,240=0.612,257=2.143,334=1.684;
#NOTES:
     dance-single:
     :
     Beginner:
     5:
     :
0000
0000
0000
0000
,
0000
0000
0000
0000
,
0000
0000
0000
0000
,
0000
0000
0000
0000
,
0000
0000
0000
0000
,
0001
0000
0010
0000
,
0100
0100
0100
0000
,
1000
0000
1000
0000
,
1001
0000
0000
0000
,
1001
0000
0000
0000
,
0110
0000
0000
0000
,
0001
0000
0100
0000
,
0020
0000
0030
0000
,
1000
0000
0100
0000
,
1000
0000
0010
0000
,
0100
0000
0010
0000
,
0100
0000
0100
0000
,
0001
0000
0100
0000
,
0010
0000
0100
0000
,
0001
0000
0010
0000
,
1000
0000
0000
0000
,
0001
0000
0010
0000
,
0001
0000
0100
0000
,
0010
0000
0100
0000
,
0010
0000
0010
0000
,
1000
0000
0010
0000
,
0100
0000
0010
0000
,
1000
0000
0100
0000
,
0001
0000
0000
0000
,
0000
0010
0010
0010
,
0000
0020
0000
0000
,
0000
0030
0000
0000
,
0000
2000
0000
0000
,
0000
3000
0000
0000
,
0000
0200
0000
0000
,
0000
0300
0000
0000
,
0000
0002
0000
0000
,
0000
0003
0000
0000
,
0000
0001
0000
0010
,
0010
0010
0000
0001
,
0000
0100
0000
1000
,
0000
0000
0000
1000
,
0000
1000
0000
0010
,
0010
0010
0000
1000
,
0000
0100
0000
0001
,
0000
0000
0000
0001
,
0000
0100
0000
0010
,
0000
1001
0000
1000
,
0000
0100
0000
0010
,
0000
1001
0000
0001
,
0000
0100
0000
0010
,
0000
0110
0000
1000
,
0000
1000
1000
0000
,
0000
0000
1000
0000
,
0100
0100
0100
0000
,
0000
0000
0100
0000
,
0001
0001
0001
0000
,
0000
0000
0001
0000
,
0010
0010
0010
0000
,
0000
0000
0010
0000
,
1000
0000
0000
0000
0000
0000
1000
1000
,
1000
0000
0000
0000
0000
0000
0001
0001
,
0001
0000
0000
0000
0000
0000
0010
0010
,
0010
0000
0000
0000
0000
0000
0100
0100
,
0100
2000
0000
0000
,
0000
0000
3000
0000
,
0000
0000
0002
0000
,
0000
0000
0003
0000
,
0000
0000
0001
0000
,
0100
0000
0010
0000
,
0100
0000
0001
0000
,
0010
0000
1000
0000
,
0000
0000
1000
0000
,
0100
0000
0010
0000
,
0100
0000
1000
0000
,
0010
0000
0001
0000
,
0000
0000
0001
0001
,
0001
0000
0010
0000
,
0100
0000
1000
1000
,
1000
0000
0010
0000
,
0100
0000
2002
0000
,
0000
0000
3003
0000
,
0000
0000
0220
0000
,
0000
0000
0330
0000
,
0000
0000
0000
0000
;
#NOTES:
     dance-single:
     :
     Easy:
     9:
     :
0000
0000
0000
0000
,
0000
0000
0000
0000
,
0000
0000
0000
0000
,
0000
0000
0000
0000
,
0000
0000
0000
0000
,
0001
0100
0010
1000
,
0100
0010
0100
0010
0100
0000
0000
0000
,
1000
1000
0001
0001
,
2002
0000
3003
0000
,
1001
0000
0000
0000
,
0110
0000
0000
0000
,
1001
0000
0110
0000
,
0020
0000
0000
0030
,
1000
0010
1000
0010
,
0100
0001
0010
0010
,
0001
1000
0001
0100
,
0010
1000
0100
0100
,
1000
0010
0001
0010
,
1000
0100
0001
0100
,
1000
0001
1000
0100
,
0010
0010
0010
0000
0010
0000
0000
0000
,
0000
0001
0100
0001
,
1000
0100
1000
1000
,
0000
1000
0010
1000
,
0001
0001
0010
0010
,
0001
0010
1000
0010
,
0001
0001
0001
0000
0001
0000
0000
0000
,
0100
0010
1000
0100
,
1000
0001
1000
0001
1000
0000
0000
0000
,
0000
0000
0001
1000
0001
1000
0001
1000
,
0001
2000
3000
0020
,
0030
0100
0001
0100
,
0000
0002
0003
0020
,
0030
0100
1000
0100
,
0000
1000
0100
1000
,
0100
1000
0001
0010
,
0001
0100
0010
0100
,
0010
0220
0330
1000
,
0010
1000
0001
0100
,
0001
0101
0000
0010
,
0001
0010
0100
1000
,
0100
1100
0000
0010
,
0100
0000
1000
0001
1000
0000
0010
0000
,
0100
0000
0001
1000
0001
0000
0100
0000
,
0101
0010
1010
0001
,
1000
1001
0000
0001
,
0010
0001
1000
0100
,
1000
1100
0000
0010
,
1000
0010
0100
0001
,
0100
0101
0000
0010
,
0100
0000
0001
1000
0001
0000
0010
0000
,
0100
0000
1000
0001
1000
0000
0100
0000
,
1000
0000
0001
0010
0001
0000
0000
0000
,
1000
0100
1000
0100
,
0001
0001
0001
0000
,
1000
0010
1000
0010
,
0001
0001
0001
0000
,
0001
0100
0001
0100
,
1000
1000
1000
0000
,
0001
0010
0001
0010
,
0000
0000
1000
1000
1000
0000
1000
0000
,
1000
0000
0001
0001
0001
0000
0001
0000
,
0001
0000
0010
0010
0010
0000
0010
0000
,
0010
0000
0100
0100
0100
0000
0100
0100
,
0100
0100
0000
0000
1001
0000
0000
0000
,
0000
0000
0110
0000
,
0000
0000
1001
0000
,
0110
0000
0001
1000
,
0001
1000
0010
1000
,
0100
0010
0001
0010
,
0100
1000
0001
0100
,
1000
0100
0001
1000
,
0100
1000
0100
0000
0010
0000
0001
0000
,
0010
0001
0100
0001
,
0100
0001
0010
0100
,
1000
0000
0100
0000
0010
0001
0010
0001
,
0010
0010
0001
0100
,
0010
0010
0010
0000
1000
0000
0001
0000
,
0100
0100
0100
0000
0010
0000
1000
0000
,
0001
0001
0001
0000
0010
0000
0100
0000
,
1000
1000
1000
0000
0001
0000
0010
0000
,
1000
0001
0100
1000
,
0001
0100
0010
1000
,
0001
1000
0001
1000
0000
0000
0000
0000
,
0000
0000
0000
0000
;
#NOTES:
     dance-single:
     :
     Medium:
     13:
     :
0000
0000
0000
0000
,
0000
0000
0000
0000
,
0000
0000
0000
0000
,
0000
0000
0000
0000
,
0000
0000
0000
0000
,
0001
0010
0001
0000
0100
0001
1000
0000
,
0100
1000
0010
0100
0010
0000
0000
0000
,
1000
0100
0001
0100
1000
0001
1000
0001
,
1001
0011
1100
1001
,
0101
0000
0000
0000
,
1100
0000
0000
0000
,
1001
0000
0110
0000
,
0020
0000
0000
0030
,
1000
0100
1000
0010
0100
0001
0100
0010
,
1000
0001
1000
0001
0000
1001
1001
0000
,
0001
0100
0010
0100
0001
0010
0100
0010
,
0001
0100
0010
1000
0100
1000
0100
0100
,
1100
0000
1010
0001
0010
0001
0100
0001
,
1000
0010
1000
0010
0001
0000
0001
0000
,
0010
0100
0010
0100
0010
1000
0010
1000
,
0001
1000
0001
1000
1001
0000
1001
0000
,
1000
0010
1000
0010
0100
0001
0100
0001
,
0010
0001
0010
0100
0010
1000
0010
0010
,
0001
0100
0001
0100
1000
0100
1000
0100
,
0001
0001
1000
1000
0100
0100
1001
0000
,
0001
0100
0001
0100
0010
1000
0010
1000
,
0100
0010
0100
0010
0001
0000
1001
0000
,
0001
0010
1000
0010
0001
0100
0010
1000
,
1010
0101
1100
0011
,
0000
0000
0010
0010
0010
0010
0010
0010
,
0010
0002
0023
0230
,
2300
0000
0000
3001
0000
0000
1000
0000
0010
1000
0000
0010
,
0100
0002
0023
2030
,
3020
0000
0031
0100
0000
0001
1000
0000
,
1001
0000
1000
0100
0010
0001
1000
0100
,
0010
0001
1000
0010
0100
0001
1000
0001
,
1000
0001
1000
0100
0010
0000
0001
0100
,
0010
0000
0220
0000
0000
0330
1001
0000
,
0110
1010
0101
1000
,
0001
0000
0001
0010
0000
0010
0100
0000
0100
1000
0000
0100
,
0010
0000
0001
1000
0000
0100
0010
0000
0001
1000
0000
0010
,
0100
0000
0000
0000
0001
0000
1000
0000
0000
0000
0010
0000
0100
0000
0000
0000
0001
0000
1000
0000
0000
0010
0000
0000
,
1000
0010
0100
0001
0100
0001
0010
0001
,
0010
0000
0000
0001
0000
0000
1000
0000
0000
0100
0000
0000
1000
0000
0000
0100
0000
0000
0010
0000
0000
0000
0010
0000
,
0001
0000
0000
0000
0001
0000
0100
0000
0000
0000
0100
0000
0010
0000
0000
0000
0010
0000
1000
0000
0000
0100
0000
0000
,
1000
0001
0100
0001
0010
0100
1000
0100
,
0001
0100
2000
0000
3002
0000
0103
0010
,
1000
0000
1000
0001
0000
0001
0100
0000
0100
0010
0000
0010
,
1000
0000
1000
0100
0000
0100
0010
0000
0010
0001
0000
0000
,
0100
0000
0010
1000
0000
0001
0100
0000
0000
0010
1000
0010
,
1000
0000
0000
0000
0000
0000
0001
0000
0100
0000
0001
0000
0100
0000
0000
0000
0000
0000
0001
0000
0000
1000
0000
0000
,
0010
0000
0000
0100
0000
0000
0001
0000
0000
1000
0000
0000
0100
0000
0000
0010
0000
0000
0001
0000
1000
0000
0001
0000
,
1000
0000
0000
0010
0100
0010
0100
0000
0000
0000
0000
0000
,
0001
0010
0001
0100
0001
0001
0001
0000
,
1000
0010
1000
0100
1000
1000
1000
0000
,
0001
0100
0010
1000
0100
0100
0100
0000
,
1000
0100
0010
0001
0100
0100
0100
0000
,
0101
1100
0110
1001
,
0010
0001
1000
0010
0100
0000
0100
0000
,
0010
1000
0010
0001
0010
1000
0010
0001
,
0000
0000
0000
0000
1001
0000
0000
0010
0100
0000
0010
1000
0010
0000
0100
0000
,
0001
0000
0000
0000
1001
0000
0000
0010
0100
0000
0010
0001
0010
0000
0100
0000
,
1000
0000
0000
0000
0110
0000
0000
0001
1000
0000
0010
1000
0100
0000
0010
0000
,
0001
0000
0000
0000
0100
1000
0100
0000
1000
0010
1000
0000
0001
0100
0001
0010
,
0001
0001
0000
0000
1001
0000
0000
0000
,
0000
0000
0000
0010
0110
0000
0000
0000
,
0000
0000
0000
0001
1001
0000
0000
1000
,
1001
0000
0110
1001
,
0010
0100
0001
1000
,
0010
0000
0000
0000
0000
0000
0100
0000
0000
0000
0000
0000
0001
0000
0000
1000
0000
0000
0100
0000
0000
0000
0100
0000
,
0010
0000
0010
0001
0000
0001
0100
0000
0100
0010
0000
0010
,
1000
0000
1000
0100
0000
0100
0010
0000
0010
0100
0000
0100
,
1000
0000
0000
0000
1000
0000
0001
0000
0000
0000
0001
0000
0100
0000
0000
0010
0000
0000
1000
0000
0000
0010
0000
0000
,
0100
0001
0010
0100
1000
0100
0010
0001
,
1000
0000
0000
0010
0000
0000
0100
0000
0000
0001
0000
0000
1000
0000
0001
0000
1000
0000
0001
0000
0000
0000
0000
0000
,
0100
0000
0010
0000
0100
0000
0010
0000
0000
0000
0000
0000
1000
0000
0000
0010
0000
0000
0001
0000
0000
0010
0000
0000
,
0100
0010
1000
0001
1000
0100
0001
0100
,
1000
0000
0000
0000
0000
0000
0001
0000
0000
0000
0000
0000
0100
0000
0000
0001
0000
0000
1000
0000
0000
0000
1000
0000
,
0001
0000
0001
0100
0000
0100
0010
0000
1000
0001
0000
0100
,
0010
0000
1000
0100
0000
0010
0001
0000
0010
0100
0000
1000
,
0001
0000
0000
0000
0100
0000
0001
0000
0000
0000
0000
0000
1000
0000
0000
0100
0000
0000
0010
0000
0000
0000
0000
0000
,
1000
0100
0010
0000
0001
0100
0010
0000
,
0001
0100
0010
0000
1000
0010
0100
0001
,
1000
0000
0000
0000
0010
0000
0000
0000
0100
0000
0000
0000
0002
0000
0000
0000
0000
0003
0000
0000
0000
0000
0000
0000
0000
0000
0000
0000
0000
0000
0000
0000
,
0000
0000
0000
0000
;
#NOTES:
     dance-single:
     :
     Hard:
     17:
     :
0000
0000
0000
0000
,
0000
0000
0000
0000
,
0000
0000
0000
0000
,
0000
0000
0000
0000
,
0000
0000
0000
0000
,
1000
0010
1000
0010
0100
0010
0100
0001
,
1000
0100
0001
0100
1000
0000
0000
0000
,
0010
0000
0100
0000
0010
0000
0100
0000
0001
1000
0001
1000
0001
1000
0001
2000
,
0002
0000
0000
3003
,
0011
0000
0000
0000
0000
0000
0000
1000
,
1010
0000
0000
0000
0000
0000
0000
0001
,
0101
0000
0000
1000
1100
0000
0000
0000
,
0020
0000
0000
0030
,
1001
0001
0101
0001
0011
0010
0100
1000
,
1100
1000
1010
1000
1001
0001
1001
1001
,
1001
0100
0010
0100
1001
0010
0100
0010
,
1001
0100
0101
0010
1010
1000
1001
0000
,
0011
0010
0110
0100
1100
1000
0100
1000
,
1100
0100
0110
0010
0011
0001
0100
0001
,
0101
0001
1000
0100
1100
1000
0100
0010
,
0011
1100
1010
0101
,
0011
1000
0100
0010
0011
1000
0100
0010
,
0011
0001
0011
0001
0101
0100
0101
0000
,
1100
1000
0001
0010
1100
1000
0001
0010
,
1100
1000
1100
1000
1010
0010
1010
0000
,
0011
0001
1001
0001
0101
0100
1000
0100
,
1010
1000
1001
1000
1100
0100
0001
0100
,
0011
0001
0100
0010
1010
1000
0100
0010
,
0001
1000
0001
1000
0001
1000
0001
1000
0001
1000
0001
1000
0001
1000
0001
1000
,
0000
0000
1001
1001
1001
1001
1001
1001
,
1001
0002
0023
0230
,
2300
0000
0000
0000
0000
0000
3001
0000
0000
0100
0000
0000
0001
0000
0010
0000
0100
0000
1000
0000
0010
0000
0100
0000
,
0001
0010
0100
2000
0000
0000
3200
0000
0000
0302
0000
0000
,
0203
0000
1300
0001
0000
1000
0002
0000
,
0203
0000
0310
1000
0010
1000
0100
0010
,
0001
1000
0001
0100
0001
0100
0010
1000
,
0100
0000
1000
0001
1000
0001
0100
0001
,
0100
0000
0000
0000
0001
0000
0000
0000
1000
0000
0001
0000
0000
0000
0001
0000
1000
0000
0000
0000
0001
1000
0001
1000
0001
0000
0000
0000
0000
0000
0000
0000
,
0110
0000
1000
0000
0110
0000
0001
1000
,
0001
0010
0100
0010
0100
1000
0100
0000
0000
1000
0010
0100
,
0001
0100
0010
1000
0100
0010
0001
0010
0100
1000
0010
1000
,
0010
0000
1000
0000
0100
0000
0010
0000
0001
0000
0010
0000
0001
0000
0000
0000
0000
0000
1000
0000
0000
0100
0000
0000
,
0001
0100
1000
0100
1000
0001
0010
0001
,
0010
0000
0000
0100
0000
0000
1000
0000
0000
0100
0000
0000
1000
0000
0000
0001
0000
0000
0100
0000
0010
0000
0100
0000
,
0010
0000
0000
0000
1000
0000
0000
0000
0100
0000
0000
0000
0010
0000
0000
0000
0100
0000
0000
0000
0010
0000
0000
0000
0001
0000
0000
0000
1000
0000
0000
0000
0001
0000
0000
0000
1000
0000
0000
0001
0000
0000
1000
0000
0000
0001
0000
0000
,
1000
0001
1000
0001
1000
0001
1000
0001
1000
0001
1000
0001
1000
0000
0000
0000
,
0010
0100
0010
0100
0010
0000
0000
0000
0110
0000
0000
0000
1000
0000
0010
0000
,
1000
0100
0010
0100
0010
0001
1000
0000
0000
0100
0010
0001
,
0100
0010
0100
0010
0100
0001
0010
0100
0010
0100
0010
0001
,
0100
0001
0100
0001
1000
0100
1000
0000
0000
0001
0100
0010
,
1000
0000
0100
0000
0010
0000
0001
0000
0010
0000
0100
0000
1000
0000
0010
0000
0100
0000
0001
0000
0000
0010
0000
0000
,
0100
0000
0000
1000
0000
0000
0010
0000
0000
0100
0000
0000
0001
0000
0000
1000
0000
0000
0001
0000
0010
0000
1000
0000
,
0010
1000
0010
0001
0100
1000
0100
1000
0100
0000
0000
0000
,
1000
0000
0001
0100
0001
0000
0010
0000
0100
0000
1000
0100
1000
0000
0010
0000
,
1000
0000
0001
1000
0001
0000
0010
0000
0100
0000
1000
0001
1000
0000
0010
0000
,
0100
0000
0001
0010
0100
0000
0010
0000
0001
0000
0100
0010
1000
0000
0010
0000
,
1000
0000
0100
1000
0001
0000
0010
0000
0100
0000
1000
0001
0010
0000
0001
0000
,
0011
0000
0001
0010
0100
1000
0100
1000
,
0010
0100
0000
0100
0100
0000
0110
0000
,
0001
1000
0001
1000
0001
1000
0001
1000
0001
1000
0001
1000
0001
1000
0001
1000
,
0000
0000
0000
0000
0000
0000
0000
0000
1001
0000
0000
0000
0000
0000
0001
0000
0100
0000
0001
0010
0001
0000
1000
0010
1000
0000
0001
0010
0001
0000
1000
0010
,
1000
0000
0000
0000
0000
0000
0100
0000
0110
0000
0000
0000
0000
0000
1000
0000
0010
0000
1000
0100
1000
0000
0001
0100
0001
0100
0001
0000
1000
0000
0100
0000
,
1000
0000
0000
0000
0000
0000
0001
0000
1001
0000
0000
0000
0000
0000
1000
0000
0001
0000
1000
0100
0010
0000
0001
0100
0010
0000
1000
0100
0010
0000
0001
0100
,
0010
0000
0000
0000
0000
0000
0100
0000
0110
0000
0000
0000
0000
0000
0001
0000
1000
0000
0001
0010
0100
0000
1000
0010
0100
0001
1000
0001
1000
0001
1000
0001
,
1000
0000
0000
0000
0000
0000
0000
0000
0020
0030
0000
0000
0000
0000
0000
0000
1001
0000
0000
0000
0000
0000
0000
0000
0100
0000
0000
0000
0000
0000
0000
0000
,
0110
0011
1100
0101
,
1001
0000
1100
0000
0010
0001
0100
1000
,
0010
0000
0001
0000
0100
0000
1000
0000
0001
1000
0001
1000
0001
1000
0001
1000
,
0001
1000
0001
1000
0001
0000
0000
0000
1001
0000
0000
0000
0110
0000
0000
0000
,
1010
0000
0000
0000
0000
0000
0101
0000
0000
0000
0000
0000
1000
0000
0000
0100
0000
0000
1000
0000
0010
0000
0100
0000
,
0010
0100
0001
1000
0100
0010
0001
0010
1000
0010
0001
1000
,
0010
0100
1000
0100
0001
0100
0001
0010
0100
1000
0100
0010
,
0001
0000
1000
0000
0100
0000
0010
0000
0001
0000
0100
0000
0010
0000
0000
1000
0000
0000
0010
0000
0000
0100
0000
0000
,
1000
0100
0010
1000
0001
0010
0100
0001
,
0100
0000
0000
0010
0000
0000
0001
0000
0000
1000
0000
0000
0010
0000
0100
0000
0001
0000
0010
0000
0100
0000
0001
0000
,
0100
0000
0000
0000
1000
0000
0000
0000
0010
0000
0000
0000
0100
0000
0000
0000
1000
0000
0000
0000
0100
0000
0000
0000
0001
0000
0000
0010
0000
0000
0001
0000
0000
0010
0000
0000
0001
0000
0000
0100
0000
0000
0001
0000
0000
0100
0000
0000
,
0010
1000
0010
1000
0100
1000
0100
0000
0010
0000
0001
0100
0001
0000
0010
0000
,
0100
0000
0000
1000
0000
0000
0010
0000
0000
0000
0000
0000
0100
0000
0000
0001
0000
0000
1000
0000
0000
0000
0000
0000
0100
0000
0000
0000
0000
0000
0001
0000
0000
0000
0000
0000
0100
0000
0000
0000
1000
0000
0000
0000
0001
0000
0000
0000
,
0100
0010
1000
0010
0001
0010
1000
0100
0010
0001
0010
0100
,
1000
0010
0100
1000
0100
0001
1000
0100
0010
0001
0100
0010
,
1000
0100
0010
0001
0100
0010
1000
0100
1000
0100
0001
0100
,
1000
0000
0001
0000
1000
0000
0001
0000
0100
0000
1000
0000
0100
0000
0000
0001
0000
0000
0010
0000
0000
0100
0000
0000
,
1000
0000
0000
0010
0000
0000
0100
0000
0000
0001
0000
0000
0010
0000
0100
0000
1000
0000
0100
0000
1000
0000
0010
0000
,
0001
0000
0000
0000
0000
0000
0000
0000
0010
0000
0000
0000
0000
0000
0000
0000
1000
0000
0000
0000
0000
0000
0000
0000
0100
0000
0000
0000
0000
0000
0000
0000
0001
0000
0000
0000
0000
0000
0000
0000
0200
0000
0000
0000
0000
0000
0000
0000
0000
0000
0000
0300
0000
0000
0000
0000
0000
0000
0000
0000
0000
0000
0000
0000
0000
0000
0000
0000
0000
0000
0000
0000
0000
0000
0000
0000
0000
0000
0000
0000
0000
0000
0000
0000
0000
0000
0000
0000
0000
0000
0000
0000
0000
0000
0000
0000
,
0000
0000
0000
0000
;
#NOTES:
     dance-double:
     :
     Easy:
     9:
     :
00000000
00000000
00000000
00000000
,
00000000
00000000
00000000
00000000
,
00000000
00000000
00000000
00000000
,
00000000
00000000
00000000
00000000
,
00000000
00000000
00000000
00000000
,
00000010
00000100
00000010
00000100
,
00000001
00000010
00000001
00000010
00000001
00000000
00000000
00000000
,
00010000
00010000
00001000
00001000
,
00022000
00000000
00033000
00000000
,
00011000
00000000
00000000
00000000
,
01010000
00000000
00000000
00000000
,
01100000
00000000
10010000
00000000
,
00200000
00000000
00000000
00300000
,
10000000
01000000
10000000
01000000
,
00100000
00001000
00010000
00010000
,
00001000
00000010
00001000
00000010
,
00000001
00000100
00000010
00000010
,
00001000
00001000
00000100
00000100
,
00010000
00001000
00010000
00010000
,
00001000
01000000
00010000
01000000
,
00100000
00100000
00100000
00000000
00100000
00000000
00000000
00000000
,
00000000
10000000
00100000
10000000
,
01000000
00100000
00010000
00010000
,
00000000
00100000
00001000
00010000
,
00000100
00000100
00001000
00001000
,
00000010
00000001
00000010
00001000
,
00000010
00000010
00000010
00000000
00000010
00000000
00000000
00000000
,
00001000
00000100
00010000
00001000
,
00010000
00001000
00010000
00001000
00010000
00000000
00000000
00000000
,
00000000
00000000
00001000
00010000
00001000
00010000
00001000
00010000
,
00001000
02000000
03000000
00020000
,
00030000
01000000
00100000
01000000
,
00000000
00200000
00300000
20000000
,
30000000
01000000
00100000
00010000
,
00000000
00100000
00001000
00010000
,
00001000
00010000
00000010
00001000
,
00000010
00000100
00000001
00001000
,
00000001
00002002
00003003
00000010
,
00001000
00000100
00001000
00000100
,
00010000
00011000
00000000
00001000
,
00100000
00010000
00100000
01000000
,
10000000
11000000
00000000
10000000
,
00100000
00000000
01000000
00010000
01000000
00000000
00001000
00000000
,
00010000
00000000
00001000
00010000
00000100
00000000
00001000
00000000
,
00001000
00000010
00000010
00000100
,
00000001
00001001
00000000
00000010
,
00000001
00000100
00000010
00001000
,
00000100
00010100
00000000
00001000
,
01000000
00010000
00100000
00010000
,
01000000
01100000
00000000
10000000
,
00100000
00000000
01000000
00010000
01000000
00000000
00100000
00000000
,
00010000
00001000
00000100
00000010
,
00001000
00000000
00000001
00000100
00000001
00000000
00000000
00000000
,
00000010
00000001
00000010
00000001
,
00001000
00001000
00001000
00000000
,
00000100
00010000
00000100
00010000
,
00001000
00001000
00001000
00000000
,
01000000
00010000
01000000
00010000
,
00100000
00100000
00100000
00000000
,
01000000
10000000
01000000
10000000
,
00000000
00000000
01000000
00010000
,
00001000
00000000
00000100
00000010
,
00010000
00000000
00001000
01000000
,
00100000
00000000
00001000
00000100
,
00000001
00000000
00001001
00000000
,
00000000
00000000
00000110
00000000
,
00000000
00000000
00011000
00000000
,
01100000
00000000
10000000
00010000
,
10000000
00000000
10000000
01000000
,
00010000
01000000
10000000
00100000
,
00010000
00001000
00000100
00000001
,
00001000
00000100
00000001
00000100
,
00001000
00000001
00001000
00000000
00000001
00000000
00000100
00000000
,
00000001
00000100
00000010
00001000
,
00000010
00001000
00010000
01000000
,
00010000
00000000
01000000
00000000
00100000
10000000
00100000
10000000
,
00100000
00100000
10000000
00100000
,
01000000
01000000
01000000
00000000
00010000
00000000
01000000
00000000
,
00001000
00001000
00001000
00000000
00010000
00000000
00000100
00000000
,
00001000
00001000
00001000
00000000
00000010
00000000
00000100
00000000
,
00000001
00000001
00000001
00000000
00000100
00000000
00000010
00000000
,
00001000
00010000
01000000
00100000
,
10000000
01000000
00100000
00001000
,
00010000
00001000
00010000
00001000
00000000
00000000
00000000
00000000
,
00000000
00000000
00000000
00000000
;
#NOTES:
     dance-double:
     :
     Medium:
     13:
     :
00000000
00000000
00000000
00000000
,
00000000
00000000
00000000
00000000
,
00000000
00000000
00000000
00000000
,
00000000
00000000
00000000
00000000
,
00000000
00000000
00000000
00000000
,
00000001
00000010
00000001
00000000
00000100
00000010
00001000
00000000
,
00000100
00010000
00001000
00010000
00001000
00000000
00000000
00000000
,
00100000
00010000
00100000
00010000
10000000
01000000
10000000
01000000
,
01100000
00101000
00011000
00001010
,
00000011
00000000
00000000
00000000
,
00001100
00000000
00000000
00000000
,
00110000
00000000
11000000
00000000
,
00200000
00000000
00000000
00300000
,
10000000
00100000
10000000
00100000
01000000
00010000
00100000
00010000
,
00100000
00001000
00010000
00001000
00000000
00011000
00011000
00000000
,
00000100
00001000
00000100
00001000
00000010
00000100
00000010
00000100
,
00000001
00000010
00000100
00001000
00000100
00010000
00000100
00000100
,
00001100
00000000
00001010
00000100
00000010
00001000
00000100
00010000
,
00001000
00100000
00010000
01000000
00010000
00000000
00010000
00000000
,
01000000
00100000
01000000
00100000
01000000
10000000
01000000
10000000
,
01000000
00010000
01000000
00010000
10010000
00000000
10010000
00000000
,
10000000
01000000
10000000
01000000
00010000
01000000
00010000
01000000
,
10000000
00100000
01000000
00100000
01000000
00001000
00010000
00010000
,
00001000
00010000
00001000
00010000
00001000
00000010
00001000
00000010
,
00000001
00000001
00001000
00001000
00000100
00000100
00001001
00000000
,
00000001
00000010
00000001
00000010
00000100
00001000
00000100
00010000
,
00001000
00010000
00001000
00010000
00001000
00000000
00011000
00000000
,
00100000
00010000
01000000
00010000
00100000
01000000
10000000
00010000
,
10010000
01010000
00011000
00001010
,
00000000
00000000
00000010
00000010
00000010
00000010
00000010
00000010
,
00000010
00000002
00000023
00000230
,
00002300
00000000
00000000
00003010
00000000
00000000
00010000
00000000
00010000
00001000
00000000
00001000
,
01000000
00020000
00230000
02300000
,
23000000
00000000
31000000
00100000
00000000
01000000
00100000
00000000
,
01100000
00000000
00100000
00001000
00100000
00001000
00010000
00000100
,
00010000
00000100
00001000
00000010
00001000
00000010
00000100
00000001
,
00000100
00000001
00000010
00000100
00001000
00000000
00000100
00010000
,
00001000
00000000
00022000
00000000
00000000
00033000
00100000
00000000
,
01010000
00100000
11000000
10000000
,
01000000
00000000
01000000
00100000
00000000
00100000
00001000
00000000
00001000
00010000
00000000
00000010
,
00001000
00000000
00000010
00001000
00000000
00000001
00000100
00000000
00000001
00000100
00000000
00000001
,
00000010
00000000
00000000
00000000
00000100
00000000
00010000
00000000
00000000
00000000
00001000
00000000
00010000
00000000
00000000
00000000
00000000
00000000
00001000
00000000
00000000
01000000
00000000
00000000
,
00001000
00100000
00010000
01000000
00010000
00100000
01000000
10000000
,
01000000
00000000
00000000
10000000
00000000
00000000
00100000
00000000
00000000
10000000
00000000
00000000
00100000
00000000
00000000
10000000
00000000
00000000
01000000
00000000
00000000
00000000
01000000
00000000
,
00100000
00000000
00000000
00000000
00100000
00000000
00001000
00000000
00000000
00000000
00001000
00000000
00010000
00000000
00000000
00000000
00010000
00000000
00000100
00000000
00000000
00001000
00000000
00000000
,
00000010
00000100
00000001
00000010
00000100
00001000
00000010
00000100
,
00001000
00010000
00002000
00000000
00023000
00000000
00031000
00100000
,
00010000
00000000
00010000
01000000
00000000
01000000
10000000
00000000
10000000
01000000
00000000
01000000
,
00100000
00000000
00100000
10000000
00000000
10000000
00010000
00000000
00010000
00100000
00000000
00000000
,
00001000
00000000
00010000
00000100
00000000
00001000
00000100
00000000
00000000
00000010
00000001
00000010
,
00000001
00000000
00000000
00000000
00000000
00000000
00001000
00000000
00000100
00000000
00001000
00000000
00000100
00000000
00000000
00000000
00000000
00000000
00000010
00000000
00000000
00000001
00000000
00000000
,
00000010
00000000
00000000
00000100
00000000
00000000
00001000
00000000
00000000
00000100
00000000
00000000
00010000
00000000
00000000
00001000
00000000
00000000
00100000
00000000
00010000
00000000
00100000
00000000
,
00010000
00000000
00000000
01000000
00100000
01000000
00100000
00000000
00000000
00000000
00000000
00000000
,
10000000
10000000
00100000
00100000
01000000
00000000
01000000
00000000
,
00010000
00010000
00100000
00100000
00010000
00000000
00010000
00000000
,
00001000
00001000
00010000
00010000
00000010
00000000
00000010
00000000
,
00001000
00001000
00000100
00000100
00000010
00000000
00000010
00000000
,
00000011
00000101
00001100
00011000
,
01000000
00010000
00100000
01000000
10000000
00000000
10000000
00000000
,
10000000
01000000
00010000
00000000
00010000
00001000
00000010
00000001
,
00000000
00000000
00000000
00000000
00001001
00000000
00000000
00000001
00000100
00000000
00000010
00000000
00001000
00000000
00000100
00000000
,
00001000
00000000
00000000
00000000
00010100
00000000
00000000
00010000
00001000
00000000
01000000
00000000
00010000
00000000
00100000
00000000
,
00010000
00000000
00000000
00000000
01100000
00000000
00000000
10000000
01000000
00000000
00100000
00000000
00010000
00000000
01000000
00000000
,
00010000
00000000
00000000
00000000
00100000
00001000
00100000
00000000
00001000
00010000
00001000
00000000
00010000
00000100
00010000
00000100
,
00001000
00000010
00000000
00000000
00001001
00000000
00000000
00000000
,
00000000
00000000
00000110
00000000
,
00000000
00000000
01100000
00000000
,
10010000
00000000
10000000
00100000
,
00010000
00001000
00000100
00000001
,
00000010
00000000
00000000
00000001
00000000
00000000
00001000
00000000
00000000
00000010
00000000
00000010
,
00010000
00000000
00010000
00001000
00000000
00001000
00100000
00000000
00100000
00010000
00000000
00010000
,
10000000
00000000
10000000
01000000
00000000
01000000
00010000
00000000
00010000
00001000
00000000
00001000
,
00000010
00000000
00000000
00000000
00000010
00000000
00000001
00000000
00000000
00000000
00000000
00000000
00000100
00000000
00000000
00000010
00000000
00000000
00000100
00000000
00000000
00000010
00000000
00000000
,
00001000
00000100
00001000
00000100
00010000
00001000
01000000
00010000
,
00100000
00000000
00000000
00010000
00000000
00000000
01000000
00000000
00000000
00100000
00000000
00000000
10000000
00000000
00100000
00000000
10000000
00000000
00100000
00000000
00000000
00000000
00000000
00000000
,
01000000
00000000
00010000
00000000
01000000
00000000
00010000
00000000
00000000
00000000
00000000
00000000
00010000
00000000
00000000
01000000
00000000
00000000
10000000
00000000
00000000
01000000
00000000
00000000
,
00010000
01000000
00001000
00010000
00001000
00000100
00000001
00000000
,
00001000
00000000
00000000
00000100
00000000
00000000
00000010
00000000
00000000
00000000
00000000
00000000
00000001
00000000
00000000
00000000
00000000
00000000
00000100
00000000
00000000
00000000
00000100
00000000
,
00000010
00000000
00000010
00001000
00000000
00001000
00000100
00000000
00010000
00001000
00000000
00010000
,
00001000
00000000
01000000
00010000
00000000
01000000
00010000
00000000
00100000
01000000
00000000
10000000
,
01000000
00000000
00000000
00000000
00100000
00000000
00001000
00000000
00000000
00000000
00000000
00000000
00010000
00000000
00000000
00100000
00000000
00000000
01000000
00000000
00000000
00000000
00000000
00000000
,
00010000
00100000
01000000
00000000
00010000
00001000
00000010
00000000
,
00010000
00001000
00000100
00000000
00000001
00000100
00000010
00010000
,
00001000
00000000
00000000
00000000
01000000
00000000
00000000
00000000
00100000
00000000
00000000
00000000
20000000
00000000
00000000
00000000
00000000
30000000
00000000
00000000
00000000
00000000
00000000
00000000
00000000
00000000
00000000
00000000
00000000
00000000
00000000
00000000
,
00000000
00000000
00000000
00000000
;
#NOTES:
     dance-double:
     :
     Hard:
     17:
     :
00000000
00000000
00000000
00000000
,
00000000
00000000
00000000
00000000
,
00000000
00000000
00000000
00000000
,
00000000
00000000
00000000
00000000
,
00000000
00000000
00000000
00000000
,
00000001
00000100
00000001
00000100
00000010
00001000
00000100
00000010
,
00000100
00010000
00001000
00010000
00001000
00000000
00000000
00000000
,
01000000
00000000
00010000
00000000
00100000
00000000
01000000
00000000
10000000
00010000
10000000
00010000
10000000
00010000
10000000
00020000
,
20000000
00000000
00000000
30030000
,
11000000
00000000
00000000
00000000
00000000
00000000
00000000
00100000
,
00110000
00000000
00000000
00000000
00000000
00000000
00000000
00000100
,
00001100
00000000
00000000
00000010
00000011
00000000
00000000
00000000
,
00000020
00000000
00000000
00000030
,
00001001
00000001
00000101
00000001
00000011
00000010
00001000
00010000
,
00011000
00010000
00010010
00010000
00010100
00010000
00011000
00011000
,
00011000
00100000
00010000
01000000
01100000
00100000
10000000
01000000
,
01100000
00010000
00110000
00001000
00011000
00011000
00011000
00000000
,
00010100
00000100
00000110
00000010
00000011
00000001
00000100
00001000
,
00011000
00010000
00110000
00100000
01100000
01000000
00010000
10000000
,
11000000
01000000
00100000
00001000
00011000
00010000
00000010
00000100
,
00000101
00001010
00011000
01010000
,
10100000
01000000
00010000
01000000
10100000
01000000
00010000
01000000
,
00100000
00010000
00001000
00000100
00000001
00000001
00000001
00000000
,
00000011
00000100
00001000
00000100
00000011
00000100
00001000
00000100
,
00000010
00001000
00010000
01000000
10000000
10000000
10000000
00000000
,
10100000
00100000
01100000
00100000
00110000
00010000
00001000
00000100
,
00001100
00000100
00000110
00000100
00000101
00000001
00001000
00000100
,
00000011
00000001
00000100
00000010
00010010
00001000
00010000
00001000
,
00010000
00001000
00010000
00001000
00010000
00001000
00010000
00001000
00010000
00001000
00010000
00001000
00010000
00001000
00010000
00001000
,
00000000
00000000
00011000
00011000
00011000
00011000
00011000
00011000
,
00011000
00020000
00230000
20300000
,
32000000
00000000
00000000
03100000
00000000
00000000
00001000
00000000
00010000
00000100
00000000
00001000
,
00000001
00000020
00000032
00000203
,
00002300
00000000
00013000
00001000
00000000
00010000
00001000
00000000
,
00011000
00000000
01000000
10000000
01000000
10000000
00100000
01000000
,
00010000
00100000
00001000
00010000
00001000
00010000
00000100
00001000
,
00000010
00000100
00000001
00000010
00000001
00000010
00000100
00001000
,
00010000
00000000
00000000
00000000
00100000
00000000
00000000
00000000
01000000
00000000
10000000
00000000
00000000
00000000
10000000
00000000
01000000
00000000
00000000
00000000
01000000
00100000
01000000
00100000
01000000
00000000
00000000
00000000
00000000
00000000
00000000
00000000
,
01100000
00010000
01100000
10000000
,
01000000
00000000
00010000
00001000
00000000
00000010
00000001
00000000
00000000
00000001
00000100
00000001
,
00000100
00001000
00010000
00001000
00100000
00001000
00100000
00010000
01000000
00100000
10000000
01000000
,
10000000
00000000
01000000
00000000
00100000
00000000
00010000
00000000
00100000
00000000
00001000
00000000
00010000
00000000
00000000
00000000
00000000
00000000
00001000
00000000
00000000
00000010
00000000
00000000
,
00000100
00000010
00001000
00010000
00000100
00001000
00000100
00010000
,
00001000
00000000
00000000
00000100
00000000
00000000
00000010
00000000
00000000
00001000
00000000
00000000
00000010
00000000
00000000
00000100
00000000
00000000
00001000
00000000
00010000
00000000
00001000
00000000
,
00010000
00000000
00000000
00000000
00000100
00000000
00000000
00000000
00001000
00000000
00000000
00000000
00000010
00000000
00000000
00000000
00000100
00000000
00000000
00000000
00000001
00000000
00000000
00000000
00000100
00000000
00000000
00000000
00000010
00000000
00000000
00000000
00001000
00000000
00000000
00000000
00000001
00000000
00000000
00001000
00000000
00000000
00000001
00000000
00000000
00001000
00000000
00000000
,
00000001
00001000
00000001
00001000
00000001
00001000
00000001
00001000
00000001
00001000
00000001
00001000
00000001
00000000
00000000
00000000
,
00000100
00000010
00000100
00000010
00000100
00000000
00000000
00000000
00000110
00000000
00000000
00000000
00000001
00000000
00000000
00000000
,
00000100
00000000
00001000
00010000
00000000
00100000
10000000
00000000
00000000
10000000
01000000
10000000
,
01000000
00100000
00001000
00010000
00000100
00010000
00000100
00001000
00000010
00000100
00000001
00000010
,
00000100
00001000
00000100
00010000
00001000
01000000
00010000
00000000
00000000
01000000
00100000
10000000
,
01000000
00000000
00100000
00000000
00010000
00000000
00100000
00000000
00001000
00000000
00010000
00000000
00000100
00000000
00001000
00000000
00000010
00000000
00000100
00000000
00000000
00000001
00000000
00000000
,
00001000
00000000
00000000
00000100
00000000
00000000
00000010
00000000
00000000
00000001
00000000
00000000
00000010
00000000
00000000
00001000
00000000
00000000
00010000
00000000
01000000
00000000
00010000
00000000
,
01000000
10000000
01000000
10000000
00100000
10000000
00100000
00010000
00100000
00000000
00000000
00000000
,
00000010
00000000
00000100
00000001
00000100
00000000
00000001
00000000
00000010
00000000
00000100
00010000
00000100
00000000
00001000
00000000
,
00000100
00000000
00010000
00001000
00010000
00000000
00001000
00000000
01000000
00000000
00010000
00100000
00010000
00000000
01000000
00000000
,
00100000
00000000
10000000
00100000
01000000
00000000
00010000
00000000
00100000
00000000
01000000
00100000
00010000
00000000
00100000
00000000
,
00001000
00000000
00010000
00000010
00001000
00000000
00000100
00000000
00000010
00000000
00000001
00001000
00000010
00000000
00000100
00000000
,
00000101
00000000
00000100
00001000
00010000
00100000
00010000
00000000
,
00001000
00010000
00000000
00010000
01000000
00000000
01100000
00000000
,
00010000
10000000
00010000
10000000
00010000
10000000
00010000
10000000
00010000
10000000
00010000
10000000
00010000
10000000
00010000
10000000
,
00000000
00000000
00000000
00000000
10010000
00000000
00000000
00010000
00100000
10000000
00100000
00001000
00010000
00000100
00000001
00000100
,
00000010
00000000
00000000
00000000
00001001
00000000
00000000
00001000
00000100
00000001
00000100
00010000
00001000
00100000
10000000
00100000
,
01000000
00000000
00000000
00000000
01100000
00000000
00000000
10000000
01000000
00010000
01000000
00100000
00001000
00010000
00000010
00000100
,
00000001
00000000
00000000
00000000
00000110
00000000
00000000
00000001
00000100
00001000
00000100
00000010
00010000
00001000
01000000
00100000
,
10000000
00000000
00000000
00000000
00000000
00000000
00000000
00000000
00200000
00300000
00000000
00000000
00000000
00000000
00000000
00000000
10010000
00000000
00000000
00000000
00000000
00000000
00000000
00000000
01000000
00000000
00000000
00000000
00000000
00000000
00000000
00000000
,
01100000
00110000
00011000
00001100
,
00001001
00000000
00000110
00000000
00000010
00000001
00000100
00001000
,
00010000
00100000
10000000
01000000
00010000
00001000
00000010
00000001
,
00000100
00001000
00010000
00000000
00011000
00000000
01001000
00000000
,
00011000
00000000
00000000
00010100
00000000
00000000
00011000
00000000
00000000
00100000
00010000
00100000
,
01000000
10000000
00100000
01000000
00010000
00100000
01000000
00010000
00001000
00000010
00000100
00001000
,
00000010
00000100
00001000
00010000
00001000
00000100
00000001
00000010
00000001
00001000
00000010
00010000
,
00001000
00000000
01000000
00000000
00010000
00000000
00100000
00000000
01000000
00000000
10000000
00000000
00100000
00000000
00000000
01000000
00000000
00000000
00010000
00000000
00000000
10000000
00000000
00000000
,
01000000
00100000
00010000
00100000
00001000
00010000
00000100
00001000
,
00000100
00000000
00000000
00000010
00000000
00000000
00000001
00000000
00000000
00000100
00000000
00000000
00000001
00000000
00000100
00000000
00000001
00000000
00001000
00000000
00000100
00000000
00010000
00000000
,
00001000
00000000
00000000
00000000
00010000
00000000
00000000
00000000
00001000
00000000
00000000
00000000
00100000
00000000
00000000
00000000
00010000
00000000
00000000
00000000
01000000
00000000
00000000
00000000
00100000
00000000
00000000
10000000
00000000
00000000
00100000
00000000
00000000
10000000
00000000
00000000
00100000
00000000
00000000
10000000
00000000
00000000
00100000
00000000
00000000
10000000
00000000
00000000
,
00010000
01000000
00010000
01000000
00010000
01000000
00010000
01000000
00010000
00000000
10000000
01000000
10000000
00000000
01000000
00000000
,
00100000
00000000
00000000
00001000
00000000
00000000
00010000
00000000
00000000
00000000
00000000
00000000
00001000
00000000
00000000
00010000
00000000
00000000
00001000
00000000
00000000
00000000
00000000
00000000
00010000
00000000
00000000
00000000
00000000
00000000
00000100
00000000
00000000
00000000
00000000
00000000
00001000
00000000
00000000
00000000
00000010
00000000
00000000
00000000
00001000
00000000
00000000
00000000
,
00000010
00000100
00000001
00000100
00000001
00000010
00000100
00010000
00001000
00010000
00000100
00010000
,
00001000
00100000
00001000
00010000
00001000
00100000
00010000
00100000
01000000
10000000
00100000
01000000
,
00010000
00100000
01000000
00100000
00001000
00010000
00000100
00010000
00000100
00010000
00000100
00001000
,
00000010
00000000
00001000
00000000
00000010
00000000
00001000
00000000
00000010
00000000
00000100
00000000
00000001
00000000
00000000
00000010
00000000
00000000
00000100
00000000
00000000
00001000
00000000
00000000
,
00000010
00000000
00000000
00000100
00000000
00000000
00001000
00000000
00000000
00010000
00000000
00000000
00100000
00000000
01000000
00000000
00010000
00000000
00100000
00000000
01000000
00000000
10000000
00000000
,
01000000
00000000
00000000
00000000
00000000
00000000
00000000
00000000
00100000
00000000
00000000
00000000
00000000
00000000
00000000
00000000
00010000
00000000
00000000
00000000
00000000
00000000
00000000
00000000
00100000
00000000
00000000
00000000
00000000
00000000
00000000
00000000
00001000
00000000
00000000
00000000
00000000
00000000
00000000
00000000
00020000
00000000
00000000
00000000
00000000
00000000
00000000
00000000
00000000
00000000
00000000
00030000
00000000
00000000
00000000
00000000
00000000
00000000
00000000
00000000
00000000
00000000
00000000
00000000
00000000
00000000
00000000
00000000
00000000
00000000
00000000
00000000
00000000
00000000
00000000
00000000
00000000
00000000
00000000
00000000
00000000
00000000
00000000
00000000
00000000
00000000
00000000
00000000
00000000
00000000
00000000
00000000
00000000
00000000
00000000
00000000
,
00000000
00000000
00000000
00000000
;
