
//----- song ID: tgmw -----//
#TITLE:Together Going My Way;
#ARTIST:DiGiTAL WiNG with 空音;
#ARTISTTRANSLIT:DiGiTAL WiNG with Sorane;
#BANNER:Together Going My Way.png;
#BACKGROUND:Together Going My Way-bg.png;
#CDTITLE:./CDTitles/SDVX VIVID WAVE.png;
#MUSIC:Together Going My Way.ogg;
#SAMPLESTART:54.178;
#SAMPLELENGTH:15;
#BPMS:0=155;
#NOTES:
     dance-single:
     :
     Beginner:
     2:
     :
0000
0000
0000
0000
,
0000
0000
0000
0000
,
0000
0000
0000
0000
,
0000
0000
0000
0000
,
0000
0000
0000
0000
,
1000
0000
0000
0000
,
0100
0000
0000
0000
,
0010
0000
0010
0000
,
0001
0000
0000
0000
,
0001
0000
0010
0000
,
0001
0000
0000
0000
,
0010
0000
0001
0000
,
0100
0000
0000
0000
,
1000
0000
0010
0000
,
1000
0000
0000
0000
,
0010
0000
1000
0000
,
0100
0000
0000
0000
,
0001
0000
0010
0000
,
0001
0000
0100
0000
,
0010
0000
1000
0000
,
0010
0000
0000
0000
,
1000
0000
0010
0000
,
1000
0000
0100
0000
,
0010
0000
0001
0000
,
0010
0000
0000
0000
,
0002
0000
0000
0000
,
0003
0000
0000
0000
,
0200
0000
0000
0000
,
0300
0000
0000
0000
,
0020
0000
0000
0000
,
0030
0000
0000
0000
,
2000
0000
0000
0000
,
3000
0000
0000
0000
,
1001
0000
0000
0000
,
1001
0000
0000
0000
,
1000
0000
0100
0000
,
0010
0000
0100
0000
,
0001
0000
0100
0000
,
0001
0000
0000
0000
,
0001
0000
0100
0000
,
0010
0000
0100
0000
,
1000
0000
0100
0000
,
1000
0000
0000
0000
,
1000
0000
0010
0000
,
0100
0000
0010
0000
,
0001
0000
0010
0000
,
0001
0000
0000
0000
,
0001
0000
0010
0000
,
0100
0000
0010
0000
,
1000
0000
0010
0000
,
1000
0000
0000
0000
,
1000
0000
0100
0000
,
0010
0000
0000
0000
,
0100
0000
0010
0000
,
0001
0000
0000
0000
,
0001
0000
0100
0000
,
0010
0000
0000
0000
,
0100
0000
0010
0000
,
1000
0000
0000
0000
,
2002
0000
0000
3003
,
0000
0000
0000
0000
;
#NOTES:
     dance-single:
     :
     Easy:
     5:
     :
0000
0000
0000
0000
,
0000
0000
0000
0000
,
0000
0000
0000
0000
,
0000
0000
0000
0000
,
0000
0000
0000
0000
,
0001
0000
0001
0000
,
1000
0000
1000
0000
,
0010
0100
0010
0000
,
1001
0000
0000
0000
,
0001
1000
0001
0000
,
1000
0001
1000
0000
,
0001
0010
0001
0010
,
0001
1000
0001
0000
,
1000
0001
1000
0000
,
0001
1000
0001
0000
,
1000
0010
1000
0010
,
1000
0001
1000
0000
,
0001
0000
0100
0000
,
1000
0100
1000
0000
,
0001
0000
0010
0000
,
1000
0010
1000
0000
,
1000
0000
0010
0000
,
0001
0010
0001
0000
,
1000
0000
0100
0000
,
0001
0100
0001
0000
,
0002
0000
0000
0003
,
2000
0000
0000
3000
,
0001
0000
1000
0000
,
2002
0000
0000
3003
,
0020
0000
0000
0030
,
2000
0000
0000
3000
,
0001
0100
0001
0100
,
0220
0000
0000
0330
,
1000
0000
0001
0000
,
2002
0000
3003
0000
,
0001
0001
0001
0000
,
0010
0010
0010
0000
,
0001
0100
0001
0000
,
2000
0000
0000
3000
,
1000
0000
0100
0000
,
0010
0000
0001
0000
,
1000
0001
1000
0000
,
1001
0000
0000
0000
,
1000
1000
1000
0000
,
0010
0010
0010
0000
,
1000
0100
1000
0000
,
0002
0000
0000
0003
,
0001
0000
0100
0000
,
0010
0000
1000
0000
,
0001
1000
0001
0000
,
1001
0000
0000
0000
,
0001
0010
0001
0001
,
1000
0100
1000
1000
,
0010
0100
0010
0100
,
0001
1000
0001
0000
,
1000
0100
0010
0010
,
0001
0100
0010
0010
,
1000
0100
0001
0100
,
1000
0001
1000
0000
,
0010
0100
0010
1001
,
0000
0000
0000
0000
;
#NOTES:
     dance-single:
     :
     Medium:
     9:
     :
0000
0000
0000
0000
,
0000
0000
0000
0000
,
0000
0000
0000
0000
,
0000
0000
0000
0000
,
0000
0000
0000
0000
,
1000
0000
1000
0000
0001
0010
0001
0000
,
0100
0000
0100
0000
0010
1000
0010
0000
,
1000
0001
0100
0000
0001
1000
0010
0000
,
2002
0000
3003
0000
,
0001
0100
0010
0000
1000
0000
1001
0000
,
1000
0100
0010
0000
0001
0000
1001
0000
,
0001
0010
1000
0010
,
0001
1000
0001
1000
0002
0000
0003
0000
,
1000
0100
0010
0000
0001
0000
1001
0000
,
0001
0100
0010
0000
1000
0000
1001
0000
,
1000
0100
0001
0100
,
1000
0001
1000
0001
2000
0000
3000
0000
,
0000
0000
0001
0000
1000
0000
0000
0010
0000
0000
0100
0000
0001
0000
0000
0000
,
1000
0000
0000
0100
0000
0000
0010
0000
0001
0000
0000
0000
0010
0000
0000
0000
,
0001
0000
0010
0100
0000
1000
0000
0010
,
0000
0100
0000
0002
0000
0000
0003
0000
,
0000
0000
0010
0000
0100
0000
0000
1000
0000
0000
0001
0000
0100
0000
0000
0000
,
0010
0000
0000
0100
0000
0000
0001
0000
0100
0000
0000
0000
0010
0000
0000
0000
,
1000
0000
0001
0100
0000
0001
0000
0020
,
0000
0030
0010
0000
0100
0000
0110
0000
,
1000
0000
0000
1000
0000
0000
1000
0000
1000
0000
0000
0000
0110
0000
0000
0000
,
0001
0000
0000
0001
0000
0000
0001
0000
0001
0000
0000
0000
1001
0000
0000
0000
,
0010
0000
0000
0010
0000
0000
0010
0000
0010
0000
0000
0000
0110
0000
0000
0000
,
1002
0000
0100
0103
,
0010
0000
0000
0010
0000
0000
0020
0000
0000
0000
0000
0000
0030
0000
0000
0000
,
1000
0000
0000
1000
0000
0000
1000
0000
1000
0000
0000
0000
0001
0000
0000
0000
,
0010
0000
0010
0100
0000
0100
0000
0220
,
0000
0330
0000
0001
1000
0000
1000
0000
,
0010
0000
0100
0010
0000
0100
0000
0010
,
0000
0100
0010
0100
0010
0000
0000
0000
,
1000
0100
0010
0000
0022
0000
0033
0000
,
0001
0100
0010
0000
2020
0000
3030
0000
,
1000
0001
0100
0000
0001
1000
0100
0000
,
2002
0000
0000
3003
,
0020
2030
3200
0320
,
0032
0023
0230
2300
,
3020
0230
0302
2003
,
3001
0000
0000
0001
0000
0000
0001
0000
0002
0000
0000
0000
0003
0000
0000
0000
,
0100
0001
0010
0000
2002
0000
3003
0000
,
0100
1000
0010
0000
2002
0000
3003
0000
,
1000
0100
0010
0000
0001
0100
0010
0000
,
2000
0000
0000
3000
,
0002
0023
0032
0203
,
0320
2030
3200
0320
,
0032
0203
2300
3200
,
0301
0000
0000
1000
0000
0000
0001
0000
2002
0000
0000
0000
3003
0000
0000
0000
,
0010
0100
0001
0000
0011
0000
1001
0000
,
0010
0100
1000
0000
1100
0000
1001
0000
,
0010
1000
0010
0000
0100
0001
0100
0000
,
0001
1000
0001
1000
0002
0000
0003
0000
,
0100
0010
1000
0000
1100
0000
1001
0000
,
0100
0010
0001
0000
0011
0000
1001
0000
,
0100
0001
0100
0000
0010
1000
0010
0000
,
1000
0001
1000
0001
2000
0000
3000
0000
,
0010
0000
0100
0000
0001
1000
0001
1000
,
0000
0000
0000
0000
;
#NOTES:
     dance-single:
     :
     Hard:
     13:
     :
0000
0000
0000
0000
,
0000
0000
0000
0000
,
0000
0000
0000
0000
,
0000
0000
0000
0000
,
0000
0000
0000
0000
,
0001
0000
0000
0000
1000
0000
0010
0100
0010
0000
0000
1000
0000
0000
0100
0000
,
0010
0000
0000
0001
0000
0000
0100
0000
0001
0000
0000
0010
0000
0000
0100
0000
,
1100
0000
0000
0000
0101
0000
0000
0000
0001
0000
0000
0100
0000
0000
0010
0000
,
2002
0000
0000
3003
,
1000
0100
0010
0001
0101
0000
1001
0000
,
0001
0100
0010
1000
1100
0000
1001
0000
,
1000
0100
0001
0000
0001
0100
1000
0000
,
0001
0100
1000
0100
0001
1000
0001
0000
,
1000
0010
0100
0001
0011
0000
1001
0000
,
0001
0010
0100
1000
1010
0000
1001
0000
,
0001
0100
1000
0000
1000
0100
0001
0000
,
1000
0001
0000
1000
0000
0000
0001
0000
1001
0000
0000
0000
0000
0000
0000
0000
,
0001
0100
0010
1000
0010
0100
0001
1000
,
0100
0000
0001
0000
0100
0000
1000
0000
0010
0000
0100
0000
0001
1000
0001
0000
,
1000
0001
0010
0100
1000
0100
0010
0100
,
0010
0000
0001
0000
0100
0000
0010
0000
1000
0001
1000
0000
0010
0000
0010
0000
,
1000
0100
0010
0001
0100
0010
1000
0001
,
0010
0000
1000
0000
0010
0000
0001
0000
0010
0000
0100
0000
1000
0001
1000
0000
,
0001
1000
0010
0100
0001
1000
0010
0100
,
0001
1000
0100
0010
0001
0001
1000
1000
,
0100
0000
0000
0100
0000
0000
1000
0000
1010
0000
0000
0000
0000
0000
0100
0001
,
0100
0000
0000
0100
0000
0000
0001
0000
0011
0000
0000
0000
0000
0000
0001
1000
,
0001
0000
0000
0001
0000
0000
0010
0000
1000
0000
0000
0000
0010
0000
0000
0000
,
0002
0003
0101
1010
,
1000
0000
0000
0100
0000
0000
0020
0000
0000
0000
0000
0000
0030
0000
0001
1000
,
0001
0000
0000
0100
0000
0000
0010
0000
0020
0000
0000
0000
0130
0000
0000
0000
,
0001
0000
1000
0010
0000
0110
0000
2002
,
0000
0000
3003
1000
0001
0000
1001
0000
,
0020
0000
0100
0100
0000
0100
0000
0100
,
0000
0100
0100
0100
0030
0000
0000
0000
,
0001
0000
0000
0100
0000
0000
0010
0000
1000
0000
0000
0000
0100
0000
0010
0000
,
0100
0000
0000
1000
0000
0000
0001
0000
0010
0000
0000
0000
0001
0000
0100
0000
,
0010
0000
0000
0000
0010
0000
1000
0000
0100
0000
0000
0001
0000
0000
0100
0000
,
2000
0000
0000
3001
,
0101
0000
0000
0000
0000
0000
0010
1000
0020
0000
0000
0230
0000
0000
0302
0000
,
0023
0000
0000
0230
0000
0000
2300
0000
3002
0000
0000
2003
0000
0000
3100
0000
,
0110
0000
0000
0000
0011
0000
0000
0000
0001
0000
0000
0100
0000
0000
0010
0000
,
1000
0000
0000
0001
0000
0000
1000
0000
1001
0000
0000
0000
1000
0000
0001
0000
,
1000
0000
0000
0010
0000
0000
0100
0000
0001
0000
0000
0000
0010
0000
0100
0000
,
0010
0000
0000
0001
0000
0000
1000
0000
0100
0000
0000
0000
1000
0000
0010
0000
,
0100
0000
0000
0000
0100
0000
0001
0000
0010
0000
0000
1000
0000
0000
0010
0000
,
0002
0000
0000
1003
,
1010
0000
0000
0000
0000
0000
0100
0001
0200
0000
0000
0320
0000
0000
2030
0000
,
3200
0000
0000
0320
0000
0000
0032
0000
2003
0000
0000
3002
0000
0000
0013
0000
,
0110
0000
0000
0000
1100
0000
0000
0000
1000
0000
0000
0010
0000
0000
0100
0000
,
0001
0000
0000
1000
0000
0000
0001
0000
2002
0000
0000
0000
3003
0000
0000
0000
,
0010
0000
0100
0001
0000
0100
0001
0000
0010
0000
0000
0000
1001
0000
0000
0000
,
0010
0000
0100
1000
0000
0100
1000
0000
0010
0000
0000
0000
1001
0000
0000
0000
,
0100
0000
0001
0010
0000
0001
0010
0000
0100
0000
1000
0010
0000
1000
0010
0000
,
0100
0000
0001
0010
0000
0001
0010
0000
0100
0000
1000
0000
0001
0000
0100
0000
,
0001
0000
1000
0010
0000
1000
0010
0000
0100
0000
0001
0000
1001
0000
0000
0000
,
1000
0000
0001
0010
0000
0001
0010
0000
0100
0000
1000
0000
1001
0000
0000
0000
,
0100
0000
0001
1000
0000
0001
0010
0000
0100
0000
1000
0001
0000
1000
0010
0000
,
0100
0000
0000
0110
0000
0000
0110
0000
1000
0000
0010
0000
0100
0000
0001
0000
,
1000
0001
1000
0001
0000
1000
0000
0100
0010
0000
0100
0000
0010
0000
0110
0000
,
0000
0000
0000
0000
;
#NOTES:
     dance-double:
     :
     Easy:
     5:
     :
00000000
00000000
00000000
00000000
,
00000000
00000000
00000000
00000000
,
00000000
00000000
00000000
00000000
,
00000000
00000000
00000000
00000000
,
00000000
00000000
00000000
00000000
,
00010000
00000000
00010000
00000000
,
00001000
00000000
00001000
00000000
,
00001000
00000010
00000001
00000000
,
00001001
00000000
00000000
00000000
,
00000001
00000100
00000001
00000000
,
00001000
00000010
00001000
00000000
,
00000010
00010000
00000010
00010000
,
00001000
00010000
00001000
00000000
,
01000000
00010000
01000000
00000000
,
00100000
10000000
00100000
00000000
,
10000000
01000000
10000000
01000000
,
00100000
00010000
00100000
00000000
,
00001000
00000000
00010000
00000000
,
00000010
00001000
00000010
00000000
,
00000100
00000000
00000001
00000000
,
00000010
00000100
00000010
00000000
,
00000001
00000000
00001000
00000000
,
00000010
00010000
00000010
00000000
,
00010000
00000000
00001000
00000000
,
00100000
00010000
00100000
00000000
,
02000000
00000000
00000000
03000000
,
20000000
00000000
00000000
30000000
,
00010000
00000000
00100000
00000000
,
00002000
00000000
00000000
00003000
,
00020000
00000000
00000000
00030000
,
00000020
00000000
00000000
00000030
,
00000100
00000001
00000100
00000001
,
00002000
00000000
00000000
00003000
,
00000010
00000000
00010000
00000000
,
00011000
00000000
00000000
00000000
,
00100000
00100000
00100000
00000000
,
00010000
00010000
00010000
00000000
,
10000000
01000000
10000000
00000000
,
20000000
00000000
00000000
30000000
,
00100000
00000000
00001000
00000000
,
00010000
00000000
00001000
00000000
,
00010000
00000000
00000100
00000000
,
00000010
00000000
00000001
00000000
,
00000010
00000010
00000010
00000000
,
00000001
00000001
00000001
00000000
,
00001000
00000100
00010000
00000000
,
00002000
00000000
00000000
00003000
,
00000010
00000000
00000100
00000000
,
00010000
00000000
00001000
00000000
,
00100000
00010000
01000000
00000000
,
01100000
00000000
00000000
00000000
,
10000000
01000000
00100000
00100000
,
00001000
00010000
00001000
00001000
,
00010000
00000100
00001000
00000010
,
00000100
00000001
00001000
00000000
,
00000001
00000010
00000100
00000100
,
00010000
00001000
00010000
00010000
,
00001000
01000000
00010000
00100000
,
01000000
10000000
00010000
00000000
,
01000000
00001000
00010000
00011000
,
00000000
00000000
00000000
00000000
;
#NOTES:
     dance-double:
     :
     Medium:
     9:
     :
00000000
00000000
00000000
00000000
,
00000000
00000000
00000000
00000000
,
00000000
00000000
00000000
00000000
,
00000000
00000000
00000000
00000000
,
00000000
00000000
00000000
00000000
,
10000000
00000000
10000000
00000000
01000000
00100000
01000000
00000000
,
00100000
00000000
00100000
00000000
00001000
00010000
00001000
00000000
,
00010000
00000000
00000100
00000000
00001000
00000100
00000010
00000000
,
00002002
00000000
00003003
00000000
,
00000001
00000010
00000001
00000000
00000100
00000000
00000110
00000000
,
00001000
00000010
00001000
00000000
00000100
00000000
00001100
00000000
,
00010000
00001000
01000000
00010000
,
00100000
01000000
00100000
01000000
00200000
00000000
00300000
00000000
,
10000000
01000000
10000000
00000000
00100000
00000000
01100000
00000000
,
00010000
01000000
00010000
00000000
00100000
00000000
00110000
00000000
,
00001000
00010000
00000010
00001000
,
00000100
00000010
00000100
00000010
00000200
00000000
00000300
00000000
,
00000000
00000000
00001000
00000000
00000001
00000000
00000000
00000010
00000000
00000000
00000001
00000000
00000100
00000000
00000000
00000000
,
00000010
00000000
00000000
00010000
00000000
00000000
00001000
00000000
00010000
00000000
00000000
00000000
00001000
00000000
00000000
00000000
,
00100000
00000000
00010000
01000000
00000000
00100000
00000000
10000000
,
00000000
00100000
00000000
02000000
00000000
00000000
03000000
00000000
,
00000000
00000000
00100000
00000000
10000000
00000000
00000000
00010000
00000000
00000000
00100000
00000000
01000000
00000000
00000000
00000000
,
00010000
00000000
00000000
00001000
00000000
00000000
00010000
00000000
00001000
00000000
00000000
00000000
00010000
00000000
00000000
00000000
,
00000010
00000000
00001000
00000001
00000000
00000100
00000000
00000020
,
00000000
00000030
00000010
00000000
00000100
00000000
00000010
00000000
,
00001000
00000000
00000000
00000100
00000000
00000000
00001000
00000000
00000100
00000000
00000000
00000000
00000000
00000000
00000100
00000000
,
00010000
00000000
00000000
00001000
00000000
00000000
00010000
00000000
00001000
00000000
00000000
00000000
00000000
00000000
00001000
00000000
,
00100000
00000000
00000000
00010000
00000000
00000000
00100000
00000000
00100000
00000000
00000000
00000000
01100000
00000000
00000000
00000000
,
20010000
00000000
01000000
31000000
,
00100000
00000000
00000000
00010000
00000000
00000000
00200000
00000000
00000000
00000000
00000000
00000000
00300000
00000000
00000000
00000000
,
00001000
00000000
00000000
00010000
00000000
00000000
00001000
00000000
00010000
00000000
00000000
00000000
00000100
00000000
00000000
00000000
,
00000010
00000000
00000010
00000001
00000000
00000001
00000000
00002002
,
00000000
00003003
00000000
00000001
00000010
00000000
00000010
00000000
,
00001000
00000000
00001000
00010000
00000000
00001000
00000000
00010000
,
00000000
00001000
00010000
00001000
00010000
00000000
00000000
00000000
,
00010000
00100000
10000000
00000000
02200000
00000000
03300000
00000000
,
10000000
01000000
00010000
00000000
02200000
00000000
03300000
00000000
,
00100000
00000000
00001000
00000000
00010000
00001000
00010000
00000000
,
00022000
00000000
00000000
00033000
,
00002000
00003200
00000320
00000230
,
00002300
00023000
00032000
00203000
,
02300000
03020000
00032000
00003020
,
00000031
00000000
00000000
00001000
00000000
00000000
00000001
00000000
00002000
00000000
00000000
00000000
00003000
00000000
00000000
00000000
,
00001000
00000010
00000001
00000000
00000220
00000000
00000330
00000000
,
00000001
00000100
00001000
00000000
00000220
00000000
00000330
00000000
,
00000010
00000000
00010000
00000000
00001000
00010000
00001000
00000000
,
00022000
00000000
00000000
00033000
,
00020000
02030000
03200000
02300000
,
03020000
00032000
00023000
00030020
,
00000230
00002300
00023000
00230000
,
10300000
00000000
00000000
00010000
00000000
00000000
10000000
00000000
00020000
00000000
00000000
00000000
00030000
00000000
00000000
00000000
,
10000000
01000000
00100000
00000000
00101000
00000000
00011000
00000000
,
00001000
00010000
00000100
00000000
00001100
00000000
00000110
00000000
,
00000001
00000100
00000001
00000000
00000010
00000100
00000010
00000000
,
00000100
00010000
00000100
00010000
00002000
00000000
00003000
00000000
,
00100000
00010000
01000000
00000000
01100000
00000000
10100000
00000000
,
10000000
01000000
00100000
00000000
00101000
00000000
00011000
00000000
,
00010000
00000100
00001000
00000000
00000010
00001000
00000010
00000000
,
00000100
00000001
00000100
00000001
00002000
00000000
00003000
00000000
,
00000001
00000000
00001000
00000000
00000010
00010000
00001000
00010000
,
00000000
00000000
00000000
00000000
;
#NOTES:
     dance-double:
     :
     Hard:
     13:
     :
00000000
00000000
00000000
00000000
,
00000000
00000000
00000000
00000000
,
00000000
00000000
00000000
00000000
,
00000000
00000000
00000000
00000000
,
00000000
00000000
00000000
00000000
,
10000000
00000000
00000000
00000000
00100000
00000000
01000000
00010000
01000000
00000000
00000000
00010000
00000000
00000000
00100000
00000000
,
00001000
00000000
00000000
00010000
00000000
00000000
00000010
00000000
00001000
00000000
00000000
00000010
00000000
00000000
00010000
00000000
,
00011000
00000000
00000000
00000000
00001100
00000000
00000000
00000000
00000100
00000000
00000000
00000010
00000000
00000000
00000001
00000000
,
00002002
00000000
00000000
00003003
,
00000001
00000010
00000001
00000010
00000100
00000000
00001001
00000000
,
00000001
00000100
00000001
00000100
00001000
00000000
00011000
00000000
,
00100000
00010000
01000000
00000000
01000000
00010000
00100000
00000000
,
01000000
10000000
01000000
00010000
01000000
00000000
10010000
00000000
,
10000000
00100000
10000000
00100000
01000000
00000000
10010000
00000000
,
10000000
01000000
10000000
01000000
00010000
00000000
00011000
00000000
,
00000010
00001000
00000100
00000000
00000100
00001000
00000010
00000000
,
00001000
00000000
00000000
00000001
00000000
00000000
00001000
00000000
00001001
00000000
00000000
00000000
00000000
00000000
00000000
00000000
,
00000010
00000001
00001000
00000010
00000100
00000010
00010000
00001000
,
00100000
00000000
00010000
00000000
01000000
00000000
00010000
00000000
00100000
00000000
01000000
00000000
10000000
00010000
10000000
00000000
,
00100000
01000000
00010000
01000000
00010000
00100000
00001000
00100000
,
00001000
00000000
00010000
00000000
00000100
00000000
00001000
00000000
00000010
00000100
00000010
00000000
00000100
00000000
00000100
00000000
,
00000001
00001000
00000010
00000100
00000001
00000010
00000100
00001000
,
00000100
00000000
00010000
00000000
00001000
00000000
00100000
00000000
00010000
00000000
00100000
00000000
01000000
00100000
01000000
00000000
,
00100000
00010000
01000000
00100000
10000000
00100000
01000000
00010000
,
00100000
00001000
00010000
00001000
00010000
00010000
00001000
00001000
,
00000100
00000000
00000000
00000001
00000000
00000000
00000100
00000000
00000010
00000000
00000000
00000000
00001000
00000000
00000001
00000100
,
00000001
00000000
00000000
00000010
00000000
00000000
00001000
00000000
00010000
00000000
00000000
00000000
00001000
00000000
00100000
00010000
,
00100000
00000000
00000000
01000000
00000000
00000000
10000000
00000000
00100000
00000000
00000000
00000000
01100000
00000000
00000000
00000000
,
20020000
30030000
01000000
00010000
,
00001000
00000000
00000000
00000010
00000000
00000000
00000200
00000000
00000000
00000000
00000000
00000000
00000300
00000000
00001000
00000010
,
00001000
00000000
00000000
00000010
00000000
00000000
00000100
00000000
00002000
00000000
00000000
00000000
00013000
00000000
00000000
00000000
,
00001000
00000000
01000000
00010000
00000000
01100000
00000000
20020000
,
00000000
00000000
30030000
10000000
01000000
00000000
00010000
00000000
,
00002000
00000000
00010000
00010000
00000000
00010000
00000000
00010000
,
00000000
00010000
00010000
00010000
00003000
00000000
00000000
00000000
,
00001000
00000000
00000000
00000100
00000000
00000000
00000010
00000000
00001000
00000000
00000000
00000000
00000001
00000000
00000010
00000000
,
00000100
00000000
00000000
00001000
00000000
00000000
00000100
00000000
00010000
00000000
00000000
00000000
00001000
00000000
00100000
00000000
,
00010000
00000000
00000000
00000000
00100000
00000000
00001000
00000000
00010000
00000000
00000000
01000000
00000000
00000000
10000000
00000000
,
02000000
00000000
00000000
03100000
,
00110000
00000000
00000000
00000000
00000000
00000000
01000000
00010000
02000000
00000000
00000000
03200000
00000000
00000000
00320000
00000000
,
00032000
00000000
00000000
00003200
00000000
00000000
00000320
00000000
00002030
00000000
00000000
00003002
00000000
00000000
00000023
00000000
,
00001030
00000000
00000000
00000000
00011000
00000000
00000000
00000000
00010000
00000000
00000000
01000000
00000000
00000000
00100000
00000000
,
00010000
00000000
00000000
10000000
00000000
00000000
00010000
00000000
10010000
00000000
00000000
00000000
10000000
00000000
01000000
00000000
,
00010000
00000000
00000000
01000000
00000000
00000000
00100000
00000000
00010000
00000000
00000000
00000000
10000000
00000000
00100000
00000000
,
01000000
00000000
00000000
00010000
00000000
00000000
01000000
00000000
00001000
00000000
00000000
00000000
00010000
00000000
00000010
00000000
,
00001000
00000000
00000000
00000000
00000010
00000000
00010000
00000000
00001000
00000000
00000000
00000100
00000000
00000000
00000001
00000000
,
00000200
00000000
00000000
00000310
,
00001010
00000000
00000000
00000000
00000000
00000000
00000100
00001000
00000200
00000000
00000000
00000320
00000000
00000000
00002030
00000000
,
00023000
00000000
00000000
02030000
00000000
00000000
03200000
00000000
00320000
00000000
00000000
20030000
00000000
00000000
30200000
00000000
,
00310000
00000000
00000000
00000000
00011000
00000000
00000000
00000000
00001000
00000000
00000000
00000100
00000000
00000000
00000010
00000000
,
00001000
00000000
00000000
00000001
00000000
00000000
00001000
00000000
00002002
00000000
00000000
00000000
00003003
00000000
00000000
00000000
,
00000010
00000000
00000100
00000001
00000000
00000100
00000001
00000000
00000010
00000000
00000100
00000000
00001000
00000000
00000000
00000000
,
00000100
00000000
00010000
00001000
00000000
00010000
00001000
00000000
01000000
00000000
00010000
00000000
00100000
00000000
00000000
00000000
,
01000000
00000000
10000000
00100000
00000000
10000000
00100000
00000000
01000000
00000000
00001000
00010000
00000000
00001000
00010000
00000000
,
00000100
00000000
00001000
00000010
00000000
00001000
00000010
00000000
00000100
00000000
00000001
00000000
00001000
00000000
00000010
00000000
,
00000100
00000000
00000001
00000010
00000000
00000001
00000010
00000000
00000100
00000000
00000010
00000000
00000100
00000000
00010000
00000000
,
00001000
00000000
00100000
00010000
00000000
00100000
00010000
00000000
00100000
00000000
01000000
00000000
10000000
00000000
00100000
00000000
,
01000000
00000000
00010000
01000000
00000000
00001000
01000000
00000000
00001000
00000000
00010000
00001000
00000000
00010000
00000010
00000000
,
00001000
00000000
00000010
00000100
00000000
00000001
00000100
00000000
00000001
00000000
00000100
00000000
00001000
00000000
00010000
00000000
,
00001000
00010000
00001000
00010000
00000000
00001000
00000000
01000000
00010000
00000000
00100000
00000000
01000000
00000000
01100000
00000000
,
00000000
00000000
00000000
00000000
;
