
//----- song ID: teca -----//
#TITLE:テレキャスタービーボーイ;
#ARTIST:すりぃ feat.鏡音レン;
#TITLETRANSLIT:Telecaster B-boy;
#ARTISTTRANSLIT:Surii feat. Len Kagamine;
#BANNER:Telecaster B-boy.png;
#BACKGROUND:Telecaster B-boy-bg.png;
#CDTITLE:/CDTitles/DDR A20 PLUS.png;
#MUSIC:Telecaster B-boy.ogg;
#SAMPLESTART:39.421;
#SAMPLELENGTH:15;
#BPMS:0=182;
#NOTES:
     dance-single:
     :
     Beginner:
     2:
     :
0000
0000
0000
0000
,
0000
0000
0000
0000
,
0000
0000
0000
0000
,
0000
0000
0000
0000
,
0000
0000
0000
0000
,
0000
0000
0000
0000
,
0001
0000
0000
0000
,
0001
0000
0000
0000
,
1000
0000
0000
0000
,
1000
0000
0000
0000
,
0020
0000
0000
0000
,
0000
0030
0000
0000
,
1000
0000
0000
0000
,
1001
0000
0000
0000
,
0020
0000
0000
0000
,
0000
0030
0000
0000
,
0010
0000
0000
0000
,
1001
0000
0000
0000
,
0020
0000
0000
0000
,
0000
0030
0000
0000
,
0001
0000
0000
0000
,
1001
0000
0000
0000
,
0020
0000
0000
0000
,
0000
0030
0000
0000
,
0100
0000
0000
0000
,
1001
0000
0000
0000
,
0000
0000
0000
0000
,
0100
0000
0000
0000
,
0000
0000
0000
0000
,
0100
0000
0000
0000
,
1000
0000
0001
0000
,
1000
0000
0001
0000
,
0000
0000
0000
0000
,
1001
0000
0000
0000
,
0001
0000
1000
0000
,
0001
0000
1000
0000
,
0000
0000
0000
0000
,
1001
0000
0000
0000
,
0001
0000
0000
0000
,
0001
0000
0000
0000
,
1000
0000
0000
0000
,
1000
0000
0000
0000
,
1000
0000
0001
0000
,
1000
0000
0001
0000
,
0000
0000
0000
0000
,
1001
0000
0000
0000
,
1000
0000
0000
0000
,
0100
0000
0000
0000
,
0001
0000
0000
0000
,
0010
0000
0000
0000
,
0010
0000
0000
0000
,
0001
0000
0000
0000
,
0100
0000
0000
0000
,
1000
0000
0000
0000
,
0200
0000
0000
0300
,
0000
0000
0000
0000
,
0200
0000
0000
0300
,
0000
0000
0000
0000
,
0020
0000
0000
0030
,
0000
0000
0000
0000
,
0020
0000
0000
0030
,
0000
0000
0000
0000
,
1001
0000
0000
0000
,
0001
0000
1000
0000
,
0000
0000
0000
0000
,
0010
0000
0000
0000
,
1001
0000
0000
0000
,
1000
0000
0001
0000
,
0000
0000
0000
0000
,
0010
0000
0000
0000
,
1001
0000
0000
0000
,
0001
0000
0000
0000
,
0001
0000
0000
0000
,
1000
0000
0000
0000
,
1000
0000
0000
0000
,
0001
0000
1000
0000
,
0000
0000
0000
0000
,
0010
0000
0000
0000
,
1001
0000
0000
0000
,
0020
0000
0030
0000
,
0000
0000
0000
0000
;
#NOTES:
     dance-single:
     :
     Easy:
     5:
     :
0000
0000
0000
0000
,
0000
0000
0000
0000
,
0000
0000
0000
0000
,
0000
0000
0000
0000
,
0000
0000
0000
0000
,
0000
0000
0000
0000
,
0001
0000
0001
0000
,
1000
0000
0010
0000
,
1000
0000
1000
0000
,
0001
0000
0010
0000
,
0010
0000
0001
0000
,
1000
0000
0100
0000
,
1000
0100
0001
0000
,
0100
0000
1001
0000
,
1000
0000
0001
0000
,
0010
0000
0100
0000
,
1000
0100
0001
0000
,
0100
0000
1001
0000
,
0001
0000
0100
0000
,
0010
0000
1000
0000
,
1000
0100
0001
0000
,
0100
0000
1001
0000
,
1000
0000
0001
0000
,
0100
0000
0010
0000
,
1000
0010
0001
0010
,
0000
1001
0000
1001
,
0000
1000
0000
0001
,
0000
0010
0000
0100
,
0000
1000
0000
0001
,
0200
0000
0300
0000
,
1000
0000
0001
0000
,
1000
0000
0001
0000
,
0020
0030
0002
0003
,
0200
0300
1001
0000
,
0001
0000
1000
0000
,
0001
0000
1000
0000
,
0020
0030
2000
3000
,
0200
0300
1001
0000
,
1000
0000
0100
0000
,
0001
0000
0100
0000
,
0010
0000
0001
0000
,
0100
0000
0001
0000
,
1000
0000
0001
0000
,
1000
0000
0001
0000
,
0020
0030
0002
0003
,
0200
0300
1001
0000
,
0010
0000
1000
0000
,
0100
0000
0001
0000
,
0010
0000
1000
0000
,
0200
0000
0300
0000
,
0100
0000
1000
0000
,
0010
0000
0001
0000
,
0100
0000
1000
0000
,
0020
0000
0030
0000
,
2000
0000
3000
0000
,
0200
0000
0300
0000
,
0002
0000
0003
0000
,
0200
0000
0300
0000
,
2000
0000
3010
0000
,
0002
0000
0013
0000
,
2000
0000
3100
0000
,
0001
0100
1000
0000
,
1001
0000
0000
0000
,
0001
0100
0010
1000
,
0000
0100
0000
0100
,
0000
0000
0010
0010
,
2002
0000
3003
0000
,
1000
0100
0010
0001
,
0000
0100
0000
0100
,
0000
0000
0010
0010
,
2002
0000
3003
0000
,
0001
0000
0100
0000
,
1000
0000
0100
0000
,
0001
0000
0010
0000
,
1000
0000
0010
0000
,
0001
0100
0010
1000
,
0000
0100
0000
0100
,
0000
0000
0010
0010
,
2002
0000
3003
0000
,
0010
0100
0010
0000
,
0000
0000
0000
0000
;
#NOTES:
     dance-single:
     :
     Medium:
     9:
     :
0000
0000
0000
0000
,
0000
0000
0000
0000
,
0000
0000
0000
0000
,
0000
0000
0000
0000
,
0000
0000
0000
0000
,
0000
0000
0000
0000
,
0002
0003
0020
0030
,
0200
0300
2002
3003
,
2000
3000
0020
0030
,
0200
0300
2002
3003
,
2000
0000
0000
3100
0000
1000
0100
0000
,
0020
0000
0000
0130
0000
0010
0100
0000
,
1000
0100
0001
0100
,
1000
0001
0000
1001
0000
0000
0000
0000
,
0002
0000
0000
0103
0000
0001
0100
0000
,
0020
0000
0000
0130
0000
0010
0100
0000
,
1000
0100
0001
0100
,
0010
0100
0000
1001
0000
1000
0001
0000
,
2000
0000
0000
3010
0000
1000
0010
0000
,
0200
0000
0000
0310
0000
0100
0010
0000
,
1000
0010
0001
0010
,
1000
0001
0000
1001
0000
0000
0000
0000
,
0002
0000
0000
0013
0000
0001
0010
0000
,
0200
0000
0000
0310
0000
0100
0010
0000
,
1000
0010
0001
0010
,
0100
0010
0000
1001
0000
1000
0001
0000
,
2000
0000
0000
3000
0002
0000
0000
0003
,
0100
0001
1000
0000
,
0002
0000
0000
0003
2000
0000
0000
3000
,
0100
1000
0000
1001
0000
0000
0000
0002
,
1003
0000
0200
0300
0010
0000
0002
0003
,
1000
0000
0200
0300
0010
0000
0002
0003
,
0020
0030
0002
0003
,
0200
0300
2001
0000
,
3001
0000
0200
0300
0010
0000
2000
3000
,
0001
0000
0200
0300
0010
0000
2000
3000
,
0020
0030
2000
3000
,
0200
0300
0110
1001
,
1000
0100
0001
0000
0100
0000
1000
0000
,
0001
0100
1000
0000
0100
0000
0001
0000
,
1000
0010
0001
0000
0010
0000
1000
0000
,
0001
0010
1000
0000
0010
0000
0002
0000
,
1003
0000
0200
0300
0010
0000
0002
0003
,
1000
0000
0200
0300
0010
0000
0002
0003
,
0020
0030
0002
0003
,
0200
0300
0110
1001
,
0001
0100
0000
0010
0000
1000
0000
0001
,
0000
0010
0000
0100
0000
0001
0000
1000
,
0000
0100
0000
0010
0000
1000
0000
0001
,
0000
0010
0000
0100
0000
0010
0100
0010
,
0000
0001
0000
1000
0000
0010
0000
0100
,
0000
1000
0000
0001
0000
0100
0000
0010
,
0000
0001
0000
1000
0000
0010
0000
0100
,
0010
0000
0010
0100
0000
0000
0000
0000
,
0020
0030
2000
3000
,
0200
0000
1000
0000
,
0320
0030
0002
0003
,
0200
0000
0001
0000
,
0320
1000
0000
1030
,
2000
0001
0000
3001
,
0002
0010
0000
0013
,
0002
0103
2000
3100
,
0110
0000
0000
0000
0000
0000
0000
0001
,
0100
0000
1000
0000
1000
0100
0001
0000
,
0000
0110
0000
0110
,
0100
0000
0010
0010
,
2002
0000
0000
0000
3003
0000
0000
1000
,
0100
0000
0001
0000
0001
0100
1000
0000
,
0000
0110
0000
0110
,
0100
0000
0010
0010
,
2002
0000
0000
0000
3003
0000
0000
0001
,
0100
1000
0100
0001
,
1000
0000
1000
0000
0010
0000
0001
0010
,
1000
0001
0010
1000
,
0001
0000
0100
0000
1000
0000
0010
1000
,
0010
0000
0001
0000
1000
0100
0001
0000
,
0000
0110
0000
0110
,
0100
0000
0010
0010
,
2002
0000
3003
0000
,
0001
0010
0100
1000
0001
0000
0000
0000
,
0000
0000
0000
0000
;
#NOTES:
     dance-single:
     :
     Hard:
     12:
     :
0000
0000
0000
0000
,
0000
0000
0000
0000
,
0000
0000
0000
0000
,
0000
0000
0000
0000
,
0000
0000
0000
0000
,
0000
0000
0000
0000
,
0001
0000
0000
0001
0000
0010
0100
1000
,
0010
0000
0000
0010
0000
0100
0001
0010
,
1000
0000
0000
1000
0000
0010
0001
0100
,
0001
0000
0000
0001
0000
0000
0000
0001
,
1000
0010
1000
0020
0000
1030
0100
0010
,
0100
1000
0000
1100
0000
0000
0000
0200
,
1000
0000
0010
0000
0301
0000
0001
0100
,
1000
0001
0000
1001
0000
0000
0000
1000
,
0001
0010
0001
0020
0000
0031
0100
0010
,
0100
0001
0000
0101
0000
0000
0000
0200
,
1000
0000
0010
0000
0301
0000
0100
0010
,
0100
0010
0000
1001
0000
0110
1001
0001
,
0010
1000
0010
0002
0000
0013
1000
0001
,
0100
0000
1000
0000
0000
0000
1001
0000
0000
0000
1000
0001
1000
0000
0020
0000
,
1000
0000
0100
0000
0031
0000
0010
0001
,
0010
0000
1000
0000
0000
0000
1001
0000
0000
0000
1000
0001
1000
0000
0001
0000
,
0100
1000
0100
0002
0000
1003
0010
0001
,
1000
0000
0100
0000
0000
0000
0110
0000
0000
0000
0100
0010
0100
0000
0020
0000
,
1000
0000
0100
0000
0031
0000
0010
0100
,
0001
0000
0010
0000
0000
0000
0110
0000
0000
0000
0010
0001
1000
0000
0000
0000
,
0001
0020
0000
0031
1000
0200
0000
1300
,
0002
0000
2003
0000
3001
0000
0000
0002
,
0000
1003
0001
1000
0001
0000
0100
1000
,
0100
0001
0000
1001
0000
0000
0000
0002
,
1000
0203
0010
0302
,
1000
0203
0010
0302
,
0023
0030
0002
0003
,
0200
0000
0300
0110
0000
0000
1001
2000
,
0001
3200
0010
2300
,
0001
3200
0010
2300
,
3020
0030
2000
3000
,
0200
0000
0300
0110
0000
0000
1001
1000
,
0010
0001
0000
1000
0100
0001
0000
1001
,
0000
1000
0010
0001
1000
0100
0000
1001
,
0000
0001
0010
1000
0001
0100
1000
0001
,
0020
0000
0000
0130
2000
0000
0000
3002
,
1000
0203
0010
0302
,
1000
0203
0010
0302
,
0023
0030
0002
0003
,
0200
0000
0300
0110
0000
0000
1001
0000
,
0001
0010
0001
0010
0001
0010
0100
2000
,
3000
0100
1000
0010
0001
0010
1000
0200
,
0300
0100
0020
0030
0010
0001
0100
0020
,
0030
0000
2000
0000
0100
0000
0000
0000
0100
0000
0000
0001
0000
0000
3020
0000
,
0030
1000
0020
0030
2000
3000
0001
0200
,
0300
0001
0100
0010
0002
0003
0010
2000
,
3000
0100
0001
0100
1000
0100
0001
0100
,
2000
3000
0010
0200
0000
0000
0300
0000
,
0020
0000
2030
0000
,
3200
0000
0000
0300
,
0020
0000
0032
0000
,
0203
0000
0320
2030
,
3002
0100
0100
0103
,
2000
0100
0100
3100
,
0200
0010
0010
0310
,
0020
0000
0031
0000
0010
0001
1000
0001
,
1001
0000
0000
0000
,
1000
0010
0001
1000
0100
0001
1000
0010
,
0000
0220
0330
0220
,
0330
0100
0010
0100
0010
0100
0010
0000
,
0110
2002
3003
0000
,
0001
0010
1000
0001
0100
1000
0001
0010
,
0000
0220
0330
0220
,
0330
0100
0010
0100
0010
0100
0010
0000
,
0110
0000
2002
0000
3003
0000
0000
1000
,
0010
0001
0000
1000
0100
0001
0000
1001
,
0000
1000
0010
0001
1000
0100
0000
1001
,
0000
0001
0010
1000
0001
0100
1000
0001
,
0020
0000
0000
0031
2000
0000
0000
3010
,
1000
0010
0001
1000
0100
0001
1000
0010
,
0000
0220
0330
0220
,
0330
0100
0010
0100
0010
0100
0010
0000
,
1001
0001
2000
0000
3001
0000
0000
0000
,
0010
0001
0100
0001
1001
0000
0000
0000
,
0000
0000
0000
0000
;
#NOTES:
     dance-double:
     :
     Easy:
     6:
     :
00000000
00000000
00000000
00000000
,
00000000
00000000
00000000
00000000
,
00000000
00000000
00000000
00000000
,
00000000
00000000
00000000
00000000
,
00000000
00000000
00000000
00000000
,
00000000
00000000
00000000
00000000
,
00010000
00000000
00010000
00000000
,
00001000
00000000
00000010
00000000
,
00001000
00000000
00001000
00000000
,
00010000
00000000
00100000
00000000
,
00010000
00000000
00100000
00000000
,
10000000
00000000
01000000
00000000
,
01000000
00010000
00001000
00000000
,
00010000
00000000
00011000
00000000
,
00001000
00000000
00010000
00000000
,
00100000
00000000
00010000
00000000
,
00100000
00010000
00001000
00000000
,
00010000
00000000
00011000
00000000
,
00001000
00000000
00000010
00000000
,
00001000
00000000
00010000
00000000
,
00010000
00001000
00000010
00000000
,
00001000
00000000
00011000
00000000
,
00001000
00000000
00000100
00000000
,
00001000
00000000
00010000
00000000
,
00010000
00001000
00000100
00001000
,
00000000
00011000
00000000
00011000
,
00000000
00001000
00000000
00010000
,
00000000
00100000
00000000
10000000
,
00000000
00010000
00000000
01000000
,
00002000
00000000
00003000
00000000
,
00100000
00010000
00000010
00001000
,
00100000
00010000
00000010
00001000
,
00020000
00030000
00002000
00003000
,
00020000
00030000
00011000
00000000
,
00000010
00001000
00100000
00010000
,
00000010
00001000
00100000
00010000
,
00002000
00003000
00020000
00030000
,
00002000
00003000
00011000
00000000
,
00010000
00000000
01000000
00000000
,
00010000
00000000
00001000
00000000
,
00000100
00000000
00001000
00000000
,
00010000
00000000
00001000
00000000
,
00100000
00010000
00000010
00001000
,
00100000
00010000
00000010
00001000
,
00020000
00030000
00002000
00003000
,
00020000
00030000
00011000
00000000
,
00100000
00000000
10000000
00000000
,
01000000
00000000
00010000
00000000
,
00100000
00000000
10000000
00000000
,
01000000
00000000
00010000
00001000
,
00000010
00000000
00000001
00000000
,
00000100
00000000
00001000
00000000
,
00000010
00000000
00000001
00000000
,
00000100
00000000
00001000
00000000
,
00020000
00000000
00030000
00000000
,
00002000
00000000
00003000
00000000
,
00002000
00000000
00003000
00000000
,
00020000
00000000
00030000
00000000
,
00020000
00000000
00031000
00000000
,
00002000
00000000
00013000
00000000
,
00020000
00000000
00031000
00000000
,
00000010
00000001
00000100
00000000
,
00000110
00000000
00000000
00000000
,
00000100
00001000
00010000
00100000
,
00000000
01000000
00000000
01000000
,
00000000
00000000
00100000
00100000
,
20020000
00000000
30030000
00000000
,
01000000
00010000
00001000
00000010
,
00000000
00000100
00000000
00000100
,
00000000
00000000
00000010
00000010
,
00002002
00000000
00003003
00000000
,
00000001
00000000
00000100
00000000
,
00001000
00000000
00010000
00000000
,
00100000
00000000
10000000
00000000
,
01000000
00000000
00010000
00001000
,
00000100
00001000
00010000
00100000
,
00000000
01000000
00000000
01000000
,
00000000
00000000
00100000
00100000
,
20020000
00000000
30030000
00000000
,
00100000
00001000
00010000
00000000
,
00000000
00000000
00000000
00000000
;
#NOTES:
     dance-double:
     :
     Medium:
     9:
     :
00000000
00000000
00000000
00000000
,
00000000
00000000
00000000
00000000
,
00000000
00000000
00000000
00000000
,
00000000
00000000
00000000
00000000
,
00000000
00000000
00000000
00000000
,
00000000
00000000
00000000
00000000
,
00020000
00030000
00000020
00000030
,
00000200
00000300
00000202
00000303
,
00000200
00000300
00020000
00030000
,
02000000
03000000
02020000
03030000
,
02000000
00000000
00000000
03010000
00000000
01000000
00010000
00000000
,
02000000
00000000
00000000
03001000
00000000
01000000
00001000
00000000
,
01000000
00001000
00000010
00001000
,
00010000
00001000
00000000
00011000
00000000
00000000
00000000
00000000
,
00020000
00000000
00000000
01030000
00000000
00100000
01000000
00000000
,
02000000
00000000
00000000
03010000
00000000
01000000
00010000
00000000
,
01000000
00010000
00000010
00001000
,
00000010
00010000
00000000
00011000
00000000
00001000
00010000
00000000
,
00002000
00000000
00000000
00013000
00000000
00001000
01000000
00000000
,
00200000
00000000
00000000
00310000
00000000
00100000
00010000
00000000
,
00100000
00010000
00000100
00001000
,
00000100
00010000
00000000
00011000
00000000
00000000
00000000
00000000
,
00020000
00000000
00000000
01030000
00000000
00010000
01000000
00000000
,
00200000
00000000
00000000
00301000
00000000
00100000
00001000
00000000
,
00100000
00001000
00000100
00001000
,
00010000
00001000
00000000
00011000
00000000
00001000
00001000
00000000
,
00020000
00000000
00000000
00030000
00002000
00000000
00000000
00003000
,
01000000
00001000
00010000
00000000
,
00002000
00000000
00000000
00003000
00020000
00000000
00000000
00030000
,
00000100
00010000
00000000
00011000
00000000
00000000
00000000
00000000
,
00100000
00010000
00000010
00001000
,
00100000
00010000
00000010
00001000
,
00000020
00000030
00000002
00000003
,
00000200
00000300
00000000
00011000
,
00000010
00001000
00100000
00010000
,
00000010
00001000
00100000
00010000
,
00200000
00300000
20000000
30000000
,
02000000
03000000
00000000
00011000
,
00001000
00000100
00000010
00001000
,
00010000
01000000
00100000
00010000
,
00001000
00000010
00000100
00001000
,
00010000
00000000
00100000
00000000
01000000
00000000
00010000
00001000
,
00100000
00010000
00000010
00001000
,
00100000
00010000
00000010
00001000
,
00000020
00000030
00000002
00000003
,
00000200
00000300
00000000
00011000
,
00010000
00100000
00000000
01000000
00000000
00010000
00000000
10000000
,
00000000
01000000
00000000
00100000
00000000
10000000
00000000
00010000
,
00000000
00100000
00000000
01000000
00000000
00010000
00000000
10000000
,
00000000
01000000
00000000
00100000
00000000
00010000
00000000
00001000
,
00000000
00000100
00000000
00000010
00000000
00000001
00000000
00001000
,
00000000
00000010
00000000
00000100
00000000
00001000
00000000
00000001
,
00000000
00000100
00000000
00000010
00000000
00000001
00000000
00001000
,
00000001
00000000
00000001
00002000
00000000
00003000
00000000
00000000
,
00000020
00000030
00020000
00030000
,
00002000
00000000
00010000
00000000
,
00203000
00300000
00002000
00003000
,
00020000
00000000
00001000
00000000
,
00032000
00010000
00000000
00013000
,
00020000
00001000
00000000
00031000
,
00002000
00010000
00000000
00013000
,
00002000
00003010
00000001
00000100
,
00001001
00000000
00000000
00000000
00000000
00000000
00000000
00000001
,
00000100
00001000
00010000
00100000
,
00000000
01100000
00000000
01100000
,
01000000
00000000
00100000
00100000
,
20020000
00000000
00000000
00000000
30030000
00000000
00000000
10000000
,
01000000
00010000
00001000
00000010
,
00000000
00000110
00000000
00000110
,
00000100
00000000
00000010
00000010
,
00002002
00000000
00000000
00000000
00003003
00000000
00000000
00000001
,
00000100
00001000
01000000
00010000
,
00000100
00000000
00001000
00000000
01000000
00000000
00010000
10000000
,
01000000
00010000
00000100
00001000
,
01000000
00000000
00010000
00000000
00000100
00000000
00001000
00000001
,
00000100
00001000
00010000
00100000
,
00000000
01100000
00000000
01100000
,
01000000
00000000
00100000
00100000
,
20020000
00000000
30030000
00000000
,
00010000
01000000
00001000
00010000
00001000
00000000
00000000
00000000
,
00000000
00000000
00000000
00000000
;
#NOTES:
     dance-double:
     :
     Hard:
     12:
     :
00000000
00000000
00000000
00000000
,
00000000
00000000
00000000
00000000
,
00000000
00000000
00000000
00000000
,
00000000
00000000
00000000
00000000
,
00000000
00000000
00000000
00000000
,
00000000
00000000
00000000
00000000
,
00000001
00000000
00000000
00000001
00000000
00000010
00000100
00001000
,
00000010
00000000
00000000
00000010
00000000
00000100
00001000
00010000
,
00100000
00000000
00000000
00100000
00000000
00100000
00010000
00001000
,
00010000
00000000
00000000
00010000
00000000
00000000
00000000
00001000
,
00000010
00000001
00000100
00000002
00000000
00000103
00001000
00010000
,
00100000
10000000
00000000
10100000
00000000
00000000
00000000
00000000
,
01010000
00000000
00011000
00000000
00001010
00000000
00000010
00000100
,
00001000
00010000
00000000
00011000
00000000
00000000
00000000
00001000
,
00000100
00000001
00000010
00000002
00000000
00000013
00001000
00010000
,
01000000
10000000
00000000
11000000
00000000
00000000
00000000
00000000
,
00110000
00000000
00011000
00000000
00001100
00000000
00000100
00000010
,
00001000
00010000
00000000
00011000
00000000
00001000
00001000
00010000
,
00000010
00001000
00000010
00000002
00000000
00000013
00001000
00010000
,
01000000
10000000
00000000
01100000
00000000
00000000
00000000
00000000
,
01100000
00000000
00011000
00000000
00000110
00000000
00000001
00000100
,
00001000
00010000
00000000
00011000
00000000
00001000
00001000
00010000
,
00000100
00001000
00000100
00000002
00000000
00000103
00001000
00010000
,
00100000
10000000
00000000
01100000
00000000
00000000
00000000
00000000
,
01100000
00000000
00011000
00000000
00000110
00000000
00000001
00000010
,
00001000
00010000
00000000
00011000
00000000
00001000
00001000
00000000
,
00010000
00200000
00000000
00310000
00001000
00000200
00000000
00001300
,
00020000
00000000
00032000
00000000
00013000
00000000
00000000
00020000
,
00000000
00031000
00010000
00001000
00010000
00000000
01000000
10000000
,
01000000
00010000
00000000
00011000
00000000
00000000
00000000
00002000
,
00100000
00023000
00000010
00032000
,
00100000
00023000
00000010
00032000
,
00003020
00000030
00000002
00000003
,
00000200
00000000
00000300
00000110
00000000
00000000
00011000
00020000
,
00000010
00032000
00100000
00023000
,
00000010
00032000
00100000
00023000
,
00230000
00300000
20000000
30000000
,
02000000
00000000
03000000
01100000
00000000
00000000
00011000
00001000
,
00010000
00000100
00000000
00001000
00000100
00000001
00000000
00000110
,
00000000
00000001
00000010
00001000
00010000
00001000
00000000
00011000
,
00000000
00001000
00010000
00100000
10000000
01000000
00010000
00001000
,
00000020
00000000
00000000
00001030
00020000
00000000
00000000
00032000
,
00100000
00023000
00000010
00032000
,
00100000
00023000
00000010
00032000
,
00003020
00000030
00000002
00000003
,
00000200
00000000
00000300
00000110
00000000
00000000
00011000
00000000
,
00010000
00100000
00010000
00100000
00010000
00100000
10000000
02000000
,
03000000
01000000
00010000
00001000
00100000
00010000
00100000
00020000
,
00030000
00010000
00200000
00300000
00100000
00010000
01000000
00200000
,
00300000
00000000
10000000
00000000
01000000
00000000
00100000
00000000
01000000
00000000
00000000
00010000
00000000
00000000
00002000
00000000
,
00003000
00000000
00000020
00000030
00000002
00000003
00000100
00002000
,
00003000
00001000
00010000
00001000
00000200
00000300
00000001
00000200
,
00000300
00000100
00001000
00000100
00010000
00000100
00001000
00000100
,
00000002
00000003
00000010
00002000
00000000
00000000
00003000
00000000
,
00020000
00000000
00230000
00000000
,
20300000
00000000
00000000
30000000
,
02000000
00000000
03020000
00000000
,
00032000
00000000
00003020
00000032
,
00000203
00000001
00000001
00000301
,
00002000
00000100
00000100
00003100
,
00020000
00001000
00001000
00031000
,
00200000
00000000
00310000
00000000
00001000
00000100
00000010
00000001
,
00001001
00000000
00000000
00000000
00000000
00000000
00000000
00000001
,
00000100
00000010
00002000
00000000
00013000
01000000
00100000
10000000
,
00000000
02200000
03300000
02200000
,
03300000
10000000
00010000
01000000
00001000
00010000
01000000
00000000
,
01100000
00000000
00010000
10000000
00000000
00000000
00000000
10000000
,
01000000
00100000
00020000
00000000
00031000
00000100
00000010
00000001
,
00000000
00000220
00000330
00000220
,
00000330
00000001
00001000
00000100
00010000
00001000
00000100
00000000
,
00000110
00000000
00000000
00001000
00000001
00000000
00000000
00000001
,
00000100
00000010
00000000
00001000
00010000
01000000
00000000
01100000
,
00000000
00100000
10000000
01000000
10000000
01000000
00000000
11000000
,
00000000
01000000
00010000
00001000
00000010
00001000
00010000
00001000
,
00000020
00000000
00000030
00000001
00000200
00000000
00000300
00000001
,
00000100
00000010
00002000
00000000
00013000
01000000
00100000
10000000
,
00000000
00000000
02200000
03300000
00000000
00000000
02200000
00000000
,
03300000
10000000
00010000
01000000
00001000
00010000
01000000
10000000
,
00010000
01000000
00010000
00000000
10000000
00000000
00000000
00000000
,
00001000
00100000
01000000
00010000
00001000
00000000
00000000
00000000
,
00000000
00000000
00000000
00000000
;
