
//----- song ID: taki2 -----//
#TITLE:Taking It To The Sky (PLUS step);
#ARTIST:BEMANI Sound Team "U1" feat. Tammy S. Hansen;
#BANNER:Taking It To The Sky (PLUS step).png;
#BACKGROUND:Taking It To The Sky (PLUS step)-bg.png;
#CDTITLE:./CDTitles/DDR A20 PLUS.png;
#MUSIC:Taking It To The Sky (PLUS step).ogg;
#SAMPLESTART:72.865;
#SAMPLELENGTH:15;
#BPMS:0=135;
#NOTES:
     dance-single:
     :
     Beginner:
     2:
     :
0000
0000
0000
0000
,
0000
0000
0000
0000
,
0000
0000
0000
0000
,
0000
0000
0000
0000
,
0000
0000
0000
0000
,
2002
0000
0000
0000
,
0000
0000
3003
0000
,
0001
0000
0001
0000
,
0010
0000
0100
0000
,
0010
0000
0010
0000
,
1000
0000
0100
0000
,
1000
0000
0010
0000
,
1000
0000
0100
0000
,
0010
0000
0010
0000
,
0001
0000
0001
0000
,
0100
0100
0000
0000
,
0010
0010
0000
0000
,
2000
0000
3000
0000
,
0002
0000
0003
0000
,
0100
0000
0010
0000
,
0100
0000
0001
0000
,
0010
0000
0001
0000
,
0100
0000
0010
0000
,
1000
1000
0000
0000
,
0001
0001
0000
0000
,
0100
0000
0001
0000
,
0100
0000
0001
0000
,
1000
0000
0010
0000
,
0100
0000
0001
0000
,
1000
0000
0100
0000
,
1000
0000
0100
0000
,
0010
0000
0001
0000
,
1000
0000
0100
0000
,
0010
0000
0100
0000
,
0010
0000
0001
0000
,
1000
0000
0000
0000
,
1000
0000
0000
0000
,
0010
0000
0000
0000
,
0010
0000
0000
0000
,
0100
0000
0000
0000
,
0100
0000
0000
0000
,
0001
0000
0010
0000
,
0001
0000
0010
0000
,
1000
0000
0100
0000
,
1000
0000
0100
0000
,
0010
0000
0001
0000
,
1000
0000
0001
0000
,
0100
0000
0010
0000
,
0100
0000
0010
0000
,
2002
0000
0000
0000
,
0000
0000
0000
3003
,
0000
0000
0000
0000
;
#NOTES:
     dance-single:
     :
     Easy:
     6:
     :
0000
0000
0000
0000
,
0000
0000
0000
0000
,
0000
0000
0000
0000
,
0000
0000
0000
0000
,
0000
0000
0000
0000
,
2002
0000
0000
0000
,
0000
3003
0100
0010
,
1000
0100
1000
0001
,
0010
0010
0100
0100
,
1000
0001
0010
0001
,
0100
0000
0010
0000
,
1000
0100
1000
0000
,
0001
0010
0100
1000
,
0010
0100
0010
0100
,
0001
0010
0001
0000
,
1000
0000
1000
0010
0000
0000
0000
0000
,
0001
0000
0001
0010
0000
0000
0000
0000
,
0200
0300
0020
0030
,
0001
0001
0100
0010
,
0100
0001
0100
0000
,
0010
1000
0001
0010
,
0100
0010
0100
1000
,
0010
1000
0001
0000
,
1000
0000
1000
0100
0000
0000
0000
0000
,
0001
0000
0001
0100
0000
0000
0000
0000
,
0010
0010
1000
1000
,
0001
0000
0001
0100
0001
0000
0000
0000
,
1000
0100
0001
0100
,
1000
0010
0001
0010
,
1000
0001
1000
0001
,
0100
0100
0010
0010
,
0100
0001
0010
0000
,
0100
1000
0010
0000
,
0100
0001
0100
0001
,
1000
0100
0010
0000
,
0001
0000
0000
0100
0000
0100
0000
0100
,
0000
0000
0010
0010
,
1000
0000
0000
0100
0000
0100
0000
0100
,
0000
0000
0010
0010
,
0001
0000
0000
0100
0000
0010
0000
0100
,
0000
0000
1000
0100
,
0010
0001
0010
0001
,
1000
0000
0100
0000
1000
0010
1000
0000
,
0001
0100
0001
0100
,
0010
0000
1000
0000
0010
0100
0010
0000
,
1000
0100
1000
0100
,
0010
0000
0001
0000
0010
0100
0010
0000
,
0001
0100
0010
1000
,
0001
0000
0100
0000
0010
1000
0010
0000
,
0100
0000
0000
0010
0000
0010
0000
0200
,
0000
0000
0000
0300
,
0000
0000
0000
0000
;
#NOTES:
     dance-single:
     :
     Medium:
     9:
     :
0000
0000
0000
0000
,
0000
0000
0000
0000
,
0000
0000
0000
0000
,
0000
0000
0000
0000
,
0000
0000
0000
0000
,
0001
0100
0000
0010
0000
1000
0000
2002
,
0000
0000
3003
0001
0001
0000
1001
0000
,
0010
0100
0001
0010
,
0100
1000
0100
0000
0010
0001
0010
0000
,
0001
1000
0010
0100
,
0001
0010
0001
0000
1000
0100
1000
0000
,
0001
0000
0010
0100
0010
0100
0000
1000
,
0000
1000
0010
0000
0110
0000
1001
0000
,
0010
0100
0001
1000
,
0100
0010
0100
0000
0010
0000
0011
0000
,
0001
0100
0001
0010
0000
0100
1000
0000
,
0010
0000
0100
0010
0000
0100
0001
0100
,
0002
0013
2000
3010
,
0100
0001
0100
0001
0010
0000
0100
0000
,
1000
0000
0010
1000
0010
0100
0000
0001
,
0000
0010
0001
0000
1000
0000
1010
0000
,
0001
0010
0100
1000
,
0010
0100
0010
0000
1000
0000
1001
0000
,
0010
0001
0010
0100
0000
1000
0010
0000
,
0100
0000
0001
0010
0000
0001
1000
0000
,
0010
0100
0010
0000
1000
0100
1000
0000
,
0001
0010
0001
0100
0010
0000
0110
0000
,
1000
0000
0100
0000
0001
0100
1000
0000
,
0001
0000
0010
0000
1000
0010
0001
0000
,
1000
0000
0010
0000
0001
0010
1000
0000
,
0100
0010
0100
0000
0010
0001
0010
0000
,
0100
0110
1000
1100
,
0010
0110
0001
0011
,
1000
0100
1000
0000
0001
0000
0010
0000
,
0001
1000
0001
1000
0100
0000
0010
0000
,
0001
0001
0000
1000
0000
1000
0000
1000
,
0000
0000
0000
0010
0100
0000
0110
0000
,
1000
1000
0000
0001
0000
0001
0000
0001
,
0000
0010
0000
0100
0000
0010
0001
0000
,
0100
0010
0100
0001
0000
0001
0000
1000
,
0000
1000
0000
0100
0010
0100
0010
0000
,
0001
0200
0310
0000
1000
0200
0310
0000
,
0001
0000
0010
0001
0010
0001
0100
0000
,
0010
2000
3100
0000
0010
0002
0103
0000
,
0010
0000
1000
0100
1000
0100
0010
0000
,
0001
0200
0301
0000
1000
0200
1300
0000
,
0010
0000
0100
0001
0200
0000
2300
0000
,
3100
0002
0103
0000
1000
0200
1300
0000
,
0100
0000
0010
1000
0020
0000
0032
0000
,
1003
0100
0001
0010
0000
0010
0000
0200
,
0000
0000
0000
0300
,
0000
0000
0000
0000
;
#NOTES:
     dance-single:
     :
     Hard:
     13:
     :
0000
0000
0000
0000
,
0000
0000
0000
0000
,
0000
0000
0000
0000
,
0000
0000
0000
0000
,
0000
0000
0000
0000
,
1000
0100
0010
0110
0000
0011
0000
2002
,
0000
0000
3003
0100
0100
0000
0110
0000
,
0001
0100
0010
0000
1000
0100
0010
0000
,
0001
0000
0100
0000
0010
0000
1000
0000
0001
0000
1000
0001
0010
0000
0000
0000
,
0100
1000
0010
0000
0100
0001
0010
0000
,
0001
0000
1000
0000
0100
0000
0010
0000
0001
0000
0100
0010
1000
0000
1010
0000
,
0100
0010
0100
0001
1000
0100
0001
0100
,
1000
0010
1000
0001
0101
0000
1100
0000
,
0010
0001
0100
0010
1000
0010
1000
0100
,
0010
0001
0010
0000
0001
0100
0001
0000
1000
0100
1000
0000
1100
0000
0001
0000
,
0100
0000
0010
1000
0001
0000
1001
0000
0001
0000
0100
0000
0010
0000
1000
0000
,
0001
0000
0010
0001
1000
0000
0110
0000
0100
0000
0010
0000
1000
0000
0010
0000
,
0210
0001
0010
1300
,
0001
0000
0001
0000
0100
0010
0100
0000
0110
0000
1000
0100
1000
0000
0001
0000
,
0010
0100
0010
0001
1000
0010
0001
0010
,
1000
0001
0100
0010
1010
0000
0011
0000
,
1000
0001
0100
0001
0010
0100
1000
0010
,
0100
0000
0001
0010
0001
0000
0100
0010
0100
0000
0010
1000
0001
0000
1001
0000
,
0010
0000
0100
0001
0100
0000
0201
0000
0000
0000
0301
0000
0100
0000
0010
0000
,
1000
0000
0100
1000
0100
0000
2100
0000
0000
0000
3010
0000
0011
0000
0000
0000
,
0100
0000
0010
1000
0010
0000
1010
0000
1000
0000
0001
0000
0010
0000
0100
0000
,
0010
0000
0001
0100
0001
0000
0101
0000
0001
0000
1000
0000
0010
0000
0100
0000
,
0001
0000
0110
0000
1000
0100
0001
0100
,
1000
0000
0110
0000
0001
0100
1000
0100
,
0001
0010
0001
0000
1000
0010
1000
0000
,
0100
0000
0010
0000
0001
0000
0100
0001
0100
0000
0001
0000
0011
0000
0000
0000
,
1000
0100
1100
0000
0001
0100
0101
0000
,
0010
1000
1010
0000
0100
0010
0110
0000
,
0010
0001
0100
0000
0010
1000
0100
0000
,
0010
0001
0010
0100
1000
0010
1000
0010
,
0100
0100
0000
0001
0000
0001
0000
0020
,
0000
0000
0000
0130
0010
0000
0110
0000
,
1000
1000
0000
0010
0000
0010
0000
0100
,
0001
0000
0010
0000
0001
0000
0100
0010
0100
0000
0010
0000
1000
0000
0000
0000
,
0001
0000
0001
0000
0010
0001
0010
0000
0000
0000
0010
0000
0010
0000
0001
0000
,
1000
0000
0100
0000
1000
0000
0010
0100
0010
0000
1000
0000
0001
0000
0000
0000
,
1000
0100
0001
0100
1000
0100
0001
0100
,
0010
0000
0001
0010
0100
0000
1000
0001
0100
0000
0010
1000
0010
0000
1010
0000
,
1000
0010
0001
0010
1000
0010
0001
0010
,
0100
0000
0001
1000
0100
0000
0010
0001
1000
0000
0010
0100
0010
0000
0110
0000
,
1000
0010
0001
1000
0100
0001
1000
0100
,
0010
0000
0001
1000
0010
0000
1000
0000
0200
0000
0320
0000
0032
0000
0000
0000
,
0103
0010
0100
0001
1000
0001
0100
1000
,
0100
0000
0001
0010
0100
0000
1000
0000
0002
0000
0203
0000
0320
0000
0000
0000
,
1030
0100
0001
0100
0000
0110
0000
2002
,
0000
0000
0000
3003
,
0000
0000
0000
0000
;
#NOTES:
     dance-double:
     :
     Easy:
     6:
     :
00000000
00000000
00000000
00000000
,
00000000
00000000
00000000
00000000
,
00000000
00000000
00000000
00000000
,
00000000
00000000
00000000
00000000
,
00000000
00000000
00000000
00000000
,
00002002
00000000
00000000
00000000
,
00000000
00003003
00000010
00001000
,
00000100
00010000
00001000
00010000
,
01000000
01000000
00100000
00100000
,
00010000
10000000
01000000
00010000
,
00001000
00000000
00000010
00000000
,
00000001
00000100
00000001
00000000
,
00001000
00000010
00001000
00000100
,
00010000
00001000
00010000
00001000
,
00100000
00010000
00100000
00000000
,
00010000
00000000
00010000
01000000
00000000
00000000
00000000
00000000
,
10000000
00000000
10000000
01000000
00000000
00000000
00000000
00000000
,
00020000
00030000
00002000
00003000
,
00000100
00000100
00000001
00001000
,
00000010
00001000
00000100
00000000
,
00010000
00001000
01000000
00010000
,
01000000
00100000
10000000
00100000
,
10000000
01000000
00010000
00000000
,
00001000
00000000
00001000
00000010
00000000
00000000
00000000
00000000
,
00000001
00000000
00000001
00000100
00000000
00000000
00000000
00000000
,
00001000
00001000
00010000
00010000
,
00100000
00000000
10000000
01000000
10000000
00000000
00000000
00000000
,
00010000
10000000
01000000
00010000
,
00001000
00000100
00000001
00000100
,
00001000
00010000
00001000
00010000
,
00100000
00100000
10000000
10000000
,
00010000
00100000
00001000
00000000
,
00010000
00000010
00001000
00000000
,
00000001
00000100
00000001
00000100
,
00001000
00010000
00100000
00000000
,
10000000
00000000
00000000
01000000
00000000
01000000
00000000
00010000
,
00000000
00000000
00001000
00000100
,
00000001
00000000
00000000
00000010
00000000
00000010
00000000
00000100
,
00000000
00000000
00001000
00001000
,
00000010
00000000
00000000
00010000
00000000
00010000
00000000
00001000
,
00000000
00000000
00100000
00010000
,
10000000
01000000
10000000
01000000
,
00100000
00000000
00010000
00000000
01000000
00001000
01000000
00000000
,
00001000
00010000
00001000
00010000
,
00000100
00000000
00001000
00000000
00000100
00000010
00000100
00000000
,
00000010
00000001
00000010
00000001
,
00000100
00000000
00000010
00000000
00001000
00000100
00001000
00000000
,
00000100
00010000
00001000
00010000
,
00001000
00000000
00100000
00000000
00010000
10000000
00010000
00000000
,
01000000
00000000
00000000
00001000
00000000
00001000
00000000
00020000
,
00000000
00000000
00000000
00030000
,
00000000
00000000
00000000
00000000
;
#NOTES:
     dance-double:
     :
     Medium:
     9:
     :
00000000
00000000
00000000
00000000
,
00000000
00000000
00000000
00000000
,
00000000
00000000
00000000
00000000
,
00000000
00000000
00000000
00000000
,
00000000
00000000
00000000
00000000
,
10000000
00100000
00000000
01000000
00000000
00010000
00000000
00022000
,
00000000
00000000
00033000
00010000
00010000
00000000
00001100
00000000
,
00000010
00000001
00001000
00000100
,
00010000
00001000
00010000
00000000
00001000
00100000
00001000
00000000
,
01000000
00010000
10000000
00100000
,
01000000
00010000
01000000
00000000
00001000
00010000
00001000
00000000
,
00010000
00000000
00000100
00001000
00000100
00001000
00000000
00000001
,
00000000
00000001
00000010
00000000
00000110
00000000
00001100
00000000
,
00010000
00001000
00010000
00100000
,
10000000
01000000
10000000
00000000
00100000
00000000
01100000
00000000
,
00010000
00100000
00001000
00010000
00000000
00000010
00001000
00000000
,
00000100
00000000
00000010
00000001
00000000
00000100
00000010
00000100
,
00000002
00000013
00002000
00013000
,
00001000
00010000
00001000
00010000
01000000
00000000
10000000
00000000
,
00010000
00000000
01000000
00100000
01000000
00010000
00000000
10000000
,
00000000
01000000
00010000
00000000
00001000
00000000
00011000
00000000
,
00000100
00000001
00000010
00000100
,
00001000
00000010
00001000
00000000
00000100
00000000
00001100
00000000
,
00010000
00001000
00010000
00001000
00000000
01000000
00010000
00000000
,
00100000
00000000
01000000
10000000
00000000
00100000
01000000
00000000
,
00010000
00100000
00010000
00000000
01000000
00001000
01000000
00000000
,
00001000
00010000
00001000
00010000
00000010
00000000
00001010
00000000
,
00000100
00000000
00001000
00000000
00000001
00000100
00001000
00000000
,
00010000
00000000
01000000
00000000
10000000
00100000
00010000
00000000
,
00001000
00000000
00010000
00000000
00001000
00000010
00000001
00000000
,
00000010
00000100
00000010
00000000
00000001
00000100
00000001
00000000
,
00001000
00001100
00000100
00010100
,
00010000
00011000
00001000
00101000
,
01000000
00010000
01000000
00000000
00010000
00000000
00100000
00000000
,
01000000
10000000
01000000
10000000
00010000
00000000
00100000
00000000
,
00001000
00001000
00000000
00010000
00000000
00010000
00000000
00001000
,
00000000
00000000
00000000
00000100
00000010
00000000
00000110
00000000
,
00000001
00000001
00000000
00001000
00000000
00001000
00000000
00000100
,
00000000
00010000
00000000
00001000
00000000
00010000
00001000
00000000
,
01000000
00010000
01000000
00100000
00000000
00100000
00000000
10000000
,
00000000
10000000
00000000
01000000
00100000
01000000
00100000
00000000
,
00010000
02000000
03001000
00000000
00010000
00000200
00001300
00000000
,
00000010
00000000
00000100
00000001
00000100
00000001
00001000
00000000
,
00000010
00020000
00031000
00000000
00010000
00002000
00103000
00000000
,
00010000
00000000
10000000
01000000
10000000
01000000
00100000
00000000
,
00010000
02000000
03010000
00000000
10000000
00200000
10300000
00000000
,
01000000
00000000
00010000
00001000
00020000
00000000
00032000
00000000
,
00003100
00000002
00000103
00000000
00000010
00002000
00003010
00000000
,
00000100
00000000
00000001
00000010
00002000
00000000
00023000
00000000
,
00031000
00010000
01000000
10000000
00000000
10000000
00000000
00200000
,
00000000
00000000
00000000
00300000
,
00000000
00000000
00000000
00000000
;
#NOTES:
     dance-double:
     :
     Hard:
     13:
     :
00000000
00000000
00000000
00000000
,
00000000
00000000
00000000
00000000
,
00000000
00000000
00000000
00000000
,
00000000
00000000
00000000
00000000
,
00000000
00000000
00000000
00000000
,
00001000
00000100
00000010
00000110
00000000
00000011
00000000
00002002
,
00000000
00000000
00003003
00000100
00000100
00000000
00001100
00000000
,
00010000
00001000
00100000
00000000
00010000
10000000
01000000
00000000
,
10000000
01000000
00010000
00001000
00000100
00000001
00001000
00000000
,
00000100
00001000
00000010
00000000
00000100
00000001
00001000
00000000
,
00000001
00000010
00001000
00010000
00100000
10000000
00010000
00000000
,
01000000
00010000
01000000
00001000
00010000
00001000
00000010
00000001
,
00000100
00000001
00001000
00000010
00001010
00000000
00011000
00000000
,
01000000
00010000
00100000
00010000
10000000
01000000
10000000
00010000
,
00100000
00001000
00100000
00000000
00001000
00010000
00001000
00000000
00010000
00000010
00010000
00000000
00000010
00000000
00001000
00000000
,
00000001
00000000
00001000
00000100
00010000
00000000
00001000
00000000
01000000
00000000
00010000
00000000
01000000
00000000
00100000
00000000
,
10000000
00000000
00010000
00100000
00001000
00000000
00010000
00000000
00000100
00000000
00001000
00000000
00000100
00000000
00000010
00000000
,
00000012
00000100
00001000
00000103
,
00001000
00000000
00001000
00000000
00010000
00000000
00001000
00000000
00100000
00000000
00010000
01000000
00010000
00000000
10000000
00000000
,
00010000
00100000
10000000
00100000
00010000
01000000
00001000
00010000
,
00001000
00000010
00000001
00000010
00000110
00000000
00001100
00000000
,
00001000
00000010
00000001
00000010
00001000
00000001
00000100
00000010
,
00001000
00000100
00001000
00000000
00000100
00010000
00000100
00000000
00010000
00001000
00010000
00000000
00001000
00000000
00011000
00000000
,
01000000
10000000
00100000
10100000
00000000
10000000
01000000
00010000
,
00001000
00000100
00000010
00000110
00000000
00001000
00001001
00000000
,
00000100
00000000
00000010
00001000
00000010
00000000
00001010
00000000
00001000
00000000
00000001
00000000
00000100
00000000
00001000
00000000
,
00010000
00000000
00001000
00010000
00001000
00000000
00011000
00000000
00001000
00000000
00010000
00000000
01000000
00000000
10000000
00000000
,
01000000
00000000
01010000
00000000
00100000
00010000
00001000
00000010
,
00000001
00000000
00001100
00000000
00000010
00001000
00010000
00100000
,
10000000
01000000
10000000
00000000
00010000
00100000
00010000
00000000
,
01000000
00001000
00010000
00001000
00010000
00000100
00001100
00000000
,
00000001
00000010
00000011
00000000
00000100
00001000
00001100
00000000
,
00010000
00001000
00011000
00000000
01000000
00010000
01010000
00000000
,
10000000
01000000
00100000
00000000
00010000
00100000
00001000
00000000
,
00010000
00001000
00000100
00000001
00000100
00001000
00010000
01000000
,
10000000
10000000
00000000
00100000
00000000
00100000
00000000
00010000
,
00000000
00000000
00000000
00000001
00000010
00000000
00000110
00000000
,
00000001
00000001
00000000
00000100
00000000
00000100
00000000
00001000
,
00010000
00000000
00001000
00000000
01000000
00000000
00010000
00100000
00010000
00000000
01000000
00000000
00100000
00000000
00000000
00000000
,
10000000
00000000
10000000
00000000
01000000
00100000
01000000
00000000
00000000
00000000
00100000
00000000
00100000
00000000
00010000
00000000
,
01000000
00000000
00001000
00000000
01000000
00000000
00001000
00010000
00001000
00000000
00010000
00000000
00000010
00000000
00000000
00000000
,
00001000
00000100
00000001
00000100
00001000
00000100
00000001
00000100
,
00001000
00000000
00000010
00010000
00001000
00000000
00010000
00001000
00100000
00000000
00010000
00000000
01000000
00000000
00000000
00000000
,
00010000
00100000
10000000
00100000
00010000
00100000
10000000
00100000
,
00010000
00000000
01000000
00001000
00010000
00000000
00001000
00010000
00000100
00000000
00001000
00000000
00000010
00000000
00000000
00000000
,
00000100
00000001
00000010
00001000
00010000
00100000
10000000
01000000
,
00100000
00000000
00010000
10000000
00100000
00000000
01000000
00000000
00020000
00000000
00230000
00000000
00302000
00000000
00000000
00000000
,
00013000
00001000
00010000
00001000
00000010
00000001
00000100
00000010
,
00001000
00000000
00000001
00001000
00000100
00000000
00000010
00000000
00000002
00000000
00000203
00000000
00002300
00000000
00000000
00000000
,
00013000
00001000
00010000
01000000
00000000
01000000
00000000
00200000
,
00000000
00000000
00000000
00300000
,
00000000
00000000
00000000
00000000
;
