
//----- song ID: typh -----//
#TITLE:TYPHØN;
#ARTIST:BlackY;
#TITLETRANSLIT:TYPHON;
#BANNER:TYPHON.png;
#BACKGROUND:TYPHON-bg.png;
#CDTITLE:./CDTitles/Over 200.png;
#MUSIC:TYPHON.ogg;
#SAMPLESTART:92.893;
#SAMPLELENGTH:15;
#DISPLAYBPM:112:225;
#BPMS:0=225,167=112.5,171=225,195=112.5,211=225,243=450,246=225,250=450,253=225,257=450,260=225,264=450,267=225;
#STOPS:72=3.733,134=0.8,243=0.267,244=0.267,245=0.133,250=0.267,251=0.267,252=0.133,257=0.267,258=0.267,259=0.133,264=0.267,265=0.267,266=0.133;
#NOTES:
     dance-single:
     :
     Beginner:
     5:
     :
0000
0000
0000
0000
,
0000
0000
0000
0000
,
0000
0000
0000
0000
,
0000
0000
0000
0000
,
0000
0000
0000
0000
,
0000
0000
0000
0000
,
0000
0000
0000
0000
,
0000
0000
0000
0000
,
0000
0000
0000
0000
,
0000
0000
0000
0000
,
1000
0000
0000
0000
,
1000
0000
0000
0000
,
0010
0000
0000
0000
,
0010
0000
0000
0000
,
0100
0000
0000
0000
,
0100
0000
0000
0000
,
0001
0000
0000
0000
,
0001
0000
0000
0000
,
1001
0000
0001
0000
,
0010
0000
0001
0000
,
0000
0000
0010
0000
,
0100
0000
0010
0000
,
0000
0000
1000
0000
,
0010
0000
1000
0000
,
0000
0000
0010
0000
,
0100
0000
0010
0000
,
0000
0000
0001
0000
,
0100
0000
0010
0000
,
0000
0000
0100
0000
,
0010
0000
1000
0000
,
0000
0000
1000
0000
,
0100
0000
0010
0000
,
0000
0000
0100
0000
,
0010
0000
0001
0000
,
0000
0001
0000
0100
,
0000
0100
0000
0110
,
0000
0000
0000
1001
,
0000
0000
0000
0010
,
0000
1000
0000
0100
,
0000
0100
0000
0110
,
0000
0000
0000
1001
,
0000
0000
0000
0020
,
0000
0000
0030
0010
,
0000
0010
0000
0100
,
0000
0100
0000
1000
,
0000
0100
0000
0001
,
0000
0000
0000
0001
,
0000
0010
0000
1000
,
0000
0000
0000
0020
,
0000
0030
0000
0200
,
0000
0300
0000
0002
,
0000
0003
0000
2000
,
0000
3000
0000
0010
,
0000
0010
0000
0010
,
0000
0000
0000
0100
,
0000
0100
0000
0100
,
0000
0000
0000
0001
,
0000
0000
0000
1000
,
0000
0000
0000
0001
,
0000
1000
0000
0001
,
0000
0000
0000
2002
,
0000
0000
3003
0000
,
0000
0000
2002
0000
,
0000
3003
0000
0000
,
0000
2002
0000
0000
,
3003
0000
0000
0000
,
2002
0000
0000
3003
,
0000
0000
0000
0001
,
0000
0100
0000
0001
,
0000
0100
0000
0010
,
0000
1000
0000
0010
,
0000
1000
0000
0100
,
0000
0010
0000
0001
,
0000
1000
0000
0100
,
0000
0010
0000
0002
,
0000
0000
0000
0003
,
0000
0000
0000
0001
,
0000
0100
0000
0010
,
0000
0100
0000
0001
,
0000
1000
0000
0010
,
0000
0000
0000
1000
,
0000
0010
0000
1000
,
0000
0100
0000
0010
,
0000
0001
0000
1000
,
0000
0000
0000
0100
,
0000
1000
0000
0010
,
0000
0100
0000
0001
,
0000
1000
0000
0001
,
0000
0001
0000
1001
,
0000
0000
0000
0110
,
0000
0000
0000
1000
,
0000
0001
0000
1001
,
0000
0000
0000
1000
,
0000
0100
0000
1000
,
0000
0001
0000
0010
,
0000
0001
0000
0100
,
0000
0100
0000
0001
,
0000
0010
0000
0100
,
0000
1000
0000
0001
,
0000
1000
0000
0010
,
0000
1001
0000
0100
,
0100
0100
0000
1000
,
0000
0001
0000
0010
,
0010
0010
0000
0001
,
0000
1000
0000
0001
,
0000
0100
0000
0010
,
1000
0010
0000
1000
,
0000
0100
0000
0010
,
0001
0010
0000
0200
,
0000
0000
0000
0000
,
0000
0000
0000
0000
,
0000
0000
0000
0000
,
0000
0000
0000
0300
,
0000
0000
0000
0000
;
#NOTES:
     dance-single:
     :
     Easy:
     10:
     :
0000
0000
0000
0000
,
0000
0000
0000
0000
,
0000
0000
0000
0000
,
0000
0000
0000
0000
,
0000
0000
0000
0000
,
0000
0000
0000
0000
,
0000
0000
0000
0000
,
0000
0000
0000
0000
,
0000
0000
0000
0000
,
0000
0000
0000
0000
,
1000
0000
0010
0000
,
1000
0010
1000
0000
,
0001
0000
0010
0000
,
0001
0010
0001
0000
,
1000
0100
1000
0000
,
0001
0100
0001
0000
,
1000
0001
1000
0001
,
2000
0000
0000
3000
,
1001
0000
0001
0100
,
0010
1000
0001
0100
,
0010
0100
0001
0010
,
0001
1000
0100
1000
,
0001
1000
0001
0000
0010
0000
0001
0000
,
0100
0010
1000
0010
,
0100
0001
1000
0100
,
0010
0001
1000
0000
0001
0000
0001
0000
,
1000
1000
0010
0100
,
0001
1000
0001
0000
1000
0000
0010
0000
,
1010
0100
0001
0010
,
0100
0010
0000
0100
0010
0000
0010
0000
,
0002
0000
1003
0010
,
0100
0010
0100
0000
0001
0000
1000
0100
,
0000
1000
0100
0000
1000
0000
0010
0000
,
0100
0001
1001
1000
,
0010
0000
0100
0000
0001
1000
0000
0001
,
0000
1000
0000
0001
1000
0000
0010
0000
,
0000
1010
0000
0000
1100
0000
0100
0000
,
0010
0000
0001
1000
0001
0000
0100
0000
,
0010
0000
1000
0000
0100
0010
0000
0100
,
0000
0010
0000
0100
0010
0000
0001
0000
,
0000
0100
0000
0000
0101
0000
1000
0000
,
0000
0010
0000
0000
1010
0000
0002
0000
,
0100
2003
0100
3010
,
0100
0001
1000
0010
,
0010
0000
1000
0100
0010
0000
0001
0000
,
0100
0010
0100
0001
,
0010
0000
0100
1000
0100
0000
1000
0000
,
0010
0001
0010
2000
,
0000
0000
3000
0010
,
0010
0000
1000
0000
1000
0001
0100
0000
,
0100
0000
0001
0000
0001
0010
0001
0000
,
1000
0000
0010
0000
0100
0010
1000
0000
,
0100
2002
3003
0010
,
0000
0100
0000
0000
2002
0000
0000
0000
,
0000
3003
0000
0100
,
0000
0010
0000
0000
2002
0000
0000
0000
,
0000
3003
0000
0022
,
0000
0033
0000
2200
,
0000
3300
0000
2002
,
0000
3003
0000
0220
,
0000
0000
0330
1000
,
1000
2000
0000
0000
,
0000
3000
0001
0001
,
0002
0000
0000
0000
,
0003
0010
0010
0020
,
0000
0000
0000
0030
,
0100
0100
0200
0000
,
0000
0000
0300
0001
,
0100
0010
0000
0001
,
0100
0010
0000
1000
,
0100
0010
0000
1000
,
0100
0010
0000
0001
,
0000
0010
0000
1000
,
0000
0100
0000
0001
,
0010
1000
0100
0002
,
0000
0000
0000
0000
,
0000
0000
0003
0001
,
1000
0010
1000
0100
,
0010
0001
0100
1000
,
0100
0001
0100
0010
,
1000
0000
0001
1000
0001
0000
0100
0000
,
0001
0010
0100
1000
,
0010
0100
0010
1000
,
1000
0000
0001
0000
0001
0020
0000
0000
,
0030
0100
0100
1000
,
0010
1000
0001
0100
,
0001
0000
0010
0100
0010
0000
0001
0000
,
0100
0000
0010
0000
1000
0010
0000
0100
,
0000
0001
0000
1000
0000
0000
0001
0000
,
0000
0220
0000
0000
0330
0000
1000
0000
,
0000
0220
0000
0000
0330
0000
0001
0000
,
0010
1000
0010
0002
,
0000
0000
0003
0100
,
0001
1000
0010
1000
,
0001
0000
0010
0100
0010
0000
0001
0000
,
0100
0010
1000
0100
,
0010
0100
1000
0001
,
0100
0010
1000
0001
,
0010
0000
0100
0010
0100
0000
1000
0000
,
0010
0001
0010
1000
,
0001
1001
0000
1000
,
0010
0000
0100
0001
1000
0000
0100
0000
,
0010
0001
0010
0001
,
1000
0000
0010
0100
0001
0000
1000
0000
,
0100
0010
0100
1000
,
0010
0000
0100
0001
0010
0000
0001
0000
,
1000
0000
0100
1000
0010
0000
0100
0001
,
0100
0000
0010
1000
0010
0000
1000
0000
,
0100
0001
0100
2000
,
0000
0000
0000
0000
,
0000
0000
0000
0000
,
0000
0000
0000
0000
,
0000
0000
0000
3000
,
0000
0000
0000
0000
;
#NOTES:
     dance-single:
     :
     Medium:
     14:
     :
0000
0000
0000
0000
,
0000
0000
0000
0000
,
0000
0000
0000
0000
,
0000
0000
0000
0000
,
0000
0000
0000
0000
,
0000
0000
0000
0000
,
0000
0000
0000
0000
,
0000
0000
0000
0000
,
0000
0000
0000
0000
,
0000
0000
0000
0000
,
0010
1000
0010
0000
,
1000
0100
1000
0000
,
0001
0010
0001
0000
,
0100
0001
0100
0000
,
0001
0010
0100
1000
,
0010
0100
0001
0010
,
0100
0010
0001
0100
,
0010
1000
0010
1000
0000
0000
0001
0100
0001
0100
0000
0000
,
1001
0000
1000
0100
,
0001
0100
1000
0000
0001
0100
0010
0000
,
0100
0010
1000
0001
1000
0000
0100
0010
,
0001
0000
0100
0010
1000
0100
1000
0010
,
0100
0001
1000
0000
0010
0100
0001
0100
,
0010
0000
1000
0010
1000
0100
0001
0100
,
1000
0100
0010
0000
0001
1000
0010
0000
,
1000
0001
0010
0000
0100
0020
0000
0130
,
1000
0001
0010
0100
1000
0010
1000
0000
,
0010
0001
0010
0000
1000
0100
0010
0001
,
0100
0000
0010
0001
0010
1000
0010
0000
,
1000
0001
0000
0001
0010
0001
0010
0100
,
2000
0000
0000
0000
3010
0100
0010
1000
,
0001
0001
0001
0000
1000
0001
0100
0001
,
0000
0000
0000
1000
0000
0000
0100
0000
0000
0000
0000
0000
0010
0000
0001
0000
0010
0000
0001
0000
0000
0000
0000
0000
,
0100
0010
0100
0010
0000
0000
1001
0000
0000
0001
0000
0000
,
0011
0000
1010
0000
0100
1000
0000
0101
,
0000
0100
0001
0010
0001
0000
1000
0100
,
0100
0001
0100
0100
1000
0000
1010
0000
,
0110
0000
0001
1000
0001
0000
0011
0000
,
0110
0000
1100
0000
0001
0100
0000
0001
,
0010
0001
1000
0010
1000
0000
0001
1000
,
0000
0001
1000
0000
0110
0000
1000
0001
,
0000
1000
0001
0000
0110
0000
2001
0000
,
0010
0001
0000
0001
3100
0000
0010
0001
,
0100
0000
0001
0000
0010
0000
0001
0000
0100
0000
0000
0000
0010
0000
0000
1000
,
0000
0001
0100
0001
0010
0000
0100
1000
,
0001
0000
0100
0001
1000
0100
0000
0001
,
0100
0000
1000
0000
0001
0000
0010
0000
0001
0000
0000
0000
0010
0000
0000
0010
,
0000
0000
0100
0000
0000
0100
0000
0000
1000
0000
0000
0000
2002
0000
0000
0000
,
0000
0000
0000
0000
0000
0000
0000
0000
3003
0000
0000
0000
1000
0000
0000
0100
,
0000
0000
1000
0000
0000
0000
0000
0000
0110
0000
0000
0000
0001
0000
0000
0100
,
0000
0000
0001
0000
0000
0000
0000
0000
0110
0000
0000
0000
0001
0000
0000
1000
,
0000
0000
0000
0010
0000
0000
0100
0000
0010
0000
1000
0000
0100
0000
0000
0010
,
0000
0001
0000
0100
0002
0000
0000
0000
2003
0000
0000
0000
3010
0000
0010
0000
,
0000
1000
0000
0100
0100
0000
0000
0000
,
0000
0110
0000
0100
0000
0010
0001
0001
,
0000
0100
0000
0100
0010
0100
0000
0000
,
0000
0000
0110
0000
1001
0000
0001
1000
,
0000
0000
0001
0000
1000
0000
0000
0000
0001
0000
1000
0000
0000
0001
0000
0000
,
1000
0000
0001
0000
0000
0000
1000
0000
0000
0001
0000
0000
0010
0000
0000
0100
,
0000
0000
0010
0000
0000
0100
0000
0000
0010
0000
0000
0000
0220
0000
0000
0000
,
0000
0000
0330
0010
,
0010
0000
0010
0000
0001
0100
0001
0000
,
1000
0100
1000
0000
0010
0000
0010
0000
,
0010
0000
1000
0010
1000
0000
0001
0010
,
0001
1000
1000
1000
,
0100
1000
0010
0000
0100
0001
0010
0000
,
0001
0000
0001
0000
0001
0000
0010
0001
,
0100
0000
0010
1000
0100
0000
1000
0100
,
1000
0000
0100
0000
0000
0000
0001
0100
,
0001
0000
0100
0000
0000
0000
0010
0001
,
0010
0000
0001
0000
0000
0000
1000
0010
,
1000
0010
0000
1000
,
0100
0001
0010
1000
,
0100
0000
0001
0000
0010
0000
1000
0100
,
1000
0100
0010
0001
0010
0001
2000
0000
,
0000
0000
0000
0000
,
0000
0000
0000
0000
3000
0000
0001
0100
,
0010
1000
0001
0010
0100
1000
0001
0010
,
1000
0010
0001
0100
0010
0100
0001
1000
,
0010
0100
0010
1000
0001
0100
0010
1000
,
0100
1000
0001
0100
0001
0000
1000
0010
,
1000
0010
0100
0001
0010
0001
1000
0010
,
1010
0000
0000
0000
0001
0000
0100
0000
0101
0000
0000
0000
0100
0000
0000
0100
,
0000
0100
0010
1000
0100
0020
0000
0030
,
0110
0000
0001
1000
0001
0000
0100
0010
,
0100
0010
1000
0100
1000
0100
0010
0001
,
0100
0001
0010
0100
1000
0001
0100
0001
,
1000
0010
1000
0100
0010
0001
0000
0101
,
0000
1010
0000
1000
0001
0000
1000
0100
,
0001
0000
0200
0000
0000
0000
0000
0000
0300
0000
0000
0000
1000
0000
0000
0010
,
0000
0000
0002
0000
0000
0000
0000
0000
0003
0000
0000
0000
0010
0000
0000
1000
,
0000
0000
0010
0000
0100
0000
0000
0001
0000
0000
1000
0000
0002
0000
0000
0000
,
0000
0000
0000
0000
0003
0000
1000
0010
,
1000
0000
0100
0010
0100
0000
0010
0001
,
0100
0010
1000
0010
0100
0000
0001
1000
,
0010
0000
1000
0001
0100
0000
0010
0001
,
0010
0100
0010
1000
0010
0000
1000
0100
,
0010
0000
0100
0010
0001
0000
0010
0001
,
0100
0001
1000
0001
0010
0000
0100
1000
,
0010
1000
0001
0100
0001
0010
0001
0000
,
0110
0000
0000
0000
1000
0000
0000
1000
0000
0000
1000
0000
0010
0000
1000
0000
,
0100
0010
0001
0100
1000
0100
0001
0010
,
1000
0010
0001
1000
0100
0010
0001
0100
,
0010
0001
0010
1000
0100
0010
1000
0010
,
0001
1000
0100
0010
0100
1000
0001
0100
,
0001
0100
1000
0100
0001
1000
0010
0001
,
0010
1000
0001
0010
0100
1000
0010
0001
,
0010
0001
1000
0100
1000
0100
0001
0010
,
0100
0010
1000
0010
0100
0010
0002
0000
,
0000
0000
0000
0000
,
0000
0000
0000
0000
,
0000
0000
0000
0000
,
0000
0000
0000
0003
,
0000
0000
0000
0000
;
#NOTES:
     dance-single:
     :
     Hard:
     17:
     :
0000
0000
0000
0000
,
0000
0000
0000
0000
,
0000
0000
0000
0000
,
0000
0000
0000
0000
,
0000
0000
0000
0000
,
0000
0000
0000
0000
,
0000
0000
0000
0000
,
0000
0000
0000
0000
,
0000
0000
0000
0000
,
0000
0000
0000
0000
,
0010
0000
0010
0000
,
1000
0000
1000
0000
,
0100
0000
0100
0000
,
0001
0000
0001
0000
,
0010
1000
0100
0001
,
0010
1000
0100
0001
,
0010
1000
0100
0100
0001
0010
0010
1000
,
0010
1000
0010
1000
0100
1000
0100
0100
0001
0010
0001
0010
,
1000
0000
0000
0000
0001
0100
0001
0100
,
0010
1000
0010
1000
0100
0010
0100
0010
,
0001
0000
0010
0000
0100
0000
1000
0000
0010
0000
0100
0010
0100
0000
0010
0000
,
1000
0000
0001
0000
1000
0000
0001
1000
0001
0000
0010
0000
0001
0000
0010
0000
,
0100
1000
0100
1000
0100
1000
0100
1000
0100
0000
1000
0000
0010
0000
0100
0000
,
0001
0000
1000
0000
0001
0000
0100
0000
0010
0000
1000
0100
1000
0000
0001
0100
,
0001
0000
0010
0000
0001
1000
0001
1000
0001
0000
0100
0000
0010
0000
1000
0000
,
0100
0010
0100
0000
1000
0000
0010
0100
0010
0000
1000
0000
0100
0000
0001
0000
,
0010
1000
0100
0001
0010
0001
0100
0010
,
1000
0000
0100
0000
0010
0000
0001
0010
0100
0000
1000
0000
0010
0000
0100
0000
,
0110
0000
0000
0000
1001
0000
1000
0010
0100
0000
0001
0000
0100
0010
1000
0000
,
0100
0000
1100
0000
0000
0000
0010
0001
0010
0000
0001
0000
1000
0001
0100
0000
,
0020
0000
0000
0000
1030
0010
0001
0010
,
0100
0001
0100
0001
0100
0000
0000
0000
0010
0000
1000
0000
0010
1000
0010
0000
,
0000
0000
0000
0000
0000
0000
1000
0000
0000
0100
0000
0000
0010
0000
0000
0000
0000
0000
0001
0000
0000
0000
0000
0000
1000
0000
0000
0000
0100
0000
0000
0000
1000
0000
0000
0000
0100
0000
0000
0000
0001
0000
0000
0000
0100
0000
0000
0000
,
1000
0000
0010
0000
1000
0000
0010
0000
0001
0000
0010
0000
1000
0000
0000
0000
0000
0000
0001
0000
0000
0100
0000
0000
,
0010
0100
1000
0100
0010
0110
0000
1000
,
0100
0000
0010
0000
0100
0000
0001
0000
0100
0000
0010
0000
0100
0000
1000
0010
,
1000
0000
0100
0000
0010
0001
0010
0000
0100
0000
1000
0010
1000
0000
0001
0100
,
0000
0001
0100
0000
0010
0000
1000
0001
1000
0001
1000
0000
0010
0000
0001
0000
,
0010
1000
0001
0100
0010
1010
0000
1100
,
0100
0000
0010
0000
0001
1000
0001
1000
0001
0000
0000
0000
0100
0000
0010
1000
,
0000
0000
0001
0000
0010
0000
0000
0000
0010
0000
0001
1000
0001
0000
0100
0010
,
0000
1000
0010
0000
1000
0100
1000
0000
0001
0100
0001
0000
0020
0000
0000
0000
,
0031
0000
2200
0000
0000
0000
3300
0000
0010
0000
0010
0000
1000
0000
0100
0010
,
0100
0000
0001
0000
0100
0010
0100
0000
1000
0000
0010
0100
0001
0000
0100
0010
,
0000
1000
0010
0000
1000
0001
1000
0000
0001
0010
0001
0010
0001
0000
0010
0000
,
0001
0100
0010
1000
0100
1000
0000
1010
,
0000
0000
0011
0000
1000
0000
0100
0000
0010
0000
0000
0000
0001
0000
0000
0010
,
0000
0000
1000
0000
0000
0100
0000
0000
0001
0000
0010
0000
2000
0000
0000
0000
,
0000
0000
0000
0000
0000
0000
0000
0000
3000
0000
0000
0000
1000
0000
0000
1000
,
0000
0000
1010
0000
0000
1010
0000
0000
0100
0000
0001
0000
0010
0000
0000
0010
,
0000
0000
0011
0000
0000
0011
0000
0000
0100
0000
1000
0000
0010
0000
0000
0100
,
0000
0000
0101
0000
0000
0011
0000
0000
0001
0000
0100
0000
0010
0000
0000
1010
,
0000
0000
0010
1000
0010
0000
1000
0000
0100
0000
0001
0000
0010
0000
0010
0000
,
0000
1000
0000
0100
1100
0000
0001
0000
,
0010
0000
0011
0000
0000
0000
0101
0000
0010
1000
0010
0000
1000
0000
1000
0000
,
0000
0001
0000
0010
0110
0100
0000
0000
,
0000
0000
1001
0000
0110
0000
1000
0100
,
0000
0000
0010
0000
0001
0000
0000
0000
1000
0000
0100
0000
0000
0010
0000
0000
,
0001
0000
1000
0000
0000
0000
0100
0000
0000
0010
0000
0000
0001
0000
0000
0100
,
0000
0000
0010
0000
0000
1000
0000
0000
0001
0000
0100
0000
0020
0000
0000
0000
,
0000
0000
0030
1010
,
1100
0000
0101
0000
0001
0010
1000
0100
,
0001
0010
1000
0000
1100
0000
0101
0000
,
0011
0000
0010
1000
0100
0001
0010
1000
,
0100
0101
0011
1010
,
1000
0100
0001
0010
1000
0100
0001
0000
,
0011
0000
1010
0000
1100
0000
0100
0001
,
0010
1000
0100
0001
0010
0000
1000
0100
,
1000
0100
1000
0100
1000
0100
0001
0010
,
0001
0010
0001
0010
0001
0010
1000
0010
,
1000
0010
1000
0010
1000
0100
0001
0100
,
0001
0100
0001
0100
0001
0000
0010
1000
,
0100
0001
0010
1000
0100
0000
0100
0001
,
0010
1000
0100
0001
0010
0000
1000
0100
,
0010
0000
0001
0000
1000
0001
1000
0001
1000
0001
1000
0001
2000
0000
0000
0000
,
0000
0000
0000
0000
,
0000
0000
0000
0000
3000
0000
1000
0001
,
0100
0000
0010
0000
1000
0000
0010
0000
0100
0000
0001
0000
0010
0000
0100
1000
,
0000
0100
1000
0000
0010
0000
0100
0000
0001
1000
0001
0000
0010
0000
0100
1000
,
0001
0000
0100
0010
1000
0000
0000
1000
0000
0000
1000
0100
0010
0000
0001
0000
,
0100
0000
0000
1001
0000
0000
0010
0000
0100
0000
1000
0000
0010
0000
0100
0000
,
0001
1000
0010
0100
0001
0010
0100
0100
,
1100
0000
0000
0000
0010
0000
0000
0000
0011
0000
0001
0010
0001
0000
0100
0001
,
0000
0100
0001
0000
1000
0010
1000
0010
1000
0000
0200
0000
0000
0000
0300
0000
,
0110
0000
0000
0000
1000
0100
0010
0001
1000
0000
0000
0000
0001
0000
0010
0000
,
1000
0000
0001
0000
0100
0000
1000
0000
0001
0000
0010
0000
0100
0000
1000
0010
,
0000
1000
0010
0000
0100
0001
0100
0001
0100
0000
0010
0000
1000
0000
0010
0000
,
0001
0010
1000
0100
0001
0101
0000
0011
,
0000
0000
1010
0000
0000
0000
0010
1000
0001
1000
0001
0000
0100
0000
0000
0000
,
0010
0000
2020
0000
0000
0000
0000
0000
3030
0000
0000
0000
0100
0000
0000
0010
,
0000
0000
0022
0000
0000
0000
0000
0000
0033
0000
0000
0000
0001
0000
0000
0010
,
0000
0000
0010
0000
1000
0000
0000
0100
0000
0000
0100
0000
0002
0000
0000
0000
,
0000
0000
0000
0000
0003
0000
0010
0001
,
0010
0001
1000
0010
1000
0010
0100
0001
,
1000
0100
0001
0100
1000
0010
0100
0001
,
0100
0001
0010
0001
0010
0001
1000
0010
,
0001
1000
0100
0001
1000
0000
0100
1000
,
0100
1000
0100
0001
0100
0001
0100
0010
,
0100
0000
0000
1000
0000
0000
0001
0000
0000
0010
0000
0000
0100
0000
0000
1000
0000
0000
0001
0000
0010
0000
0001
0000
,
0010
0000
0000
0000
0000
0000
0100
0000
0000
0000
0000
0000
1000
0000
0000
0000
0000
0000
0010
0000
0000
0100
0000
0000
0001
0000
0000
0000
1000
0000
0000
0000
0001
0000
0000
0000
1000
0000
0000
0000
0000
0000
0100
0000
0000
1000
0000
0000
,
0100
1000
0100
1000
0001
0000
0000
0001
0000
0000
0001
0000
0100
0000
0000
0000
,
0100
0000
0010
0000
1000
0000
0100
0000
0010
0000
0001
0100
0010
0000
1000
0000
,
0010
0000
0001
0000
0010
0000
1000
0000
0001
0100
0001
0100
0001
0000
0010
0000
,
1000
0000
0010
0001
0010
0000
0100
0000
1000
0000
0010
0100
0010
0000
1000
0100
,
1000
0100
1000
0000
0001
0010
0001
0010
0001
0000
0100
0000
0010
0000
0010
0000
,
1000
0000
1100
0000
0000
0010
0000
0000
0001
0000
0011
0000
0000
0100
0000
0000
,
0010
0000
0000
0110
0000
0000
1000
0000
0001
0000
1000
0000
0001
0100
0001
0100
,
0001
0100
0001
0100
0010
1000
0010
1000
0010
1000
0010
1000
0010
0000
0100
0000
,
0010
0001
0010
0100
0010
1000
2002
0000
,
0000
0000
0000
0000
,
0000
0000
0000
0000
,
0000
0000
0000
0000
,
0000
0000
0000
3003
,
0000
0000
0000
0000
;
#NOTES:
     dance-double:
     :
     Easy:
     10:
     :
00000000
00000000
00000000
00000000
,
00000000
00000000
00000000
00000000
,
00000000
00000000
00000000
00000000
,
00000000
00000000
00000000
00000000
,
00000000
00000000
00000000
00000000
,
00000000
00000000
00000000
00000000
,
00000000
00000000
00000000
00000000
,
00000000
00000000
00000000
00000000
,
00000000
00000000
00000000
00000000
,
00000000
00000000
00000000
00000000
,
10000000
00000000
01000000
00000000
,
00100000
00000000
00100000
00000000
,
01000000
00000000
00010000
00000000
,
00001000
00000000
00001000
00000000
,
00010000
00000010
00010000
00000000
,
00000100
00001000
00000100
00000000
,
00000010
00000100
00000010
00000100
,
00000020
00000000
00000000
00000030
,
00001001
00000000
00000001
00000100
,
00000010
00000100
00000010
00001000
,
00000100
00010000
00001000
00010000
,
00001000
01000000
00010000
00100000
,
00010000
10000000
00010000
00000000
10000000
00000000
00100000
00000000
,
01000000
00100000
10000000
01000000
,
00100000
00010000
00100000
00001000
,
00010000
00001000
00010000
00000000
00000100
00000000
00000100
00000000
,
00001000
00001000
00000010
00000100
,
00000001
00001000
00000001
00000000
00000010
00000000
00000100
00000000
,
00000110
00000000
00000100
00000010
,
00000100
00001000
00000000
00000100
00010000
00000000
00010000
00000000
,
00002000
00000000
01003000
00010000
,
00100000
00010000
00100000
00000000
01000000
00000000
10000000
00100000
,
00000000
10000000
00100000
00000000
01000000
00000000
00010000
00000000
,
00100000
00001000
00011000
00000100
,
00001000
00000000
00000010
00000000
00000100
00000001
00000000
00001000
,
00000000
00000001
00000000
00001000
00000010
00000000
00000100
00000000
,
00001000
00010000
00000000
00001000
00010000
00000000
00001000
00000000
,
00001000
00011000
00000000
01000000
,
00010000
00000000
00100000
00000000
00010000
10000000
00000000
00010000
,
00000000
10000000
00000000
00010000
00100000
00000000
01000000
00010000
,
00000000
00001000
00010000
00000000
00001000
00000000
00010000
00001000
,
00000000
00010000
00001000
00000000
00000010
00000000
00000002
00000000
,
00000100
00002003
00000100
00003010
,
00000100
00000010
00001000
00000100
,
00010000
00000000
00001000
00010000
00001000
00000000
01000000
00000000
,
00010000
00100000
01000000
10000000
,
00010000
00000000
01000000
00100000
01000000
00000000
00010000
00000000
,
00100000
00001000
00010000
00000200
,
00000000
00000000
00000000
00000310
,
00000010
00000000
00000001
00000000
00001000
00000100
00001000
00000000
,
00001000
00000000
00000100
00000000
00010000
00001000
00010000
00000000
,
00010000
00000000
00001000
00000000
01000000
00010000
00100000
00000000
,
00010000
01000000
01000000
00100000
,
00000000
10000000
00000000
00000000
20020000
00000000
00000000
00000000
,
00000000
30030000
00000000
00100000
,
00000000
00001000
00000000
00000000
00022000
00000000
00000000
00000000
,
00000000
00033000
00000000
00002020
,
00000000
00003030
00000000
00000202
,
00000000
00000303
00000000
00000001
,
00000000
00000100
00000000
00000220
,
00000000
00000000
00000330
00000001
,
00000001
00000002
00000003
00000000
,
00000000
00000000
00001000
00001000
,
00002000
00003000
00000000
00000000
,
00000000
00010000
00010000
00020000
,
00030000
00000000
00000000
00000000
,
10000000
10000000
20000000
30000000
,
00000000
00000000
00000000
10000000
,
01000000
10000000
00000000
01000000
,
00100000
01000000
00000000
00100000
,
00010000
00100000
00000000
00001000
,
00010000
00001000
00000000
00001000
,
00000000
00000010
00000000
00000001
,
00000000
00000100
00000000
00001000
,
00010000
00100000
10000000
02000000
,
00000000
00000000
00000000
00000000
,
00000000
00000000
00000000
03100000
,
00001000
00100000
01000000
00100000
,
00001000
00100000
01000000
00010000
,
00001000
00010000
00001000
00000010
,
00000100
00000000
00001000
00000001
00001000
00000000
00000010
00000000
,
00000100
00001000
00010000
00000010
,
00000100
00001000
00010000
00000100
,
00000010
00000000
00000001
00000000
00001000
00000002
00000000
00000000
,
00000000
00000103
00000100
00000001
,
00000100
00001000
00010000
00001000
,
00000010
00000100
00010000
00000100
,
00000010
00000000
00001000
00000000
00010000
01000000
00000000
00100000
,
00000000
00010000
00000000
10000000
00000000
00000000
00100000
00000000
,
00000000
20020000
00000000
00000000
30030000
00000000
01000000
00000000
,
00000000
20020000
00000000
00000000
30030000
00000000
10000000
00000000
,
01000000
00010000
00001000
00020000
,
00000000
00000000
00030000
00000010
,
00010000
00000100
00001000
00000001
,
00000100
00000000
00000010
00000100
00000010
00000000
00001000
00000000
,
00000100
00010000
00001000
01000000
,
00010000
00100000
01000000
10000000
,
00100000
01000000
00010000
00100000
,
00001000
00000000
00010000
00001000
00010000
00000000
00000010
00000000
,
00001000
00000100
00000001
00000100
,
00001000
00000001
00000100
00000001
,
00000010
00000000
00000100
00001000
00000100
00000000
00000010
00000000
,
00000001
00000100
00001000
00010000
,
00001000
00000000
01000000
00010000
00100000
00000000
00010000
00000000
,
10000000
01000000
00100000
00010000
,
01000000
00000000
00001000
00010000
00001000
00000000
00010000
00000000
,
00000100
00000000
00001000
00000010
00000100
00000000
00000001
00000010
,
00000100
00000000
00001000
00000100
00010000
00000000
00001000
00000000
,
00010000
00100000
10000000
00020000
,
00000000
00000000
00000000
00000000
,
00000000
00000000
00000000
00000000
,
00000000
00000000
00000000
00000000
,
00000000
00000000
00000000
00030000
,
00000000
00000000
00000000
00000000
;
#NOTES:
     dance-double:
     :
     Medium:
     14:
     :
00000000
00000000
00000000
00000000
,
00000000
00000000
00000000
00000000
,
00000000
00000000
00000000
00000000
,
00000000
00000000
00000000
00000000
,
00000000
00000000
00000000
00000000
,
00000000
00000000
00000000
00000000
,
00000000
00000000
00000000
00000000
,
00000000
00000000
00000000
00000000
,
00000000
00000000
00000000
00000000
,
00000000
00000000
00000000
00000000
,
00010000
00000000
10000000
00000000
,
01000000
00100000
01000000
00000000
,
00100000
00000000
00010000
00000000
,
00100000
00001000
00010000
00000000
,
00000100
00001000
00000010
00000000
,
00000100
00000001
00000010
00000000
,
00000100
00010000
00001000
01000000
,
00010000
00100000
00010000
00100000
00000000
00000000
01000000
10000000
01000000
10000000
00000000
00000000
,
10010000
00000000
00100000
10000000
,
01000000
00100000
01000000
00000000
00010000
00000000
00001000
00000000
,
00010000
00001000
00010000
00001000
00010000
00000000
00000010
00000000
,
00001000
00000100
00001000
00000000
00000001
00000100
00000001
00000100
,
00000020
00000030
00001000
00000100
,
00010000
00001000
00010000
00000000
00000010
00001000
00000100
00001000
,
00000010
00000000
00000100
00000000
00000001
00000100
00001000
00000000
,
00010000
00100000
10000000
00000000
00010000
20000000
00000000
30010000
,
10000000
01000000
10000000
00000000
00100000
00000000
01000000
00000000
,
00010000
00100000
00010000
00000000
01000000
00001000
00010000
00001000
,
00010000
00000000
00000100
00010000
00000010
00001000
00000010
00000000
,
00001000
00000100
00000000
00000100
00000010
00000001
00001000
00000001
,
00002000
00000000
00000000
00000000
00003100
00010000
00001000
00010000
,
00000010
00001000
00000100
00000000
00001000
00000100
00000001
00000100
,
00000000
00001000
00000010
00001000
00000001
00000000
00001000
00000000
,
00010000
10000000
10010000
00100000
,
10000000
00000000
01000000
00000000
00100000
00010000
00000000
00110000
,
00000000
00100000
00001000
00010000
00001000
00000000
00000010
00000000
,
00000100
00001000
00000000
00000001
00000010
00000000
00000001
00000000
,
00000101
00000000
00000100
00000010
00000100
00000000
00001000
00000000
,
00010000
00000000
00100000
00000000
01000000
00010000
00000000
00110000
,
00000000
00100000
00001000
00010000
00001000
00000000
00000010
00000100
,
00000000
00000010
00000100
00000000
00001000
00000001
00000100
00001000
,
00000000
00010000
00100000
00000000
10000000
00000000
10020000
00000000
,
00100000
00000000
00032000
00000000
00000100
00000000
00003010
00001000
,
00000010
00000000
00001000
00000000
00000001
00000000
00000100
00000000
00000001
00000000
00000000
00000000
00000010
00000000
00000000
00001000
,
00000000
00010000
01000000
00000000
01100000
00000000
00100000
00010000
,
01000000
00000000
00100000
10000000
01000000
10000000
00000000
00100000
,
01000000
00000000
00010000
00000000
00100000
00000000
00001000
00000000
00010000
00000000
00000000
00000000
00001000
00000000
00000000
00001000
,
00000000
00000000
00010000
00000000
00000000
00010000
00000000
00000000
00001000
00000000
00000000
00000000
00022000
00000000
00000000
00000000
,
00000000
00000000
00000000
00000000
00000000
00000000
00000000
00000000
00033000
00000000
00000000
00000000
00000100
00000000
00000000
00001000
,
00000000
00000000
00000010
00000000
00000000
00000000
00000000
00000000
00000110
00000000
00000000
00000000
00000001
00000000
00000000
00000100
,
00000000
00000000
00001000
00000000
00000000
00000000
00000000
00000000
00011000
00000000
00000000
00000000
01000000
00000000
00000000
00010000
,
00000000
00000000
00000000
10000000
00000000
00000000
00100000
00000000
10000000
00000000
01000000
00000000
00100000
00000000
00000000
00001000
,
00000000
00010000
00000000
00010000
00002000
00000000
00000000
00000000
00020000
00000000
00033000
00000000
00010000
00000000
00010000
00000000
,
00000000
00000100
00000000
00001000
00001000
00000000
00000000
00000000
,
00000000
00000110
00000000
00000001
00000000
00001000
00000100
00000100
,
00000000
00010000
00000000
00010000
00001000
00010000
00000000
00000000
,
00000000
00000000
00011000
00000000
00001000
00010000
00100000
10000000
,
00000000
00000000
00100000
00000000
10000000
00000000
00000000
00000000
01000000
00000000
00100000
00000000
00000000
00010000
00000000
00000000
,
00100000
00000000
00001000
00000000
00000000
00000000
00010000
00000000
00000000
00000100
00000000
00000000
00001000
00000000
00000000
00000010
,
00000000
00000000
00001000
00000000
00000000
00000001
00000000
00000000
00000100
00000000
00000000
00000000
00000002
00000000
00000000
00000000
,
00000000
00000000
00000003
00000010
,
00000010
00000010
00000001
00000100
,
00001000
00010000
00001000
00000000
00010000
00000000
00010000
00000000
,
00010000
00000000
00100000
10000000
00100000
00000000
01000000
00010000
,
01000000
00100000
00100000
00100000
,
10000000
00000000
01000000
00000000
00010000
00001000
00010000
00000000
,
00001000
00000000
00001000
00000000
00001000
00000000
00000010
00000001
,
00000010
00000000
00000100
00001000
00000100
00000000
00010000
00000000
,
00001000
01000000
00000000
00001000
01000000
00000000
00010000
00000000
,
00100000
00001000
00000000
00100000
00001000
00000000
00010000
00000000
,
00000010
00010000
00000000
00000010
00010000
00000000
00001000
00000000
,
00010000
00000100
00020000
00000000
00000000
00000000
00031000
00000000
,
00000100
00000001
00000010
00001000
,
00010000
00000000
00001000
00000000
00000100
00000000
00000001
00000010
,
00000100
00010000
00001000
00100000
01000000
10000000
00020000
00000000
,
00000000
00000000
00000000
00000000
,
00000000
00000000
00000000
00000000
00030000
00000000
10000000
01000000
,
00100000
01000000
10000000
00010000
00100000
01000000
00010000
01000000
,
00010000
00001000
00010000
00001000
00100000
00001000
00010000
00000010
,
00001000
00000010
00010000
00000100
00001000
00000100
00000010
00000001
,
00000100
00000010
00001000
00000100
00000010
00000000
00000001
00000100
,
00000001
00000010
00000100
00001000
00000010
00000100
00001000
00010000
,
00011000
00000000
00000000
00000000
00010000
00000000
00001000
00000000
00011000
00000000
00000000
00000000
00100000
00000000
00000000
00010000
,
00000000
01000000
00010000
00100000
01000000
20000000
00000000
30000000
,
10100000
00000000
01000000
00100000
01100000
00000000
01000000
00100000
,
10000000
00010000
00100000
01000000
00010000
01000000
00100000
00001000
,
00010000
00001000
00000010
00000100
00001000
00000100
00000010
00000001
,
00000100
00000001
00001000
00000010
00001000
00000100
00000000
00010100
,
00000000
00011000
00000000
00001000
00100000
00000000
00010000
01000000
,
00001000
00000000
00020000
00000000
00000000
00000000
00000000
00000000
00030000
00000000
00000000
00000000
00000100
00000000
00000000
00001000
,
00000000
00000000
00000020
00000000
00000000
00000000
00000000
00000000
00000030
00000000
00000000
00000000
00000001
00000000
00000000
00000010
,
00000000
00000000
00010000
00000000
00001000
00000000
00000000
01000000
00000000
00000000
10000000
00000000
02000000
00000000
00000000
00000000
,
00000000
00000000
03000000
00100000
,
10000000
00000000
00010000
00100000
00010000
00000000
10000000
01000000
,
00100000
00000000
00001000
00010000
00001000
00000000
00000010
00000000
,
00000100
00000000
00001000
00000010
00000100
00000000
00000001
00000100
,
00000010
00000100
00001000
00010000
00100000
00000000
01000000
00000000
,
00010000
00000000
00100000
01000000
00100000
00000000
00010000
01000000
,
00001000
00000000
00010000
00000100
00001000
00000000
00000010
00000000
,
00010000
00000000
00001000
00000100
00000010
00000000
00001000
00000100
,
00000010
00001000
00010000
01000000
10000000
00000000
00100000
01000000
,
00100000
01000000
00010000
00100000
00010000
00100000
00001000
00010000
,
00000010
00001000
00000100
00010000
00000010
00001000
00000100
00000010
,
00000100
00000010
00000001
00001000
00000001
00001000
00000010
00000100
,
00001000
00010000
00001000
01000000
00010000
00000000
00100000
01000000
,
10000000
01000000
00100000
00010000
01000000
00100000
00010000
00100000
,
00010000
00001000
00010000
00000010
00001000
00000100
00010000
00000100
,
00010000
00001000
00000010
00000100
00001000
00000000
00000001
00000010
,
00001000
00010000
01000000
10000000
00010000
00000000
02000000
00000000
,
00000000
00000000
00000000
00000000
,
00000000
00000000
00000000
00000000
,
00000000
00000000
00000000
00000000
,
00000000
00000000
00000000
03000000
,
00000000
00000000
00000000
00000000
;
#NOTES:
     dance-double:
     :
     Hard:
     17:
     :
00000000
00000000
00000000
00000000
,
00000000
00000000
00000000
00000000
,
00000000
00000000
00000000
00000000
,
00000000
00000000
00000000
00000000
,
00000000
00000000
00000000
00000000
,
00000000
00000000
00000000
00000000
,
00000000
00000000
00000000
00000000
,
00000000
00000000
00000000
00000000
,
00000000
00000000
00000000
00000000
,
00000000
00000000
00000000
00000000
,
00100000
10000000
00100000
00000000
,
01000000
00010000
01000000
00000000
,
00001000
00100000
00001000
00000000
,
00010000
00001000
00010000
00000000
,
00000100
00001000
00000100
00001000
,
00000010
00000100
00000010
00000100
,
00000001
00000010
00000001
00000010
00000001
00000010
00000001
00000010
,
00000001
00000100
00000010
00001000
00000100
00010000
00001000
00100000
00010000
01000000
00100000
10000000
,
01000000
00000000
00000000
00000000
01000000
10000000
01000000
10000000
,
01000000
00100000
01000000
00100000
00010000
00100000
00010000
01000000
,
00001000
00000000
00010000
00000000
00001000
00000000
00100000
00000000
00001000
00000000
00010000
00001000
00010000
00000000
00000100
00000000
,
00001000
00000010
00000100
00000010
00001000
00000100
00000010
00000001
,
00000010
00001000
00010000
01000000
10000000
00100000
01000000
00010000
,
00100000
00000000
01000000
00000000
10000000
00000000
00100000
00000000
01000000
00000000
00010000
00100000
00010000
00000000
00100000
00001000
,
00100000
00000000
00001000
00000000
00010000
00001000
00010000
00001000
00010000
00000000
00001000
00000000
00000010
00000000
00000100
00000000
,
00001000
00000010
00001000
00000000
00000100
00000000
00000010
00000000
00000001
00000000
00001000
00000001
00001000
00000001
00001000
00000000
,
00000001
00000100
00001000
00010000
00100000
10000000
01000000
00100000
,
00010000
01000000
00100000
00010000
00100000
01000000
00010000
00100000
,
00001000
00000000
00000000
00000000
00010000
00000000
00010000
00000000
00000100
00000000
00001000
00000000
00000010
00001000
00000010
00000000
,
00000100
00000010
00000000
00001000
00000010
00000100
00010000
01000000
,
00200000
00000000
00000000
00000000
01300000
00010000
00100000
01000000
,
00010000
00001000
00010000
00001000
00010000
00000000
00000000
00000000
00000100
00000000
00010000
00000000
00000010
00001000
00000010
00000000
,
00000000
00000000
00000000
00000000
00000000
00000000
00001000
00000000
00000000
00000100
00000000
00000000
00000010
00000000
00000000
00000000
00000000
00000000
00000000
00000000
00000000
00000000
00000000
00000000
00000010
00000000
00000000
00000000
00000001
00000000
00000000
00000000
00000100
00000000
00000000
00000000
00000010
00000000
00000000
00000000
00001000
00000000
00000000
00000000
00000100
00000000
00000000
00000000
,
00010000
00000000
00001000
00000000
00100000
00000000
00010000
00000000
01000000
00000000
00100000
00000000
10000000
00000000
00000000
00000000
00000000
00000000
10000000
00000000
00000000
00100000
00000000
00000000
,
01000000
00100000
00010000
00001000
00010000
00011000
00000000
00000010
,
00001000
00000100
00000010
00000001
00000100
00000000
00000010
00000100
,
00001000
00000000
00010000
00000000
00001000
00000000
00000010
00000000
00000100
00000000
00010000
00000000
00001000
00000000
00010000
00001000
,
00000000
00010000
00001000
00000000
00010000
00000000
00100000
00000000
10000000
00010000
10000000
00000000
00100000
00000000
01000000
00000000
,
00010000
00100000
00001000
00010000
00000010
00001010
00000000
00000100
,
00000010
00000000
00001000
00000000
00000100
00000000
00000010
00000001
00000010
00000000
00000000
00000000
00000001
00000000
00000100
00000010
,
00000000
00000000
00001000
00000000
00000010
00000000
00000000
00000000
00010000
00000000
00001000
00010000
00001000
00000000
01000000
00010000
,
00000000
01000000
00010000
00000000
00100000
00000000
01000000
00000000
10000000
00000000
00100000
00000000
02000000
00000000
00000000
00000000
,
03010000
00200000
00000000
00000000
01000000
01300000
01000000
00010000
,
00001000
00000000
00010000
00000000
00100000
00000000
01000000
00000000
00001000
00000000
00010000
00000000
01000000
00000000
00100000
00001000
,
00000000
00100000
00001000
00000000
00010000
00001000
00010000
00000000
00000010
00001000
00000010
00000000
00001000
00000000
00000100
00000000
,
00000010
00000001
00000010
00000100
00001000
00000001
00000000
00000101
,
00000000
00000000
00000010
00000000
00001000
00000000
00000100
00000000
00001000
00000000
00000000
00000000
00000010
00000000
00000000
00000100
,
00000000
00000000
00001000
00000000
00000000
00010000
00000000
00000000
01000000
00000000
10000000
00000000
02000000
00000000
00000000
00000000
,
00000000
00000000
00000000
00000000
00000000
00000000
00000000
00000000
03000000
00000000
00000000
00000000
00100000
00000000
00000000
00100000
,
00000000
00000000
10000000
00000000
00000000
10000000
00000000
00000000
01000000
00000000
00100000
00000000
01000000
00000000
00000000
01000000
,
00000000
00000000
00010000
00000000
00000000
00010000
00000000
00000000
00001000
00000000
00010000
00000000
00001000
00000000
00000000
00001000
,
00000000
00000000
00000010
00000000
00000000
00000010
00000000
00000000
00000100
00000000
00001000
00000000
00000001
00000000
00000000
00000001
,
00000000
00000000
00001000
00000001
00001000
00000000
00000010
00000000
00000100
00000000
00000000
00000000
00000001
00000000
00000100
00000000
,
00000000
00000010
00000000
00010000
00011000
00000000
00000000
00000000
,
00000000
00000000
01100000
00000000
00000000
00000000
10010000
00000000
10000000
00100000
10000000
00000000
01000000
00000000
00010000
00000000
,
00000000
00001000
00000000
00000100
00000010
00000100
00000000
00000000
,
00000000
00000000
00000110
00000000
00001001
00000000
00000001
00000100
,
00000000
00000000
00000010
00000000
00010000
00000000
00000000
00000000
00001000
00000000
01000000
00000000
00000000
00100000
00000000
00000000
,
10000000
00000000
00010000
00000000
00000000
00000000
10000000
00000000
00000000
01000000
00000000
00000000
00100000
00000000
00000000
00001000
,
00000000
00000000
00010000
00000000
00000000
00000100
00000000
00000000
00000010
00000000
00000001
00000000
00002000
00000000
00000000
00000000
,
00000000
00000000
00003000
00001001
,
00000110
00000000
00001001
00000000
00000001
00000100
00001000
00010000
,
00100000
10000000
00010000
00000000
10010000
00000000
01100000
00000000
,
10010000
00000000
10000000
01000000
00010000
00001000
00000010
00000001
,
00001000
00001001
00000110
00001001
,
00000100
00000001
00000010
00001000
00010000
01000000
10000000
00000000
,
10010000
00000000
01100000
00000000
10010000
00000000
01000000
10000000
,
00100000
00010000
00001000
00000100
00000001
00000000
00000010
00000001
,
00000010
00000001
00001000
00000010
00000100
00000010
00010000
00000100
,
00010000
00000100
00001000
00000100
00010000
00001000
00100000
00010000
,
00100000
00010000
01000000
00010000
00100000
01000000
10000000
00010000
,
10000000
00010000
01000000
00100000
01000000
00000000
00100000
10000000
,
01000000
00000000
00100000
00010000
01000000
00000000
00010000
00100000
,
00001000
00000000
00010000
00000100
00001000
00000000
00000100
00000010
,
00001000
00000000
00010000
00000000
01000000
00000000
00100000
00000000
00010000
10000000
00010000
10000000
00020000
00000000
00000000
00000000
,
00000000
00000000
00000000
00000000
,
00000000
00000000
00000000
00000000
00030000
00000000
01000000
00010000
,
01000000
00100000
10000000
01000000
00100000
01000000
00100000
00001000
,
00010000
00000000
00001000
00000000
00010000
00000000
00000100
00000000
00001000
00000010
00001000
00000000
00000100
00000000
00000010
00000000
,
00000001
00000000
00000100
00000000
00000010
00000000
00001000
00000001
00000000
00001000
00000001
00000000
00000100
00000000
00000010
00000000
,
00001000
00000100
00010000
00001000
00011000
00000000
00001000
01000000
,
00010000
00100000
00010000
01000000
00001000
00100000
00010000
01000000
,
00010000
00000000
00000000
00000000
10000000
00000000
01000000
00000000
10000000
00000000
00000000
00000000
00100000
00000000
01000000
00010000
,
00000000
01000000
00010000
00000000
00100000
00000000
00001000
00010000
00001000
00000000
00020000
00000000
00000000
00000000
00030000
00000000
,
00010100
00000000
00000000
00000000
00000100
00001000
00000100
00001000
00000100
00000000
00000000
00000000
00000010
00000000
00000001
00000000
,
00000100
00000000
00000001
00000000
00001000
00000000
00000010
00000000
00000100
00000000
00001000
00000000
00010000
00000000
00001000
00010000
,
00000000
00001000
00010000
00000000
01000000
00000000
10000000
00000000
00010000
00000000
01000000
00000000
00100000
00000000
00010000
00000000
,
00100000
10000000
01000000
00100000
00010000
00110000
00000000
00101000
,
00000000
00000000
00011000
00000000
00000000
00000000
00010010
00000000
00001000
00000010
00001000
00000000
00000100
00000000
00000000
00000000
,
00000010
00000000
00000022
00000000
00000000
00000000
00000000
00000000
00000033
00000000
00000000
00000000
00000100
00000000
00000000
00000010
,
00000000
00000000
00002020
00000000
00000000
00000000
00000000
00000000
00003030
00000000
00000000
00000000
00000001
00000000
00000000
00000100
,
00000000
00000000
00001000
00000000
00010000
00000000
00000000
00100000
00000000
00000000
10000000
00000000
00020000
00000000
00000000
00000000
,
00000000
00000000
00000000
00000000
00030000
00000000
00100000
00010000
,
00100000
00010000
10000000
01000000
10000000
01000000
00100000
00001000
,
00010000
00001000
00010000
00000100
00001000
00000010
00001000
00000100
,
00001000
00000100
00000010
00000001
00001000
00000001
00000100
00001000
,
00010000
00100000
10000000
00100000
01000000
00000000
00100000
01000000
,
00010000
00100000
00010000
01000000
00001000
00010000
00000100
00010000
,
00000010
00000000
00000000
00010000
00000000
00000000
00000100
00000000
00000000
00001000
00000000
00000000
00000100
00000000
00000000
00000010
00000000
00000000
00000001
00000000
00000100
00000000
00001000
00000000
,
00010000
00000000
00000000
00000000
00000000
00000000
00001000
00000000
00000000
00000000
00000000
00000000
00000010
00000000
00000000
00000000
00000000
00000000
00001000
00000000
00000000
00000000
00000000
00000000
00010000
00000000
00000000
00000000
01000000
00000000
00000000
00000000
10000000
00000000
00000000
00000000
00010000
00000000
00000000
00000000
00000000
00000000
01000000
00000000
00000000
00100000
00000000
00000000
,
01000000
00100000
01000000
00000000
10000000
00000000
00000000
10000000
00000000
00000000
10000000
00000000
01000000
00000000
00100000
00000000
,
10000000
00100000
10000000
00010000
00100000
01000000
00010000
00001000
,
00100000
00001000
00010000
00000010
00000100
00001000
00010000
00000100
,
00000010
00000000
00000001
00000000
00000010
00000000
00001000
00000000
00000001
00000000
00000100
00000000
00001000
00000000
00000010
00001000
,
00000010
00001000
00000010
00000000
00000100
00000001
00000100
00000001
00000100
00000000
00000010
00000000
00000100
00000000
00000001
00000000
,
00000010
00000000
00001000
00000000
00000000
00010000
00000000
00000000
01100000
00000000
01000000
00000000
00000000
10000000
00000000
00000000
,
00010000
00000000
00000000
10010000
00000000
00000000
10000000
00000000
00100000
00000000
00010000
00000000
00001000
00000000
00000010
00000000
,
00000100
00010000
00000010
00000100
00001000
00000100
00000001
00000100
,
00000010
00000100
00010000
01000000
00100000
10000000
20020000
00000000
,
00000000
00000000
00000000
00000000
,
00000000
00000000
00000000
00000000
,
00000000
00000000
00000000
00000000
,
00000000
00000000
00000000
30030000
,
00000000
00000000
00000000
00000000
;
