
//----- song ID: swcl -----//
#TITLE:Sweet Clock;
#ARTIST:あるふぁ;
#ARTISTTRANSLIT:alpha;
#BANNER:Sweet Clock.png;
#BACKGROUND:Sweet Clock-bg.png;
#CDTITLE:./CDTitles/MUSECA 1.5.png;
#MUSIC:Sweet Clock.ogg;
#SAMPLESTART:66.055;
#SAMPLELENGTH:15;
#DISPLAYBPM:178;
#BPMS:0=179,4=178;
#NOTES:
     dance-single:
     :
     Beginner:
     3:
     :
0000
0000
0000
0000
,
0000
0000
0000
0000
,
0000
0000
0000
0000
,
0000
0000
0000
0000
,
0000
0000
0000
0000
,
0010
0000
0000
0000
,
1000
0000
0000
0000
,
0010
0000
0100
0000
,
0001
0000
0010
0000
,
0001
0000
0100
0000
,
0010
0000
1000
0000
,
0100
0000
0010
0000
,
0100
0000
1000
0000
,
0001
0000
0100
0000
,
0001
0000
0000
0000
,
1000
0000
0000
0000
,
0010
0000
0100
0000
,
0001
0000
0000
0000
,
1000
0000
1000
0000
,
0001
0000
0100
0000
,
0010
0000
0010
0000
,
0110
0000
0000
0000
,
0110
0000
0000
0000
,
1001
0000
0000
0000
,
0001
0000
1000
0000
,
0020
0000
0000
0030
,
0100
0000
0010
0000
,
2000
0000
0000
3000
,
0002
0000
0000
0003
,
1000
0000
0010
0000
,
1000
0000
0100
0000
,
0010
0000
0001
0000
,
1001
0000
0000
0000
,
0100
0000
0000
0000
,
0010
0000
0010
0000
,
1000
0000
0000
0000
,
0001
0000
0001
0000
,
0010
0000
0000
0000
,
0100
0000
0100
0000
,
1000
0000
0000
0000
,
0010
0000
0100
0000
,
0001
0000
0010
0000
,
0001
0000
0100
0000
,
0010
0000
1000
0000
,
0020
0000
0000
0030
,
0100
0000
0100
0000
,
0001
0000
0001
0000
,
1000
0000
1000
0000
,
0010
0000
0010
0000
,
0010
0000
1000
0000
,
0010
0000
0100
0000
,
0001
0000
0010
0000
,
0001
0000
1000
0000
,
0010
0000
0100
0000
,
0010
0000
1000
0000
,
1001
0000
0000
0000
,
0110
0000
0000
0000
,
0001
0000
0100
0000
,
0001
0000
1000
0000
,
0010
0000
1000
0000
,
0100
0000
1000
0000
,
0001
0000
0010
0000
,
0001
0000
0100
0000
,
0010
0000
0100
0000
,
0110
0000
0000
0000
,
0001
0000
1000
0000
,
0100
0000
1000
0000
,
0010
0000
0100
0000
,
0001
0000
1000
0000
,
0010
0000
0100
0000
,
0010
0000
1000
0000
,
1001
0000
0000
0000
,
0110
0000
0000
0000
,
0100
0000
0010
0000
,
1000
0000
0001
0000
,
1000
0000
0100
0000
,
1000
0000
0000
0000
,
0001
0000
0100
0000
,
0001
0000
0010
0000
,
0100
0000
1000
0000
,
0010
0000
0100
0000
,
0001
0000
0000
0000
,
0000
0000
0001
0000
,
0100
0000
0000
0000
,
0000
0000
0100
0000
,
0010
0000
0000
0000
,
0000
0000
0010
0000
,
1000
0000
0100
0000
,
0010
0000
0001
0000
,
0000
0000
0000
0000
;
#NOTES:
     dance-single:
     :
     Easy:
     6:
     :
0000
0000
0000
0000
,
0000
0000
0000
0000
,
0000
0000
0000
0000
,
0000
0000
0000
0000
,
0000
0000
0000
0000
,
0100
0010
0100
0000
,
0001
0000
0010
0000
,
0100
0000
1000
0000
,
0002
0000
0203
0000
,
0310
0100
0010
0000
,
1000
0000
0100
0000
,
0010
0100
0010
0000
,
1000
0100
1000
0001
,
0100
0010
0100
0000
,
0001
0000
1000
0000
,
0010
0000
0100
0000
,
0001
0010
0001
0100
,
0010
0000
1000
0000
,
0001
0100
0001
0000
,
1000
0000
0100
0000
,
0010
0001
1000
0001
,
1001
0000
0010
0000
,
0100
0000
0010
0000
,
0110
0000
0000
0000
,
1000
0010
1000
0001
,
0200
0000
0320
0000
,
1030
0100
0010
0100
,
0020
0000
0032
0000
,
2003
0000
3200
0000
,
0310
0000
0000
0001
0001
0000
0000
0000
,
1001
0000
0110
0000
,
0001
0100
0001
0100
,
0010
0000
0110
0000
,
1000
0000
0000
0001
0000
0000
0000
0000
,
1000
0010
0100
0000
,
0001
0000
0000
1000
0000
0000
0000
0000
,
0020
0000
0130
0000
,
1000
0000
0000
0001
0000
0000
0000
0000
,
0100
0001
0010
0000
,
0001
0000
0000
1000
0000
0000
0000
0000
,
0010
1000
0100
0000
,
0010
0001
0100
0010
,
1000
0100
1000
0000
,
0010
0100
0001
1000
,
0200
0000
0310
0000
,
0001
0000
0001
0000
,
1000
0000
1000
0000
,
0010
0100
0010
1000
,
0100
1000
1001
0000
,
0100
0010
0001
0000
,
0100
0010
1000
0100
,
0010
0001
0010
0000
,
0001
0000
1000
0010
,
0100
0001
0010
0000
,
0100
0000
1000
0000
,
0010
0000
0110
0000
,
1000
0001
1000
0100
,
0010
0100
0010
0000
,
0001
0000
0100
0010
,
1000
0100
1000
0000
,
0001
0000
0010
0000
,
0001
0100
0001
0000
,
1000
0010
1000
0000
,
0001
0010
0100
1000
,
0010
0010
0100
0100
,
0001
1000
0010
0100
,
0000
0010
1000
0100
,
0010
0001
0010
0001
,
1000
0000
0010
0100
,
0001
1000
0010
1000
,
0000
0001
0100
0010
,
1000
0000
0010
0000
,
0110
0000
1001
0000
,
0010
0100
0001
0010
,
0000
0001
0100
0001
,
1000
0010
1000
0100
,
0010
0000
0100
1000
,
0001
0100
0010
1000
,
1001
0000
0110
0000
,
0001
0001
1000
1000
,
0010
0100
0010
0000
,
1000
0000
0000
1000
,
0000
0000
0100
0000
,
0010
0000
0000
0010
,
0000
0000
0001
0000
,
0100
0000
0000
0100
,
0000
0000
0010
0000
,
1000
0000
0001
0000
,
1000
0100
0010
0001
,
0000
0000
0000
0000
;
#NOTES:
     dance-single:
     :
     Medium:
     8:
     :
0000
0000
0000
0000
,
0000
0000
0000
0000
,
0000
0000
0000
0000
,
0000
0000
0000
0000
,
0000
0000
0000
0000
,
0001
0100
0010
0010
,
0000
1000
0100
1000
,
0010
0000
0000
0100
0001
0000
0000
0001
,
2000
3020
0230
0302
,
1003
0100
0010
0010
,
0000
0001
0100
0001
,
0010
0001
1000
1000
,
0000
0000
0010
0000
0100
0010
0100
0000
,
0001
1000
0100
0100
,
0000
0010
0001
0100
,
0010
1000
0100
0010
,
0001
0000
1000
0000
0010
0100
0010
0000
,
0100
0001
0100
0010
,
1000
0000
0100
0000
0010
0001
0010
0000
,
0110
1000
1000
0001
,
0001
0100
0010
0100
,
1001
1000
0100
0010
,
0000
0001
0010
0001
,
1001
0000
0000
0000
0000
0010
0000
0100
,
0000
0110
1000
0001
,
0000
0200
0320
0030
,
1000
0001
0010
0010
,
0000
0002
2003
3100
,
0020
0032
2003
3200
,
0310
0000
0000
0100
0100
0000
0000
0000
,
1001
0000
0110
0000
,
0001
0010
0100
1000
,
0010
0100
0110
0000
,
0001
0001
0000
1000
1000
0000
0000
0000
,
0001
0100
0010
1000
,
0100
0100
0000
0010
0010
0000
0001
0000
,
0200
0320
1030
0001
,
1000
1000
0000
0001
0001
0000
0110
0000
,
1000
0010
0100
0001
,
0100
0100
0000
0010
0010
0000
1001
0000
,
0100
0001
0010
0010
,
0001
0100
0001
1000
,
0010
1000
0010
0000
1000
0000
0100
0000
,
0010
0100
1000
0001
,
0200
0320
0130
0001
,
0010
0010
0001
0001
,
0100
0100
0010
0010
,
1000
0100
1000
0100
,
0010
0001
0010
0000
1001
0000
0000
0000
,
0001
0100
0001
0010
,
0000
0001
0000
1000
0100
0000
0100
0000
,
0010
0001
0010
0100
,
0000
1000
0000
0001
0000
0100
0010
0000
,
1000
0100
1000
0010
,
0000
0100
0000
0001
1000
0000
0010
0000
,
0100
0000
0000
0001
0100
0000
0000
0010
,
1000
0001
0100
0110
,
0010
1000
0010
0100
,
0000
0001
0000
1000
0010
0000
0100
0000
,
0010
1000
0100
0010
,
0000
0001
0000
1000
0000
0100
0010
0000
,
0100
1000
0100
0000
,
0010
0001
0010
0000
,
0001
0100
0010
1000
,
0100
1000
0100
0000
0010
0001
0010
0000
,
0001
0000
0001
0000
0100
0000
0010
0100
,
0000
0010
0000
1000
0100
0000
1000
0000
,
0010
0000
0010
0000
0100
0000
0001
0010
,
0000
0001
0000
1000
0000
0100
0010
0000
,
0001
0000
0001
0000
0010
0000
0100
1000
,
0000
0100
0000
1000
0010
0000
0100
0000
,
0001
0000
1000
0000
,
0010
0100
0110
0110
,
1000
0000
1000
0000
0010
0000
0100
0010
,
0000
1000
0000
0100
0010
0000
0001
0000
,
0100
0000
0100
0000
0010
0000
0100
0001
,
0000
0010
0000
0100
0000
1000
0001
0000
,
1000
0100
0001
0100
,
1000
1100
0001
0101
,
0010
0010
0100
0100
,
0010
0000
1000
0000
0001
1000
0001
0000
,
1000
0100
0000
1000
,
0100
0000
0010
0001
,
0100
0010
0000
0100
,
0010
0000
1000
0001
,
0010
0001
0000
0100
,
0010
0000
1000
0100
,
0010
0001
0010
0100
,
1000
0010
0100
0001
,
0000
0000
0000
0000
;
#NOTES:
     dance-single:
     :
     Hard:
     12:
     :
0000
0000
0000
0000
,
0000
0000
0000
0000
,
0000
0000
0000
0000
,
0000
0000
0000
0000
,
0000
0000
0000
0000
,
1000
0000
1000
0000
0001
0100
0010
1000
,
0000
1000
0000
0100
0010
0001
1000
0100
,
0010
0000
0000
0100
0010
0000
0000
0010
,
0002
2003
3200
0320
,
0031
0000
0001
0000
1000
0010
0100
0001
,
0000
1001
0000
0010
0100
0010
1000
0100
,
0010
0000
0010
0000
0001
0100
0010
1000
,
0000
1100
0000
0101
0000
0010
1000
0100
,
0010
0000
0010
0000
0001
0010
0100
0010
,
0000
0001
0000
0100
0000
0010
1000
0000
,
0001
0010
0100
1000
,
0001
0100
0010
1000
0001
0010
0100
1000
,
0001
0000
1000
0000
0100
0000
0010
0100
,
0010
0000
0001
0100
0010
0100
0010
1000
,
1100
0110
0110
1001
,
1000
0100
0001
0000
0001
0100
1000
0000
,
1010
0000
0001
0100
0001
1000
0100
0010
,
0000
0100
1000
0100
0010
0001
1001
0000
,
0110
0000
0000
0000
0000
0001
1000
0100
,
0000
0000
0110
0110
0000
1000
0001
0100
,
0000
0000
0020
0000
2030
0000
3000
0100
,
0010
0000
0001
0100
0001
0010
0100
1000
,
0000
0200
0320
0130
,
2000
3020
0230
0302
,
0013
0000
1000
0100
0100
0000
0010
0000
,
0110
0000
0001
0000
1000
0100
1000
0100
,
0010
0000
0110
0000
0001
0100
0000
0100
,
0000
1000
0100
0010
0110
0000
0000
0000
,
1100
1100
0000
0011
0011
0000
0110
1000
,
0010
1000
0100
0010
0001
0010
0100
1000
,
1100
1100
0000
0011
0011
0000
0110
0000
,
2000
0000
3002
0000
0103
0010
1000
0000
,
0011
0011
0000
1100
1100
0000
0110
0000
,
0001
0010
0100
1000
0001
0010
0100
1000
,
1100
1100
0000
0011
0011
0000
0110
0000
,
0001
0010
0001
0100
0010
1000
0010
0100
,
0110
0000
0000
0000
0001
0000
0001
0000
1000
0000
1000
0000
0100
0000
0010
0001
,
0010
0001
0100
0010
1000
0010
0100
0001
,
0010
0010
0100
0100
1000
1000
0001
0000
,
2000
0000
3200
0000
0310
0001
0100
0000
,
0110
0000
1010
0000
1000
0100
1000
0100
,
0010
0001
0010
0100
0010
0000
0110
0000
,
0011
0000
1100
0000
0001
0100
0001
0100
,
0010
1000
0100
0010
0001
0000
1001
0000
,
1010
0000
0110
0000
1000
0010
0100
0001
,
0000
0101
0000
0010
1000
0010
0100
0001
,
0101
0000
1010
0000
0001
0010
0100
1000
,
0000
0000
0010
0100
0000
0000
0110
0000
0000
0000
1000
0000
0100
0000
0010
0000
,
0110
0000
1100
0000
0001
0100
0010
0100
,
0000
0110
0000
1000
0100
0010
0100
1000
,
0010
0000
0100
0001
0100
0000
0001
0010
,
0001
1010
0101
1100
,
0110
0000
1001
0000
0001
0010
0100
0010
,
0000
0110
0000
1000
0100
0010
0100
1000
,
1100
0000
1001
0000
0010
0100
0010
1000
,
0000
0000
0100
0010
0000
0000
0110
0000
0000
0000
0001
0000
0100
0000
0010
0000
,
1000
0000
1000
0000
0010
0100
0010
1000
,
0000
0100
0000
0010
0000
0001
0010
0000
,
0001
0010
0100
1000
0001
0010
0100
0000
,
1000
1000
0010
0010
0100
0100
0110
0000
,
0001
0000
1001
0000
0010
0100
0010
1000
,
0000
1100
0000
0010
0001
0100
0010
1000
,
1001
0000
0110
0000
1000
0100
0010
0001
,
0000
0000
0100
0010
0000
0000
0110
0000
0000
0000
1000
0000
0100
0000
0010
0000
,
0100
0000
1100
0000
0001
0100
0010
0110
,
0000
1100
0000
0010
0001
0010
0100
1000
,
0010
0000
0100
0010
0100
0000
0001
0010
,
0001
1010
1100
0101
,
0010
0000
0110
0000
1000
0010
0100
0110
,
0000
0101
0000
0010
0100
0010
1000
0100
,
0110
0000
0011
0000
1000
0100
0010
0001
,
0000
1000
0000
1001
0000
0001
0010
0100
,
1000
0001
0100
0100
0001
0000
0010
0000
,
1100
0000
0101
0000
1000
0010
1000
0010
,
0100
0001
0100
0001
0010
0100
1000
0100
,
0010
0001
0100
0010
1000
0001
1000
0000
,
0001
0010
0100
1000
0000
0000
0001
0010
,
0100
1000
0000
0001
0010
0100
1000
0000
,
1000
0100
0010
0001
0000
0000
1000
0100
,
0010
0001
0000
1000
0100
0010
0001
0000
,
0001
0100
1000
0100
0000
0000
0001
0100
,
1000
0100
0000
0001
0010
1000
0010
0000
,
0001
0010
0100
1000
0100
0010
0100
1000
,
0010
0100
0001
0100
0010
1000
0100
0010
,
0000
0000
0000
0000
;
#NOTES:
     dance-double:
     :
     Easy:
     6:
     :
00000000
00000000
00000000
00000000
,
00000000
00000000
00000000
00000000
,
00000000
00000000
00000000
00000000
,
00000000
00000000
00000000
00000000
,
00000000
00000000
00000000
00000000
,
10000000
01000000
10000000
00000000
,
00010000
00000000
00100000
00000000
,
00001000
00000000
00010000
00000000
,
00000200
00000000
00002300
00000000
,
00003001
00000010
00000001
00000000
,
00001000
00000000
00000100
00000000
,
00010000
00001000
00010000
00000000
,
00001000
00100000
00010000
00100000
,
01000000
00100000
01000000
00000000
,
10000000
00000000
01000000
00000000
,
00010000
00000000
00001000
00000000
,
00000100
00000001
00000010
00000001
,
00001000
00000000
00000100
00000000
,
00010000
00001000
00010000
00000000
,
00001000
00000000
01000000
00000000
,
00010000
00100000
01000000
00000000
,
10010000
00000000
00010000
00000000
,
00100000
00000000
00001000
00000000
,
00100000
00000000
00000000
00000000
,
00001000
00010000
00001000
00000000
,
00020000
00000000
00030020
00000000
,
00001030
00000001
00001000
00000000
,
00000002
00000000
00000203
00000000
,
00002300
00000000
00023000
00000000
,
00031000
00000000
00010000
00000000
,
00011000
00000000
01100000
00000000
,
10000000
01000000
10000000
01000000
,
00100000
00000000
00011000
00000000
,
00010000
00000000
00000000
00001000
00000000
00000000
00000000
00000000
,
00000100
00000010
00000100
00000000
,
00000001
00000000
00000000
00001000
00000000
00000000
00000000
00000000
,
00000200
00000000
00010300
00000000
,
00001000
00000000
00000000
00100000
00000000
00000000
00000000
00000000
,
00010000
01000000
00010000
00000000
,
10000000
00000000
00000000
00100000
00000000
00000000
00000000
00000000
,
01000000
00010000
01000000
00000000
,
00001000
00010000
00001000
00000100
,
00000010
00000100
00000001
00000000
,
00000100
00000010
00001000
00000100
,
00020000
00000000
00031000
00000000
,
00100000
00000000
00100000
00000000
,
00010000
00000000
00010000
00000000
,
10000000
00100000
10000000
00010000
,
00100000
00001000
00010000
00000000
,
00000010
00001000
00000010
00000000
,
00000100
00000001
00000010
00000100
,
00001000
00000100
00010000
00000000
,
00001000
00000000
01000000
00000000
,
00010000
00100000
00010000
00000000
,
10000000
00000000
00100000
00000000
,
01000000
00000000
00010000
00000000
,
00100000
00001000
00100000
00001000
,
00010000
00000100
00010000
00000000
,
00000010
00000000
00001000
00000000
,
00000001
00000100
00000001
00000000
,
00000010
00000000
00001000
00000000
,
00010000
00001000
00010000
00000000
,
00001000
01000000
00001000
00000000
,
00100000
00010000
10000000
01000000
,
00100000
00100000
00010000
00010000
,
00100000
00001000
00010000
00000000
,
00001000
00010000
00000100
00001000
,
00000001
00000100
00000001
00000000
,
00001000
00000000
00000100
00000000
,
00010000
00001000
00010000
00000000
,
00001000
00100000
00010000
00100000
,
01000000
00000000
10000000
00000000
,
10010000
00000000
00011000
00000000
,
00001000
00010000
00001000
00000000
,
00000010
00000100
00000010
00000001
,
00001000
00000100
00001000
00000000
,
00000100
00000000
00010000
00000000
,
00001000
00010000
00100000
00000000
,
01100000
00000000
10010000
00000000
,
10000000
10000000
00100000
00100000
,
00010000
00001000
00010000
00000000
,
00001000
00000000
00000000
00000010
,
00000000
00000000
00000001
00000000
,
00000100
00000000
00000000
00001000
,
00000000
00000000
00010000
00000000
,
00100000
00000000
00000000
10000000
,
00000000
00000000
01000000
00000000
,
00010000
00000000
00001000
00000000
,
00010000
00000100
00001000
00000010
,
00000000
00000000
00000000
00000000
;
#NOTES:
     dance-double:
     :
     Medium:
     8:
     :
00000000
00000000
00000000
00000000
,
00000000
00000000
00000000
00000000
,
00000000
00000000
00000000
00000000
,
00000000
00000000
00000000
00000000
,
00000000
00000000
00000000
00000000
,
00000001
00000100
00000010
00000010
,
00000000
00001000
00000100
00010000
,
00001000
00000000
00000000
00100000
00010000
00000000
00000000
10000000
,
02000000
03020000
00032000
00003200
,
00000301
00000010
00000100
00000100
,
00000000
00000010
00000001
00000010
,
00000100
00010000
00001000
00001000
,
00000000
00000000
00001000
00000000
00100000
00010000
00100000
00000000
,
00010000
10000000
01000000
01000000
,
00000000
00100000
00010000
01000000
,
00001000
00010000
00000010
00001000
,
00000001
00000000
00000100
00000000
00000010
00000100
00000010
00000000
,
00001000
00000100
00010000
00001000
,
00010000
00000000
01000000
00000000
10000000
00100000
10000000
00000000
,
00010000
00100000
00100000
00001000
,
00001000
00010000
00001000
00010000
,
00000010
00000010
00001000
00000100
,
00000000
00000010
00000001
00001000
,
00001001
00000000
00000000
00000000
00000000
00010000
00000000
00001000
,
00000000
00000000
00000000
00011000
00000000
00100000
00010000
01000000
,
00000000
20000000
30200000
00300000
,
01000000
00010000
00100000
00100000
,
00000000
00002000
00023000
00031000
,
00000200
00000302
00000023
00000230
,
00010300
00000000
00000000
00001000
00001000
00000000
00000000
00000000
,
00011000
00000000
01001000
00000000
,
00001000
00010000
00001000
00000100
,
00000010
00001000
00001010
00000000
,
00000010
00000010
00000000
00000100
00000100
00000000
00000001
00000000
,
00001000
00000100
00010000
00001000
,
01000000
01000000
00000000
00100000
00100000
00000000
10000000
00000000
,
02000000
03020000
00031000
00000100
,
00000001
00000001
00000000
00001000
00001000
00000000
00000100
00000000
,
00010000
00001000
01000000
00010000
,
10000000
10000000
00000000
00010000
00010000
00000000
01000000
00000000
,
00100000
10000000
01000000
01000000
,
00010000
00001000
00010000
00000100
,
00001000
00000100
00001000
00000000
00000001
00000000
00000010
00000000
,
00000100
00001000
00000100
00010000
,
00002000
00023000
01030000
10000000
,
00010000
00010000
01000000
01000000
,
00001000
00001000
00010000
00010000
,
00000010
00001000
00000010
00000100
,
00000001
00000010
00000001
00000000
00001001
00000000
00000000
00000000
,
00010000
00001000
00100000
00010000
,
00000000
10000000
00000000
01000000
00100000
00000000
00100000
00000000
,
00010000
00100000
00001000
00010000
,
00000000
00001000
00000000
00000010
00000000
00000001
00000010
00000000
,
00000001
00001000
00000100
00001000
,
00000000
00000100
00000000
00010000
00001000
00000000
00010000
00000000
,
00100000
00000000
00000000
00100000
10000000
00000000
00000000
10000000
,
01000000
00100000
00010000
00110000
,
00100000
00001000
00010000
00000100
,
00000000
00000010
00000000
00000001
00001000
00000000
00000100
00000000
,
00010000
00001000
01000000
00010000
,
00000000
10000000
00000000
01000000
00000000
00010000
00001000
00000000
,
00010000
00000100
00010000
00000000
,
00000010
00001000
00000010
00000000
,
00000100
00000001
00001000
00000100
,
00010000
00010000
00001000
00001000
,
00100000
00000000
00100000
00000000
00010000
00000000
10000000
00100000
,
00000000
10000000
00000000
01000000
00100000
00000000
00010000
00000000
,
01000000
00000000
01000000
00000000
00001000
00000000
00010000
00001000
,
00000000
00010000
00000000
00000100
00000000
00001000
00000010
00000000
,
00000100
00000000
00000100
00000000
00000001
00000000
00001000
00000010
,
00000000
00010000
00000000
00001000
00010000
00000000
00001000
00000000
,
00100000
00000000
00010000
00000000
,
10000000
00010000
00110000
00011000
,
00001000
00000000
00001000
00000000
00010000
00000000
00000010
00001000
,
00000000
00000100
00000000
00000010
00000001
00000000
00000010
00000000
,
00000100
00000000
00000100
00000000
00001000
00000000
00000100
00010000
,
00000000
00001000
00000000
00010000
00000000
01000000
10000000
00000000
,
00010000
10000000
00100000
00010000
,
00001000
00011000
00010000
00010010
,
00000010
00000100
00000001
00000001
,
00001000
00000000
00000100
00000000
00010000
00001000
00010000
00000000
,
00001000
00010000
00000000
00010000
,
00100000
00000000
00100000
10000000
,
01000000
00010000
00000000
01000000
,
00010000
00000000
00001000
00000100
,
00000001
00000100
00000000
00000001
,
00000100
00000000
00001000
00010000
,
00001000
00010000
00100000
10000000
,
01000000
00100000
00010000
00100000
,
00000000
00000000
00000000
00000000
;
#NOTES:
     dance-double:
     :
     Hard:
     12:
     :
00000000
00000000
00000000
00000000
,
00000000
00000000
00000000
00000000
,
00000000
00000000
00000000
00000000
,
00000000
00000000
00000000
00000000
,
00000000
00000000
00000000
00000000
,
00001000
00000000
00001000
00000000
00010000
01000000
10000000
01000000
,
00000000
00100000
00000000
00001000
00010000
00001000
00000100
00000001
,
00000100
00000000
00000000
00001000
00000100
00000000
00000000
00010000
,
00002000
00203000
00320000
20030000
,
31000000
00000000
01000000
00000000
10000000
00100000
00010000
00001000
,
00000000
00010000
00000000
00001000
00000010
00000001
00001000
00000100
,
00000010
00000000
00000010
00000000
00000001
00000100
00001000
00010000
,
00000000
00011000
00000000
01010000
00000000
00100000
10000000
01000000
,
00100000
00000000
00100000
00000000
00010000
01000000
00001000
00010000
,
00000000
00000100
00000000
00001000
00000000
00000010
00000100
00000000
,
00000001
00000100
00001000
00010000
,
00001000
00100000
00010000
01000000
00100000
10000000
01000000
00100000
,
00010000
00000000
10000000
00000000
01000000
00000000
00010000
00001000
,
00010000
00000000
00001000
00010000
00001000
00000000
00000100
00000000
,
00000110
00001001
00011000
10010000
,
00100000
01000000
00100000
00000000
01000000
00010000
01000000
00000000
,
00001000
00000000
00010000
00001000
00010000
00000000
00000100
00000000
,
00000000
00001000
00000010
00000100
00000001
00000000
00001100
00000000
,
00011000
00000000
00000000
00000000
00000000
00010000
00100000
10000000
,
00000000
00000000
01100000
01100000
00000000
00100000
00010000
00001000
,
00000000
00000000
00020000
00000000
00032000
00000000
00003000
00000100
,
00000001
00000000
00001000
00000010
00001000
00000000
00000001
00000000
,
00000000
00000200
00002300
00013000
,
00020000
02030000
23000000
30200000
,
01300000
00000000
00010000
00100000
00100000
00000000
00001000
00000000
,
00011000
00000000
00000010
00000000
00001000
00000100
00001000
00000100
,
00000010
00000000
00000011
00000000
00000100
00001000
00000000
00001000
,
00000000
00010000
00100000
10000000
01000000
00000000
00000000
00000000
,
00110000
00110000
00000000
00011000
00011000
00000000
00010000
00000000
,
00001000
00000100
00000001
00000100
00001000
00010000
00001000
00000000
,
00011000
00011000
00000000
00001100
00001100
00000000
00000001
00000000
,
00002000
00000000
00003020
00000000
00010030
00001000
00010000
00000000
,
00011000
00011000
00000000
01010000
01010000
00000000
10000000
00000000
,
00100000
10000000
01000000
00010000
00001000
00000000
00010000
00000000
,
00011000
00011000
00000000
00001010
00001010
00000000
00000001
00000000
,
00000100
00000010
00000100
00000001
00001000
00000100
00010000
00001000
,
00011000
00000000
00100000
00001000
00100000
00010000
01000000
00000000
,
00100000
10000000
01000000
00100000
00010000
00100000
00001000
00000000
,
00010000
00001000
00010000
00000010
00001000
00000010
00000100
00000000
,
00000002
00000000
00002003
00000000
00003100
00010000
00001000
00000000
,
00011000
00000000
10010000
00000000
01000000
00100000
01000000
00100000
,
00010000
00100000
00010000
00100000
00001000
00000000
00011000
00000000
,
00001001
00000000
00000110
00000000
00000001
00000100
00000001
00000100
,
00001000
00010000
00001000
00010000
00001000
00000000
00101000
00000000
,
01010000
00000000
11000000
00000000
00010000
01000000
00001000
00010000
,
00000000
00011000
00000000
00001000
00000100
00000001
00000010
00000000
,
00001100
00000000
00011000
00000000
01000000
00010000
00100000
01000000
,
00000000
10000000
00000000
01000000
00000000
00010000
00001000
00000100
,
00000001
00000000
00000001
00000000
00001000
00000010
00010000
00001000
,
00000000
00011000
00000000
00010000
00100000
10000000
00100000
00010000
,
00001000
00000000
00010000
00000100
00010000
00000000
00000010
00001000
,
00000010
00000101
00001100
00011000
,
01010000
00000000
11000000
00000000
00010000
00100000
00010000
10000000
,
00000000
01000000
00000000
00010000
00001000
00000010
00000001
00000010
,
00001000
00000000
00001000
00000000
00010000
00001000
00010000
00001000
,
00000000
01000000
00000000
01010000
00000000
00100000
10000000
01000000
,
00100000
00000000
00100000
00000000
00010000
01000000
00001000
00010000
,
00000000
00001000
00000000
00000100
00000000
00000001
00000010
00000000
,
00000001
00000100
00001000
00000000
00010000
01000000
10000000
00000000
,
00010000
00010000
00100000
00100000
00001000
00001000
00010000
00000000
,
00000100
00000000
00001100
00000000
00001000
00000010
00000100
00000001
,
00000000
00000110
00000000
00001000
00000100
00010000
00001000
00100000
,
00010000
00000000
01010000
00000000
10000000
00100000
01000000
00010000
,
00000000
00100000
00000000
00011000
00000000
00000010
00001000
00000100
,
00000010
00000000
00000011
00000000
00000100
00000010
00001000
00000100
,
00000000
00011000
00000000
00001000
00010000
00100000
10000000
01000000
,
00100000
00000000
00010000
01000000
00010000
00000000
00100000
00001000
,
00100000
00011000
00001001
00000110
,
00001000
00000000
00001000
00000000
00000001
00000010
00001000
00010000
,
00000000
00011000
00000000
00001000
00010000
01000000
10000000
01000000
,
00010000
00000000
00011000
00000000
00001000
00000100
00000001
00000100
,
00000000
00001000
00000000
00010000
00000000
00001000
01000000
00010000
,
00100000
00000000
00010000
10000000
00010000
00000000
10000000
00000000
,
01010000
00011000
00001100
00000101
,
00001000
00000010
00001000
00000010
00010000
00001000
00010000
00000000
,
00001000
00100000
00010000
01000000
00010000
10000000
01000000
00000000
,
10000000
01000000
00010000
00001000
00000000
00000000
00010000
00001000
,
00000100
00000001
00000000
00000010
00000100
00001000
00000100
00000000
,
00000001
00000010
00001000
00010000
00000000
00000000
00001000
00010000
,
00100000
10000000
00000000
01000000
00100000
00010000
00100000
00000000
,
10000000
00100000
00010000
00001000
00000000
00000000
00010000
00100000
,
00010000
00001000
00000000
00000100
00001000
00010000
00001000
00000000
,
00010000
00001000
00010000
00000100
00001000
00000010
00000100
00000001
,
00001000
00000100
00010000
00001000
00100000
00010000
10000000
01000000
,
00000000
00000000
00000000
00000000
;
