
//----- song ID: suse -----//
#TITLE:スーパー戦湯ババンバーン;
#ARTIST:すわひでお,秋成,かぼちゃ,藍月なくる,NU-KO by BEMANI Sound Team "八戸亀生羅";
#TITLETRANSLIT:Super sentou Babanburn;
#ARTISTTRANSLIT:Hideo Suwa, Akinari, Kabocha, Nakuru Aitsuki, NU-KO by BEMANI Sound Team "Hachinohe Kameshira";
#BANNER:Super sentou Babanburn.png;
#BACKGROUND:Super sentou Babanburn-bg.png;
#CDTITLE:./CDTitles/BEMANI 2021 manatsu no utagassen 5 ban shoubu.png;
#MUSIC:Super sentou Babanburn.ogg;
#SAMPLESTART:74.722;
#SAMPLELENGTH:15;
#BPMS:0=187,100=93.5,108=187,312=93.5,324=187;
#BGSTAGE:16;
#NOTES:
     dance-single:
     :
     Beginner:
     4:
     :
0000
0000
0000
0000
,
0000
0000
0000
0000
,
0000
0000
0000
0000
,
0000
0000
0000
0000
,
0000
0000
0000
0000
,
0001
0000
0001
0000
,
0001
0000
0000
0000
,
0100
0000
0100
0000
,
0100
0000
0000
0000
,
0010
0000
0010
0000
,
0010
0000
0000
0000
,
1000
0000
1000
0000
,
1000
0000
0000
0000
,
1001
0000
0000
0000
,
1000
0000
0100
0000
,
1001
0000
0000
0000
,
0001
0000
0010
0000
,
0001
0000
0001
0000
,
0100
0000
0100
0000
,
0010
0000
1000
0000
,
0010
0000
0000
0000
,
1000
0000
1000
0000
,
0100
0000
0100
0000
,
0010
0000
0001
0000
,
0010
0000
0000
0000
,
0002
0000
0003
0000
,
0200
0000
0300
0000
,
1000
0000
1000
0000
,
0010
0000
0010
0000
,
0100
0000
0100
0000
,
0001
0000
0000
0000
,
0010
0000
0001
0000
,
0100
0000
0001
0000
,
0010
0000
0100
0000
,
1000
1000
1000
0000
,
0010
0000
1000
0000
,
0100
0000
1000
0000
,
0010
0000
0100
0000
,
0001
0001
0001
0000
,
0020
0000
0000
0000
,
0030
0000
0000
0000
,
0200
0000
0000
0000
,
0300
0000
0000
0000
,
1000
0000
1000
0000
,
0100
0100
0100
0000
,
0010
0000
0010
0000
,
0001
0001
0001
0000
,
1001
0000
0000
0000
,
0010
0000
0100
0000
,
1001
0000
0000
0000
,
0100
0000
0010
0000
,
0001
0000
0100
0000
,
1000
0000
0100
0000
,
0010
0000
1000
0000
,
0100
0000
0100
0000
,
0010
0000
0010
0000
,
0010
0000
0000
0000
,
1001
0000
0000
0000
,
0001
0010
0001
0000
,
0001
0000
0100
0000
,
0010
0000
0010
0000
,
1000
0000
0100
0000
,
0001
0000
0100
0000
,
1000
0000
0010
0000
,
1000
0010
1000
0000
,
1001
0000
0000
0000
,
1000
0100
1000
0000
,
1000
0000
0010
0000
,
0100
0000
0100
0000
,
0001
0000
0010
0000
,
1000
0000
0010
0000
,
0001
0000
0100
0000
,
0001
0100
0001
0000
,
0000
0000
0000
0000
,
1001
0000
0000
0000
,
1001
0000
0000
0000
,
1001
0000
0000
0000
,
0010
0000
0010
0000
,
0020
0000
0030
0000
,
0200
0000
0300
0000
,
0002
0000
0003
0000
,
1000
0000
0010
0000
,
0100
0001
0100
0000
,
0001
0000
0010
0000
,
0100
1000
0100
0000
,
1000
0000
0010
0000
,
0001
0000
0000
0000
,
0001
0000
0100
0000
,
1000
0000
0000
0000
,
0000
0000
1001
0000
,
0000
0000
0000
0000
,
1001
0000
0000
0000
,
0000
0000
0000
0000
;
#NOTES:
     dance-single:
     :
     Easy:
     7:
     :
0000
0000
0000
0000
,
0000
0000
0000
0000
,
0000
0000
0000
0000
,
0000
0000
0000
0000
,
0000
0000
0000
0000
,
1000
0000
0000
1010
0000
0000
0000
0000
,
0001
0000
0000
0011
0000
0000
0000
0000
,
0010
0000
0000
0110
0000
0000
0000
0000
,
0100
0000
0000
1001
0000
0000
0000
0000
,
1000
0000
0000
0100
0000
0000
1000
0000
,
0001
0000
0000
0010
0000
0000
0001
0000
,
0100
0000
0000
0001
0000
0000
0100
0000
,
0010
0000
0000
1000
0000
0000
0010
0000
,
1000
0000
0010
0100
,
0010
1000
0001
0000
,
1000
0000
0100
0010
,
0100
1000
0001
0000
,
1000
0010
1000
0010
,
0100
0001
0100
0001
,
1000
0001
0100
0010
,
1000
1000
0001
0001
,
0001
0010
0001
0010
,
0100
1000
0100
1000
,
0010
0100
0010
1000
,
0001
0100
1001
0000
,
0020
0030
2000
3000
,
0002
0003
0200
0300
,
0001
0001
0010
0010
,
0100
1000
0100
1000
,
1010
0000
0101
0000
,
0001
1000
2002
3003
,
1000
0000
1000
0000
0001
0100
0010
0000
,
1000
0100
0001
0100
,
1000
0000
1000
0000
0010
0100
0001
0000
,
0010
0010
0100
1000
,
0001
0000
0001
0000
1000
0010
0100
0000
,
0001
0010
1000
0010
,
0001
0010
0001
0000
1000
0010
1000
0000
,
0010
0010
0020
0030
,
2000
0000
3020
0000
,
0130
0001
0100
0000
0001
0000
0000
0000
,
0002
0000
0023
0000
,
0130
1000
0100
0000
1000
0000
0000
0000
,
1000
0000
0010
0100
0001
0000
0000
0000
,
1000
1000
1000
0000
,
1010
0000
0101
0000
,
1000
0001
1000
0000
,
1000
0010
1000
0010
,
0001
0010
0001
0010
,
1000
0100
1000
0100
,
0001
0100
0001
0100
,
1000
0100
0010
0001
,
0100
0100
0100
0000
,
0101
0000
1100
0000
,
0020
0000
0200
0000
,
0000
0000
0000
0000
,
0330
0000
0010
0000
1000
0001
0000
0000
,
1000
0000
0001
0000
0100
0010
0100
0000
,
0001
0010
0100
0000
,
1000
0100
0001
0100
,
1000
1000
0001
0001
,
0010
0001
0100
0000
0010
0000
0000
0000
,
1000
1000
1000
0000
,
1100
0000
0011
0000
,
0001
1000
0001
0000
,
0001
0000
1000
0000
0010
0100
0010
0000
,
1000
0100
0010
0000
,
0001
0010
1000
0010
,
0001
0001
1000
1000
,
0100
1000
0010
0000
0100
0000
0000
0000
,
0001
0001
0001
0000
,
0011
0000
1100
0000
,
1000
0001
1000
0001
,
0000
0000
0000
0000
,
0100
0000
0000
1000
0000
0000
0010
0000
,
0100
0000
0000
0001
0000
0000
0010
0000
,
0100
0000
0000
1000
0000
0000
0001
0000
,
0100
0000
0001
1000
0000
0000
0000
0000
,
0020
0030
0200
0300
,
0002
0003
2000
3000
,
2002
0000
3003
0000
,
1000
0000
0000
1000
0000
0000
0100
0000
,
0010
0000
0000
0010
0000
0000
0001
0000
,
0100
0000
0000
0100
0000
0000
0001
0000
,
1000
0000
0000
1000
0000
0000
0010
0000
,
0100
0001
0100
0000
,
0100
1000
0100
0000
,
0010
0001
0010
0000
,
0010
1000
0010
1000
,
0000
0000
1001
0000
,
0000
0000
0000
0110
,
0110
0000
0000
0000
,
0000
0000
0000
0000
;
#NOTES:
     dance-single:
     :
     Medium:
     11:
     :
0000
0000
0000
0000
,
0000
0000
0000
0000
,
0000
0000
0000
0000
,
0000
0000
0000
0000
,
0000
0000
0000
0000
,
0001
0000
0000
0001
0000
0000
0001
0000
0000
0000
0000
0000
0000
0000
0000
0000
,
1000
0000
0000
1000
0000
0000
1000
0000
0000
0000
0000
0000
0000
0000
0000
0000
,
0010
0000
0000
0010
0000
0000
0010
0000
0000
0000
0000
0000
0000
0000
0000
0000
,
0100
0000
0000
0100
0000
0000
0100
0000
0000
0000
0000
0000
0000
0000
0000
0000
,
0001
0000
0000
0001
0000
0000
0010
0000
0000
0000
0100
0000
0100
0000
0000
0000
,
1000
0000
0000
1000
0000
0000
0010
0000
0000
0000
0100
0000
0100
0000
0000
0000
,
0001
0000
0000
0001
0000
0000
0100
0000
0000
0000
0010
0000
0010
0000
0000
0000
,
1000
0000
0000
1000
0000
0000
0100
0000
0000
0000
0010
0000
0010
0000
0000
0000
,
2002
3000
0200
0300
,
0020
0000
0000
0033
,
2002
0003
0200
0300
,
0020
0000
0000
3030
,
0110
0000
1000
0100
0010
0001
0000
2000
,
0000
0000
0010
0000
0100
3100
0000
0000
,
0002
0000
0203
0000
1300
0100
0000
0001
,
0000
0010
0001
0010
0001
0100
0010
0100
,
0010
0000
0001
0010
0100
1000
0010
0000
,
0110
0000
1000
0100
0010
0001
0000
2000
,
0000
3010
0001
0000
0001
0010
1000
0000
,
0001
0000
0100
0010
1000
0001
0000
0000
,
0020
1000
0100
1030
,
0200
0001
0010
0301
,
1000
1000
0100
0100
,
0001
0100
1000
0000
,
1010
0000
0101
0000
,
2002
0000
0000
3003
,
1000
0010
1000
0000
0001
0100
0001
0000
,
0010
0001
0010
0000
0100
1000
0100
0000
,
1000
0010
0001
0010
,
1000
0001
1000
0001
1000
0000
1001
0000
,
0010
0000
0010
0000
0010
1000
0100
0000
,
0010
0000
0010
0000
0010
0001
0100
0000
,
0001
0100
0001
0000
1000
0100
1000
0000
,
0010
0100
0010
0200
0000
0000
0300
0000
,
0001
0000
0001
0000
1000
0010
1000
0000
,
0100
0000
0100
1000
0200
0000
0300
0000
,
1000
0000
1000
0000
0001
0010
0001
0000
,
0100
0000
0100
0001
0200
0000
0300
0000
,
0001
0000
0010
0000
1000
0010
0001
0000
,
1100
0000
0110
0000
0011
0000
1000
0001
,
2000
0000
3000
1000
0100
0000
0100
0010
,
0100
0000
0010
0001
2000
0000
3000
0000
,
0001
0100
0010
1000
,
0100
0010
0001
0010
0100
0000
0000
0000
,
1000
0010
0100
0001
,
1000
0010
0100
0010
1000
0000
0000
0000
,
0010
0000
1000
0001
0000
1000
0001
0000
,
0100
0100
0200
0300
,
0001
0000
1000
0010
1000
0000
0001
0010
,
0001
0002
1000
2000
,
0000
0000
0000
0000
3003
0000
0100
0010
,
0200
0000
0310
0000
0010
0010
0000
0000
,
1000
0100
0001
0000
0001
0100
1000
0000
,
0100
0010
0000
1001
0000
0010
0100
0000
,
1000
0000
0010
0000
0100
0001
0100
0001
,
0010
0000
0010
0100
0000
1000
0001
0000
,
1000
0100
0010
0001
1000
0000
0020
0000
,
0230
0000
0302
0000
1003
0000
0010
0100
,
0010
0010
0000
1000
2000
0000
0000
3001
,
0002
0000
0100
0103
0000
0001
1000
0000
,
0001
0010
1000
0000
1000
0010
0001
0000
,
0010
0100
0000
1001
0000
0100
0010
0000
,
0001
0000
0100
0000
0010
1000
0010
1000
,
0100
0000
0000
0010
0000
0000
0010
0000
0000
0001
0000
0000
1000
0000
1000
0000
,
0001
0010
0100
1000
0001
0100
0001
0000
,
1000
0000
0010
1000
0000
0010
0100
0010
,
0100
0001
0002
1003
,
2000
0010
0020
0000
,
3030
0000
0000
0000
,
1000
0000
0000
0010
0000
0000
0100
0000
0000
0001
0000
0000
1000
0000
0000
0000
,
0001
0000
0000
0010
0000
0000
0100
0000
0000
1000
0000
0000
0001
0000
0000
0000
,
0100
0000
0000
0010
0000
0000
1000
0000
0000
0001
0000
0000
0100
0000
0000
0000
,
0001
1000
0000
0001
1000
0000
0002
0000
0000
0000
0000
0000
0003
0000
0000
0000
,
2000
3100
0002
0103
,
2000
3010
0002
0013
,
0001
0100
0010
1000
0001
0000
0000
0000
,
1000
0000
0000
0100
0000
0000
0010
0000
0000
0100
0000
0000
1000
0000
0000
0000
,
0001
0000
0000
0100
0000
0000
0010
0000
0000
0100
0000
0000
0001
0000
0000
0000
,
0010
0000
0000
0100
0000
0000
1000
0000
0000
0100
0000
0000
0010
0000
0000
0000
,
0100
0000
0000
1000
0000
0000
0010
0000
0000
1000
0000
0000
0001
0000
0000
0000
,
1000
0000
0000
0010
0000
0000
1000
0000
0000
0010
0000
0000
0100
0000
0100
0000
,
0001
0000
0000
0010
0000
0000
0001
0000
0000
0010
0000
0000
0100
0000
0100
0000
,
1000
0000
0000
0010
0000
0000
0100
0000
0000
0001
0000
0000
1000
0000
1000
0000
,
0001
1000
0000
0001
1000
0000
0001
1000
0000
0000
0000
0000
1001
0000
0000
0000
,
0000
0000
0220
0000
,
0000
0000
0000
0000
0000
0000
0000
0000
0330
0000
0000
0000
0010
0100
0000
0010
,
0100
0000
0000
0000
,
0000
0000
0000
0000
;
#NOTES:
     dance-single:
     :
     Hard:
     14:
     :
0000
0000
0000
0000
,
0000
0000
0000
0000
,
0000
0000
0000
0000
,
0000
0000
0000
0000
,
0000
0000
0000
0000
,
0001
0010
0000
0001
0010
0000
0001
0010
0000
0000
0000
0000
0000
0000
0000
0000
,
0100
1000
0000
0100
1000
0000
0100
1000
0000
0000
0000
0000
0000
0000
0000
0000
,
0010
1000
0000
0010
1000
0000
0010
1000
0000
0000
0000
0000
0000
0000
0000
0000
,
0001
0100
0000
0001
0100
0000
0001
0100
0000
0000
0000
0000
0000
0000
0000
0000
,
0001
1000
0000
0001
1000
0000
0001
0000
0000
0000
0010
0000
0010
0000
0000
0000
,
1000
0001
0000
1000
0001
0000
1000
0000
0000
0000
0010
0000
0010
0000
0000
0000
,
0100
0010
0000
0100
0010
0000
1000
0000
0000
0000
0100
0000
0100
0000
0000
0000
,
0100
0010
0000
0100
0010
0000
0001
0000
0000
0000
0100
0000
0100
0000
0000
0000
,
0002
0000
0023
0000
0130
1000
0010
1000
,
0100
0000
0010
0001
0000
1000
0001
0000
,
2000
0000
3020
0000
0130
0001
0010
0001
,
0100
0000
0010
1000
0000
0001
1000
0000
,
0100
1000
0100
1000
0010
1000
0010
1000
,
0001
0100
0001
0100
0001
0010
0001
0010
,
0001
0100
1000
0100
0001
0100
1000
0100
,
0001
0010
0010
0100
0100
1000
1000
0001
,
1000
0010
1000
0010
0100
0001
0100
0001
,
0010
0001
0010
0001
1000
0100
1000
0100
,
0010
0001
0100
0010
1000
0100
0010
0001
,
1000
0000
0010
0000
1000
0001
1000
0001
1000
0000
0001
0000
0000
0000
0000
0000
,
1001
0000
0000
1000
0100
1000
0100
0000
0020
0000
0032
0000
0203
0000
0310
1000
,
0010
0000
0000
0100
0001
0100
0001
0000
2000
0000
0000
0000
0002
0000
3003
0000
,
2000
0000
0000
3010
0100
0001
1000
0000
,
0002
0000
0023
0000
0230
0000
1300
0001
,
2000
0000
0000
3100
0020
0000
0000
0031
,
2000
0000
0000
0000
3000
0000
1000
0000
0001
0000
1000
0001
1000
0000
0000
0000
,
0010
0000
0100
0000
0001
1000
0000
0000
0100
0000
0010
0000
0001
1000
0000
0000
,
0010
0000
0100
0000
0001
1000
0000
0000
0100
0000
0100
0000
0100
0000
0000
0000
,
1000
0010
0001
0010
1000
0100
0001
0100
,
1000
0010
0200
0000
0301
0010
0200
0000
,
1300
0000
0100
0000
1000
0010
0000
0000
0100
0000
0001
0000
0010
0000
0001
0000
,
1000
0000
0010
0000
0001
0000
0010
0000
1000
0001
1000
0001
1000
0000
0000
0000
,
0010
0000
1000
0000
0001
0100
0000
0000
0001
0000
0010
0000
0100
1000
0000
0000
,
0010
0000
0100
0000
0001
1000
0001
2000
0000
0000
3000
0000
1000
0000
0100
0000
,
0020
0000
0000
0000
0030
0001
0100
0001
,
0100
0010
1000
0010
2000
0000
3100
0010
,
0200
0000
0000
0000
0300
0010
0001
0010
,
0001
1000
0100
1000
0100
1000
0010
0100
,
0001
0000
0100
0010
0000
0010
0100
0000
,
1010
1100
0101
0011
,
0001
0000
0001
0010
0100
0000
0100
1000
,
0010
0000
1000
0001
1000
0000
0010
0100
,
0010
1000
0000
1000
0100
1000
0000
1000
,
0001
0010
0000
0010
0001
0010
0000
0100
,
1000
0100
0000
0100
0010
0001
0000
1000
,
0010
0100
0000
0100
0010
1000
0000
1000
,
0001
0100
0001
0010
0000
0100
1000
0010
,
0100
0001
0010
0100
1000
0000
0001
0100
,
0001
0010
0001
0010
0100
1000
0010
1000
,
0001
0100
0010
0100
1000
0100
0010
0100
,
0001
0010
0100
0010
1000
0010
0100
0010
,
0002
0000
1003
0000
1000
0001
0000
0000
,
0010
0000
0000
0000
1001
0000
0000
0000
1000
0001
1000
0001
1000
0000
0000
0000
,
0100
0010
0000
0110
0000
0010
0001
0010
,
0100
1000
0010
0100
0001
0010
0100
1000
,
0010
0100
0001
0010
0100
1000
0010
0000
,
1000
0100
0001
0100
1000
0000
0010
0000
,
0110
0000
0001
0000
1001
0000
0001
0100
,
0001
0000
0001
0000
0000
0000
1000
0010
2000
0000
0000
0000
3000
0000
0001
0010
,
0002
0000
0013
0100
0000
0100
1000
0001
,
0010
0000
0000
0000
1001
0000
0000
0000
0001
1000
0001
1000
0001
0000
0000
0000
,
0100
0010
0000
0110
0000
0010
1000
0010
,
1000
0100
0001
0100
1000
0010
0001
0010
,
1000
0000
0000
1000
0000
0000
1000
0000
0001
0000
0001
0000
0001
0000
0000
0000
,
1000
0100
1000
0010
0001
0010
1000
0001
,
0100
0010
0100
0010
0000
0010
1000
0010
,
1000
0001
0100
0001
0100
0001
0010
0001
,
0010
0000
0100
0000
0010
0000
0100
0000
1000
0000
0001
0000
1000
0001
1000
0001
,
0000
0000
0000
0000
,
1000
0010
0000
1000
0010
0000
0100
0010
0000
0100
0010
0000
1000
0000
0000
0000
,
0001
0010
0000
0001
0010
0000
0100
0010
0000
0100
0010
0000
0001
0000
0000
0000
,
1000
0100
0000
1000
0100
0000
0010
0100
0000
0010
0100
0000
1000
0000
0000
0000
,
0001
0100
0000
0001
0100
0000
0001
1000
0000
0000
0000
0000
0000
0000
0000
0000
,
1001
0000
0010
0001
0100
1000
0010
0001
,
0100
0000
0010
0100
0000
0000
0010
0100
0010
0000
1000
0000
0001
0000
0100
0000
,
0002
0000
0000
0000
0010
0000
0010
0000
0003
0000
0000
0000
1000
0001
1000
0001
1000
0000
0000
0000
0000
0000
0000
0000
0110
0000
0000
0000
0000
0000
0000
0000
,
0001
0010
0000
0001
0010
0000
0100
1000
0000
0100
1000
0000
0001
0000
0000
0000
,
1000
0010
0000
1000
0010
0000
0100
0001
0000
0100
0001
0000
1000
0000
0000
0000
,
0100
0010
0000
0100
0010
0000
0001
1000
0000
0001
1000
0000
0001
0000
0000
0000
,
0100
0010
0000
0100
0010
0000
1000
0001
0000
1000
0001
0000
1000
0000
0000
0000
,
0010
1000
0000
0010
1000
0000
0001
1000
0000
0001
1000
0000
0100
0000
0100
0000
,
0010
0001
0000
0010
0001
0000
1000
0001
0000
1000
0001
0000
0100
0000
0100
0000
,
0001
1000
0000
0001
1000
0000
0001
1000
0000
0001
1000
0000
0001
0000
0001
0000
,
0010
0100
0000
0010
0100
0000
0010
0100
0000
0000
0000
0000
0110
0000
0000
0000
,
0000
0000
2002
0000
,
0000
0000
0000
0000
0000
0000
0000
0000
3003
0000
0000
0000
0001
1000
0000
0001
,
1000
0000
0000
0000
,
0000
0000
0000
0000
;
#NOTES:
     dance-single:
     :
     Challenge:
     17:
     :
0000
0000
0000
0000
,
0000
0000
0000
0000
,
0000
0000
0000
0000
,
0000
0000
0000
0000
,
0000
0000
0000
0000
,
0001
0010
0000
0100
1000
0000
0001
0010
0000
0000
0000
0000
0000
0000
0000
0000
,
1000
0010
0000
0100
0001
0000
1000
0010
0000
0000
0000
0000
0000
0000
0000
0000
,
1000
0100
0000
0010
0001
0000
0100
0010
0000
0000
0000
0000
0000
0000
0000
0000
,
0001
0100
0000
0010
1000
0000
0100
0010
0000
0000
0000
0000
0000
0000
0000
0000
,
0001
0100
0000
1000
0100
0000
0002
0000
0000
0000
1000
0000
1003
0000
0000
0000
,
1000
0100
0000
0001
0100
0000
2000
0000
0000
0000
0001
0000
3001
0000
0000
0000
,
0001
0010
0000
1000
0010
0000
0002
0000
0000
0000
1000
0000
1003
0000
0000
0000
,
1000
0010
0000
0001
0010
0000
2000
0000
0000
0000
0001
0000
3001
0000
0000
0000
,
1000
0100
0010
0001
1000
0000
0000
0000
0000
0000
1000
0000
0010
0000
0100
0000
,
0001
0010
0001
0100
0010
1000
0010
0000
,
0001
0010
0100
1000
0001
0000
0000
0000
0000
0000
0001
0000
0100
0000
0010
0000
,
1000
0100
1000
0010
0100
0001
0100
0000
,
1001
0000
0001
1000
0100
0002
0000
2003
,
0000
0000
3020
0000
0031
1001
0000
0000
,
0011
0000
0101
0000
1000
0100
0000
1000
,
0010
0000
0100
0001
0100
0000
0001
0010
0001
0000
1000
0100
1000
0000
0010
1000
,
0010
0000
0000
0000
0100
0000
0001
0000
0010
0000
0100
1000
0010
0000
0100
0001
,
0010
0000
0100
0100
1000
1001
0000
0110
,
0000
1000
0010
0001
0010
1000
0000
2002
,
0000
0000
3003
0000
0001
0010
0100
1000
0001
0000
0001
0000
1000
0000
0100
0000
,
0010
0000
0000
0001
0010
1000
0001
0100
1100
1000
1010
0001
0101
0000
0001
0100
,
0010
0000
0000
0000
0000
0000
1000
0000
0010
0000
0001
0000
1000
0000
0100
0000
0202
0000
0000
0000
0303
0000
0001
0010
1000
0000
0000
0000
1000
0000
0010
0000
,
0002
0000
0000
0103
0010
0100
0001
0100
,
0110
0000
1010
0000
1001
0000
0001
1000
,
0200
0000
0000
0000
0300
0000
0100
0010
0002
0000
0000
0000
0003
0000
0100
0010
,
2000
0000
0000
0000
0000
0000
0001
0000
3001
0000
0010
0100
0010
0000
0000
0000
,
0001
0000
0100
0000
1000
0100
0000
0000
0001
0000
0010
0000
1000
0010
0000
0000
,
0001
0000
0100
0000
1000
0100
0000
0000
0010
0000
0010
0000
0110
0000
0000
0000
,
1000
0000
0100
0000
0001
0000
0100
0000
1000
0000
0010
0001
0010
0000
0000
0000
,
1000
0100
1000
0100
0020
0000
0000
0000
0031
0100
0001
0100
0020
0000
0000
0000
,
1030
0000
0010
0100
0001
0100
0000
0000
0001
0000
0011
0000
1000
0000
1100
0000
,
0010
0000
0010
0000
0010
0000
0010
0000
1000
0100
0001
0100
1000
0000
0000
0000
,
0010
0000
1000
0000
0100
0001
0000
0000
1000
0000
0010
0000
0001
0100
0000
0000
,
0010
1000
0010
1000
0001
0100
0001
0200
0000
0000
0300
0000
0010
0000
1000
0000
,
0002
0000
0000
0000
0000
0010
0010
0010
,
0023
0100
0100
0100
0230
0000
1300
1000
,
2000
0000
0000
0000
0000
3010
0010
0010
,
0020
0100
0100
0100
0230
0301
1000
0001
,
1000
0000
0010
0110
0000
0001
0100
0001
,
0200
0000
0320
0100
2030
0000
3002
1000
,
0023
0000
0130
0010
0100
0000
1000
0001
,
1000
0000
0010
0100
0001
0000
0010
0100
,
1000
0000
0010
0100
0001
0000
0010
0000
0100
0000
0010
0000
0001
0000
1000
0000
,
0100
0000
1000
0010
0100
0000
0001
0000
1000
0000
0100
0000
1000
0000
0001
0000
,
0010
0000
0100
1000
0010
0000
0100
0000
1000
0000
0100
0000
0001
0000
0010
0000
,
0100
0000
1000
0010
0100
0000
0001
0000
0010
0000
1000
0000
0010
0000
0001
0000
,
0011
0010
0100
1100
0000
1000
0010
1000
,
1100
0100
0101
0100
1100
0000
1000
0001
,
1000
0010
0001
0010
1000
0001
0100
1000
,
0001
0000
0010
0100
0010
0000
1000
0000
0001
0000
0010
0100
0010
0000
0001
0000
,
1000
0100
0010
0000
0100
0010
0001
0000
0100
0010
1000
0001
0100
0010
1000
0001
,
0200
0000
0010
0000
0010
0310
0000
0000
,
0010
0000
1000
0100
1000
0000
0001
0010
0001
0100
0001
0100
0001
0000
1000
0000
,
0010
0110
0000
1001
0000
1000
0010
0001
,
0010
0000
1000
0100
0010
0000
0001
0100
0010
0000
1000
0100
0010
0000
0001
0100
,
0010
1000
0010
1000
0001
0100
0001
0100
0001
0010
0001
0010
0100
1000
0100
0000
,
0001
0100
1000
0010
0001
1000
1100
0100
,
0101
0001
0011
0010
1010
0000
1000
0010
,
0001
0000
0001
0000
0000
0000
1000
0100
0002
0000
0000
0000
0003
0000
0001
0100
,
2000
0000
0010
3010
0000
0010
0100
0010
,
0100
0000
0001
0010
0001
0000
1000
0100
1000
0010
1000
0010
1000
0000
0001
0000
,
0100
0110
0000
1001
0000
0001
0100
1000
,
0100
0000
0001
0010
0100
0000
1000
0010
0100
0000
0001
0010
0100
0000
1000
0010
,
0100
0001
0000
0010
0001
0000
1000
0100
1000
0010
0100
0000
0010
0000
1000
0001
,
1000
0100
0001
1000
0010
0001
0100
1000
,
1100
0100
0001
0101
0000
0001
0100
0010
,
2000
0001
0001
0001
3002
1000
1000
1000
,
1003
0100
0010
0000
0001
0100
0010
0000
1000
0100
0010
0001
0010
0100
1000
0100
,
0000
0000
0000
0000
,
1000
0100
0000
0001
0100
0000
1000
0010
0000
0001
0010
0000
1000
0100
0010
0001
,
0100
1000
0000
0100
0001
0000
0010
1000
0000
0010
0001
0000
1000
0010
0100
0001
,
0010
1000
0000
0001
0100
0000
1000
0010
0000
0001
1000
0000
0100
0001
1000
0010
,
0100
1000
0000
0100
0001
0000
0010
2000
0000
0000
0000
0000
3010
0000
0001
0000
,
0010
0001
0100
0001
0010
0100
0010
0100
1000
0001
0100
0001
1000
0100
1000
0100
,
0010
0001
0100
0010
1000
0100
0010
0001
0100
0010
0100
0010
1000
0001
1000
0001
,
0100
0000
0010
0000
1000
0000
0001
0000
0100
0000
0010
0000
1000
0001
1000
0001
1000
0000
0000
0000
0000
0000
0000
0000
0110
0000
0000
0000
0000
0000
0000
0000
,
1000
0010
1000
0010
1000
0000
0001
0010
0001
0010
0001
0000
1000
0100
0010
0000
,
0001
0100
0001
0100
0001
0000
1000
0100
1000
0100
1000
0000
0010
0100
0001
0000
,
1000
0100
0010
0100
1000
0000
0001
0010
0100
0010
0001
0000
0100
0001
1000
0000
,
0001
0100
0010
0100
0001
0000
1000
0010
0100
0010
1000
0000
0100
1000
0001
0000
,
1000
0100
0000
1000
0100
0000
0001
0100
0000
0001
0100
0000
1000
0010
0001
0010
,
1000
0010
0000
1000
0010
0000
0001
0010
0000
0001
0010
0000
1000
0100
0010
0001
,
0100
1000
0000
0100
1000
0000
0001
0010
0000
0001
0010
0000
1000
0100
0001
1000
,
0010
0001
0000
0010
0100
0000
0010
1000
0000
0000
0000
0000
0110
0000
0000
0000
,
0000
0000
2002
0000
,
0000
0000
0000
0000
0000
0000
0000
0000
3003
0000
0000
0000
1001
1001
0000
1001
,
1001
0000
0000
0000
,
0000
0000
0000
0000
;
#NOTES:
     dance-double:
     :
     Easy:
     7:
     :
00000000
00000000
00000000
00000000
,
00000000
00000000
00000000
00000000
,
00000000
00000000
00000000
00000000
,
00000000
00000000
00000000
00000000
,
00000000
00000000
00000000
00000000
,
00000001
00000000
00000000
00000011
00000000
00000000
00000000
00000000
,
00000100
00000000
00000000
00000101
00000000
00000000
00000000
00000000
,
00000010
00000000
00000000
00010010
00000000
00000000
00000000
00000000
,
00010000
00000000
00000000
00010100
00000000
00000000
00000000
00000000
,
00100000
00000000
00000000
00010000
00000000
00000000
01000000
00000000
,
00100000
00000000
00000000
10000000
00000000
00000000
01000000
00000000
,
00100000
00000000
00000000
00010000
00000000
00000000
01000000
00000000
,
00001000
00000000
00000000
00010000
00000000
00000000
00001000
00000000
,
00010000
00000000
00000100
00000000
,
00000010
00000001
00000010
00000000
,
00000100
00000000
00010000
00000000
,
00001000
00010000
00001000
00000000
,
00100000
00010000
00100000
00000000
,
01000000
10000000
01000000
00000000
,
10000000
00100000
10000000
00000000
,
00010000
01000000
00010000
00100000
,
00001000
00010000
00001000
00000000
,
00010000
00000100
00010000
00000000
,
00000010
00001000
00000010
00000100
,
00000010
00001000
00001100
00000000
,
00000200
00000300
00002000
00003000
,
00020000
00030000
00200000
00300000
,
01000000
01000000
10000000
00000000
,
00100000
00100000
00010000
00000000
,
00001000
00010000
00000100
00001000
,
00000010
00000000
00000220
00000330
,
00000001
00000000
00000010
00000000
00000100
00001000
00000100
00000000
,
00010000
00001000
00100000
00001000
,
00010000
00000000
00100000
00000000
10000000
00100000
10000000
00000000
,
01000000
00010000
01000000
10000000
,
00010000
00000000
00010000
00000000
00100000
00001000
00100000
00000000
,
00001000
00000000
00010000
00000000
00000010
00010000
00000010
00000000
,
00001000
00000000
00000100
00000000
00000010
00000100
00000010
00000000
,
00000001
00000001
00002002
00003003
,
00000002
00000000
00002003
00000000
,
00003100
00010000
00000100
00000000
00010000
00000000
00000000
00000000
,
00002000
00000000
02003000
00000000
,
03010000
00100000
00010000
00000000
00100000
00000000
00000000
00000000
,
01000000
00000000
10000000
00100000
01000000
00000000
00000000
00000000
,
00010000
00100000
00001000
00000000
,
00010000
00000100
00001000
00000100
,
00000010
00000010
00000010
00000000
,
00000001
00000100
00000001
00000100
,
00000010
00001000
00001010
00000000
,
00000100
00010000
00000100
00010000
,
00001000
00010000
00011000
00000000
,
01000000
00010000
00100000
01000000
,
10000000
10000000
10000000
00000000
,
10100000
00000000
00110000
00000000
,
00002000
00000000
00020000
00000000
,
00000000
00000000
00000000
00000000
,
00033000
00000000
00001000
00000000
00010000
00010000
00000000
00000000
,
00000010
00000000
00001000
00000000
00000100
00000010
00000100
00000000
,
00000010
00000001
00001000
00000000
,
00000001
00000100
00001000
00000100
,
00001000
00010000
00001000
00000000
,
00100000
00010000
01000000
00000000
00100000
00000000
00000000
00000000
,
10000000
10000000
10000000
00000000
,
11000000
00000000
00110000
00000000
,
00100000
00001000
00010000
00000000
,
00001000
00010000
00001000
00000010
,
00000100
00001000
00000100
00000000
00000010
00000000
00000000
00000000
,
00000001
00000100
00001000
00010000
,
00001000
00001000
00010000
00010000
,
00001000
01000000
00010000
00000000
00100000
00000000
00000000
00000000
,
01000000
10000000
01000000
00000000
,
00100000
00010000
00100000
00001000
,
00010000
00001000
00010000
00001000
,
00000000
00000000
00000000
00000000
,
00000010
00000000
00000000
00000001
00000000
00000000
00000010
00000000
,
00000100
00000000
00000000
00001000
00000000
00000000
00000100
00000000
,
00010000
00000000
00000000
00001000
00000000
00000000
00100000
00000000
,
00010000
00000000
01000000
00100000
00000000
00000000
00000000
00000000
,
20000000
30000000
02000000
03000000
,
00020000
00030000
00002000
00003000
,
00022000
00000000
00033000
00000000
,
00000010
00000000
00000000
00000001
00000000
00000000
00001000
00000000
,
00000010
00000000
00000000
00010000
00000000
00000000
00001000
00000000
,
00100000
00000000
00000000
00010000
00000000
00000000
10000000
00000000
,
01000000
00000000
00000000
10000000
00000000
00000000
00010000
00000000
,
01000000
00001000
00010000
00010000
,
00000100
00010000
00001000
00001000
,
00100000
00001000
00010000
00010000
,
00000010
00001000
00000001
00000100
,
00000000
00000000
00000110
00000000
,
00000000
00000000
00000000
00011000
,
00011000
00000000
00000000
00000000
,
00000000
00000000
00000000
00000000
;
#NOTES:
     dance-double:
     :
     Medium:
     11:
     :
00000000
00000000
00000000
00000000
,
00000000
00000000
00000000
00000000
,
00000000
00000000
00000000
00000000
,
00000000
00000000
00000000
00000000
,
00000000
00000000
00000000
00000000
,
10000000
00000000
00000000
01000000
00000000
00000000
10000000
00000000
00000000
00000000
00000000
00000000
00000000
00000000
00000000
00000000
,
00010000
00000000
00000000
00100000
00000000
00000000
00010000
00000000
00000000
00000000
00000000
00000000
00000000
00000000
00000000
00000000
,
00001000
00000000
00000000
00000100
00000000
00000000
00001000
00000000
00000000
00000000
00000000
00000000
00000000
00000000
00000000
00000000
,
00000001
00000000
00000000
00000010
00000000
00000000
00000001
00000000
00000000
00000000
00000000
00000000
00000000
00000000
00000000
00000000
,
00000001
00000000
00000000
00000100
00000000
00000000
00000001
00000000
00000000
00000000
00000010
00000000
00000100
00000000
00000000
00000000
,
00010000
00000000
00000000
00001000
00000000
00000000
00010000
00000000
00000000
00000000
00001000
00000000
01000000
00000000
00000000
00000000
,
00010000
00000000
00000000
00100000
00000000
00000000
00010000
00000000
00000000
00000000
10000000
00000000
01000000
00000000
00000000
00000000
,
00100000
00000000
00000000
01000000
00000000
00000000
00100000
00000000
00000000
00000000
00001000
00000000
00010000
00000000
00000000
00000000
,
00022000
00000000
00000000
00030000
,
02000000
00000000
00000000
03003000
,
00022000
00000000
00000000
00003000
,
00000020
00000000
00000000
00030030
,
00001000
00000000
00000100
00000010
00000100
00000010
00000000
00000002
,
00000000
00000000
00000103
00000000
00001000
00010000
00000000
00000000
,
00002000
00000000
00023000
00000000
01030000
10000000
00000000
00010000
,
00000000
10000000
00100000
10000000
00100000
01000000
00010000
01000000
,
00010000
00000000
00100000
00001000
00010000
00001000
00010000
00000000
,
00011000
00000000
00001000
00010000
00000010
00001000
00000000
00000200
,
00000000
00000301
00000100
00001000
00000100
00000010
00000100
00000000
,
00001000
00000000
00000001
00000100
00000001
00000001
00000000
00000000
,
00000200
00000000
00002300
00000000
00013000
00110000
01100000
10000000
,
02000000
00000000
03020000
00000000
00031000
00000010
00000010
00000000
,
00000001
00000100
00000001
00000100
,
00001000
00001000
00001000
00010000
,
00100000
10000000
01000000
00010000
,
01000000
01000000
01100000
00000000
,
00010000
01000000
00010000
00000000
00100000
00000000
00001000
00000000
,
00010000
00001000
00010000
00000000
00000010
00000000
00001000
00000000
,
00000100
00000010
00000001
00000100
,
00001000
00010000
00001000
00000000
00010000
00001000
00010000
00000000
,
00001000
00010000
01000000
10000000
,
01000000
00010000
00001000
00100000
,
00001000
00010000
00001000
00000010
,
00000100
00001000
00000001
00000020
00000000
00000000
00000030
00000000
,
00000001
00000000
00000100
00000000
00000010
00001000
00000010
00000000
,
00010000
00000000
00001000
00010000
00002000
00000000
00003000
00000000
,
00100000
00000000
00010000
00000000
01000000
00010000
01000000
00000000
,
00100000
00000000
10000000
00100000
20000000
00000000
30000000
00000000
,
01000000
00000000
00100000
00000000
00001000
00010000
00001000
00000000
,
00011000
00000000
00010000
00000000
00010010
00000000
00001000
00000100
,
00001000
00000000
00000001
00000010
00000001
00000000
00001000
00000001
,
00001000
00000000
00000010
00000100
00000020
00000000
00000030
00000000
,
00000100
00000001
00000100
00000001
,
00001000
00000010
00010000
00001000
00010000
00000000
00000000
00000000
,
00001000
01000000
00001000
01000000
,
00010000
00100000
01000000
10000000
01000000
00000000
00000000
00000000
,
10000000
00000000
01000000
00100000
00000000
01000000
00100000
00000000
,
00001000
00010000
00022000
00033000
,
00010000
00000000
00000100
00001000
00000100
00000000
00000010
00000001
,
00000010
00000002
00001000
00002000
,
00000000
00000000
00000000
00000000
00003003
00000000
00000010
00000100
,
00000020
00000000
00000130
00000000
00000100
00000100
00000000
00000000
,
00001000
00010000
00001000
00000000
00010000
00001000
00010000
00000000
,
00100000
01000000
00000000
10010000
00000000
10000000
01000000
00000000
,
00100000
00000000
00001000
00000000
00010000
00001000
00010000
00000010
,
00001000
00000000
00000100
00000010
00000000
00000001
00001000
00000000
,
00000001
00000100
00000010
00001000
00000010
00000000
00000200
00000000
,
00002300
00000000
00023000
00000000
00130000
00000000
10000000
01000000
,
10000000
10000000
00000000
00010000
00020000
00000000
00000000
00130000
,
00200000
00000000
00301000
00010000
00000000
00010000
00001000
00010000
,
00000100
00000000
00000110
00000000
00001000
00000100
00000010
00000000
,
00000001
00000100
00000000
00001001
00000000
00000010
00000100
00000000
,
00001000
00000000
00010000
00000000
00100000
01000000
00100000
01000000
,
10000000
00000000
00000000
01000000
00000000
00000000
01000000
00000000
00000000
00010000
00000000
00000000
10000000
00000000
10000000
00000000
,
01000000
00100000
01000000
00100000
00001000
00010000
00001000
00010000
,
00000100
00001000
00000010
00001000
00000000
00000100
00000010
00000100
,
00000010
00000001
00000002
00001003
,
00002000
00000100
00000200
00000000
,
00003300
00000000
00000000
00000000
,
00010000
00000000
00000000
00001000
00000000
00000000
00010000
00000000
00000000
00001000
00000000
00000000
00010000
00000000
00000000
00000000
,
00001000
00000000
00000000
01000000
00000000
00000000
00001000
00000000
00000000
01000000
00000000
00000000
00001000
00000000
00000000
00000000
,
00100000
00000000
00000000
00010000
00000000
00000000
00100000
00000000
00000000
00010000
00000000
00000000
00100000
00000000
00000000
00000000
,
01000000
00000000
00000000
00100000
00000000
00000000
02200000
00000000
00000000
00000000
00000000
00000000
03300000
00000000
00000000
00000000
,
20000000
31000000
02000000
03010000
,
00020000
00031000
00002000
00003010
,
00000001
00000000
00000002
00002000
00000000
00000000
00000000
00000000
00003003
00000000
00000000
00000000
00000000
00000000
00000000
00000000
,
00000001
00000000
00000000
00000010
00000000
00000000
00000100
00000000
00000000
00001000
00000000
00000000
00000100
00000000
00000000
00000000
,
00001000
00000000
00000000
00000010
00000000
00000000
00010000
00000000
00000000
00001000
00000000
00000000
00010000
00000000
00000000
00000000
,
00001000
00000000
00000000
00100000
00000000
00000000
00010000
00000000
00000000
01000000
00000000
00000000
00010000
00000000
00000000
00000000
,
10000000
00000000
00000000
00100000
00000000
00000000
10000000
00000000
00000000
01000000
00000000
00000000
10000000
00000000
00000000
00000000
,
01000000
00000000
00000000
00100000
00000000
00000000
01000000
00000000
00000000
00100000
00000000
00000000
00001000
00000000
00001000
00000000
,
00010000
00000000
00000000
00000010
00000000
00000000
00010000
00000000
00000000
00000010
00000000
00000000
00001000
00000000
00001000
00000000
,
00000100
00000000
00000000
00000010
00000000
00000000
00000001
00000000
00000000
00000100
00000000
00000000
00001000
00000000
00010000
00000000
,
00001000
00010000
00000000
00001000
00010000
00000000
00001000
00010000
00000000
00000000
00000000
00000000
00011000
00000000
00000000
00000000
,
00000000
00000000
00022000
00000000
,
00000000
00000000
00000000
00000000
00000000
00000000
00000000
00000000
00033000
00000000
00000000
00000000
00010000
00001000
00000000
00010000
,
00001000
00000000
00000000
00000000
,
00000000
00000000
00000000
00000000
;
#NOTES:
     dance-double:
     :
     Hard:
     14:
     :
00000000
00000000
00000000
00000000
,
00000000
00000000
00000000
00000000
,
00000000
00000000
00000000
00000000
,
00000000
00000000
00000000
00000000
,
00000000
00000000
00000000
00000000
,
00000001
00000100
00000000
00000001
00000100
00000000
00000001
00000100
00000000
00000000
00000000
00000000
00000000
00000000
00000000
00000000
,
00001000
00000100
00000000
00001000
00000100
00000000
00001000
00000100
00000000
00000000
00000000
00000000
00000000
00000000
00000000
00000000
,
00010000
00100000
00000000
00010000
00100000
00000000
00010000
00100000
00000000
00000000
00000000
00000000
00000000
00000000
00000000
00000000
,
10000000
01000000
00000000
10000000
01000000
00000000
10000000
01000000
00000000
00000000
00000000
00000000
00000000
00000000
00000000
00000000
,
00010000
10000000
00000000
00010000
10000000
00000000
01000000
00000000
00100000
00000000
00010000
00000000
00100000
00000000
00000000
00000000
,
00001000
00010000
00000000
00001000
00010000
00000000
00000100
00000000
00001000
00000000
00000010
00000000
00000100
00000000
00000000
00000000
,
00000001
00001000
00000000
00000001
00001000
00000000
00000100
00000000
00000010
00000000
00000001
00000000
00000010
00000000
00000000
00000000
,
00000100
00010000
00000000
00000100
00010000
00000000
00001000
00000000
00010000
00000000
00001000
00000000
01000000
00000000
00000000
00000000
,
00020000
00000000
00130000
00000000
01000000
10000000
00100000
00000000
,
01000000
00000000
00010000
00100000
00000000
00001000
00100000
00000000
,
00002000
00000000
00013000
00000000
00000100
00001000
00000010
00000000
,
00000100
00000000
00000001
00001000
00000000
00000010
00000100
00000000
,
00000001
00000100
00000001
00000100
00000001
00000010
00000100
00000010
,
00000000
00000001
00001000
00000100
00001000
00000010
00010000
00001000
,
00010000
01000000
00100000
00000000
00010000
01000000
00100000
00000000
,
10000000
01000000
00100000
01000000
00100000
00001000
00010000
00001000
,
00010000
00000000
00000010
00001000
00000100
00000010
00000001
00000010
,
00000100
00000000
00001000
00000100
00010000
00001000
01000000
00010000
,
00000000
00100000
00010000
01000000
00100000
10000000
01000000
00100000
,
00010000
00000000
00100000
00000000
00001000
00000000
00010000
00001000
00010000
00000000
00010000
00000000
00000000
00000000
00000000
00000000
,
00011000
00000000
00000000
00000100
00001000
00000100
00001000
00000000
00000002
00000000
00000023
00000000
00002030
00000000
00023000
00000000
,
01030000
00000000
00000000
10000000
00100000
10000000
00100000
00000000
02000000
00000000
00000000
00000000
00200000
00000000
03300000
00000000
,
20000000
00000000
00000000
30010000
01000000
00010000
01000000
00000000
,
00002000
00000000
00003200
00000000
00000301
00000000
00001000
00000100
,
00000010
00000000
00000100
00000010
00000001
00000000
00000100
00001000
,
00000100
00000000
00000000
00000000
00001000
00000000
00010000
00000000
00011000
00000000
00001000
00010000
00001000
00000000
00000000
00000000
,
01000000
00000000
00010000
00000000
01000000
00010000
00000000
00000000
00100000
00000000
00010000
00000000
00100000
00010000
00000000
00000000
,
10000000
00000000
01000000
00000000
10000000
01000000
00000000
00000000
00100000
00000000
00100000
00000000
00100000
00000000
00000000
00000000
,
00010000
01000000
00010000
01000000
00001000
00010000
00001000
00010000
,
00000010
00001000
00000200
00000000
00000310
00000001
00000200
00000000
,
00000310
00000100
00001000
00000100
00000010
00010000
00001000
00100000
,
01000000
00000000
00010000
00000000
01000000
00000000
00100000
00000000
00010000
10000000
00010000
10000000
00010000
00000000
00000000
00000000
,
01000000
00000000
00100000
00000000
01000000
00100000
00000000
00000000
00010000
00000000
00001000
00000000
00010000
00001000
00000000
00000000
,
00000010
00000000
00000100
00000000
00001000
00000000
00000001
00002000
00000000
00000000
00000000
00000000
00003000
00000000
00000000
00000000
,
00000002
00000100
00001000
00000103
,
00000010
00000100
00001000
00010000
00200000
00000000
00300000
00000000
,
20000000
01000000
00010000
31000000
,
00100000
01000000
00010000
00001000
00000010
00000001
00001000
00000001
,
00001000
00000000
00000010
00000100
00000000
00001000
00010000
00000000
,
00110000
00000000
10100000
00000000
10010000
00000000
10000000
01000000
,
00010000
00000000
01000000
00010000
00001000
00000000
00010000
00001000
,
00000010
00000000
00000001
00001000
00000001
00000000
00001001
00000000
,
00000100
00000001
00000100
00000001
00000010
00000001
00000010
00000001
,
00001000
00000100
00010000
00001000
00010000
00000000
00011000
00000000
,
01000000
10000000
01000000
10000000
00100000
10000000
00100000
10000000
,
00010000
00100000
00001000
00010000
00001000
00000000
00011000
00000000
,
00001000
00000000
00000010
00000001
00000000
00000001
00000010
00000000
,
00000100
00001000
00000010
00010000
00001000
00000000
00100000
00010000
,
01000000
00100000
01000000
00100000
10000000
01000000
10000000
01000000
,
00100000
00010000
00100000
00010000
00001000
00000100
00001000
00000100
,
00000010
00000001
00000010
00000001
00001000
00000001
00001000
00000001
,
00001001
00000000
00000100
00000000
00000010
00000010
00000000
00000000
,
00001000
00000000
00000100
00000000
00010000
00000000
00000000
00000000
00001000
00010000
00001000
00010000
00001000
00000000
00000000
00000000
,
00010000
01000000
00000000
01100000
00000000
00010000
10000000
00000000
,
00100000
10000000
01000000
00000000
00100000
00010000
01000000
00000000
,
00100000
00010000
00100000
00010000
00001000
00000100
00001000
00000000
,
00000100
00000001
00000010
00001000
00000010
00000000
00000011
00000000
,
00000110
00000000
00010100
00000000
00011000
00000000
00010000
00001000
,
01000000
00000000
01000000
00000000
00000000
00000000
00100000
10000000
00200000
00000000
00000000
00000000
00300000
00000000
01000000
00010000
,
02000000
00000000
03100000
00100000
00000000
00100000
10000000
01000000
,
00010000
00000000
00000000
00000000
00011000
00000000
00000000
00000000
00010000
00001000
00010000
00001000
00010000
00000000
00000000
00000000
,
00001000
00000100
00000000
00000110
00000000
00001000
00000001
00001000
,
00000001
00000100
00000001
00000100
00000010
00001000
00000010
00001000
,
00010000
00000000
00000000
00010000
00000000
00000000
00010000
00000000
01000000
00000000
00100000
00000000
01000000
00000000
00000000
00000000
,
00100000
10000000
00100000
10000000
01000000
00100000
01000000
00010000
,
00001000
00010000
00001000
00010000
00000000
00000010
00001000
00000010
,
00001000
00000001
00000010
00000001
00000010
00000100
00001000
00000100
,
00010000
00001000
00010000
00001000
00100000
00010000
01000000
10000000
,
00000000
00000000
00000000
00000000
,
00100000
10000000
00000000
00100000
10000000
00000000
01000000
10000000
00000000
01000000
10000000
00000000
01000000
00000000
00000000
00000000
,
00100000
00010000
00000000
00100000
00010000
00000000
00100000
00001000
00000000
00100000
00001000
00000000
00010000
00000000
00000000
00000000
,
00000100
00001000
00000000
00000100
00001000
00000000
00000010
00001000
00000000
00000010
00001000
00000000
00000001
00000000
00000000
00000000
,
00000100
00000001
00000000
00000100
00000001
00000000
00001000
00000001
00000000
00000000
00000000
00000000
00000000
00000000
00000000
00000000
,
00001001
00000000
00000100
00000010
00001000
00000100
00010000
00001000
,
00100000
00000000
00010000
10000000
00000000
00000000
00100000
01000000
00100000
00000000
10000000
00000000
01000000
00000000
00100000
00000000
,
00001000
00000000
00010000
00002000
00000000
00000000
00010000
00010000
00013000
00000000
00000000
00000000
00011000
00000000
00000000
00000000
,
00000100
00001000
00000000
00000100
00001000
00000000
00000001
00000010
00000000
00000001
00000010
00000000
00000001
00000000
00000000
00000000
,
00000100
00000010
00000000
00000100
00000010
00000000
00010000
00000010
00000000
00010000
00000010
00000000
00010000
00000000
00000000
00000000
,
00001000
01000000
00000000
00001000
01000000
00000000
00010000
01000000
00000000
00010000
01000000
00000000
00010000
00000000
00000000
00000000
,
10000000
01000000
00000000
10000000
01000000
00000000
00100000
00010000
00000000
00100000
00010000
00000000
10000000
00000000
00000000
00000000
,
00100000
10000000
00000000
00100000
10000000
00000000
00010000
00100000
00000000
00010000
00100000
00000000
00001000
00000000
00001000
00000000
,
00010000
00000100
00000000
00010000
00000100
00000000
00001000
00000100
00000000
00001000
00000100
00000000
00000010
00000000
00000010
00000000
,
00000001
00001000
00000000
00000001
00001000
00000000
00000001
00001000
00000000
00000001
00001000
00000000
00000001
00000000
00000100
00000000
,
00001000
00010000
00000000
00001000
00010000
00000000
00001000
00010000
00000000
00000000
00000000
00000000
01100000
00000000
00000000
00000000
,
00000000
00000000
20020000
00000000
,
00000000
00000000
00000000
00000000
00000000
00000000
00000000
00000000
30030000
00000000
00000000
00000000
00010000
10000000
00000000
00010000
,
10000000
00000000
00000000
00000000
,
00000000
00000000
00000000
00000000
;
#NOTES:
     dance-double:
     :
     Challenge:
     17:
     :
00000000
00000000
00000000
00000000
,
00000000
00000000
00000000
00000000
,
00000000
00000000
00000000
00000000
,
00000000
00000000
00000000
00000000
,
00000000
00000000
00000000
00000000
,
10000000
01000000
00000000
00010000
01000000
00000000
10000000
00010000
00000000
00000000
00000000
00000000
00000000
00000000
00000000
00000000
,
01000000
00100000
00000000
00010000
00100000
00000000
00010000
00001000
00000000
00000000
00000000
00000000
00000000
00000000
00000000
00000000
,
00010000
00001000
00000000
00000010
00001000
00000000
00000010
00000100
00000000
00000000
00000000
00000000
00000000
00000000
00000000
00000000
,
00001000
00000100
00000000
00000001
00000100
00000000
00001000
00000001
00000000
00000000
00000000
00000000
00000000
00000000
00000000
00000000
,
00000001
00000100
00000000
00000001
00000100
00000000
00002000
00000000
00000000
00000000
00010000
00000000
00013000
00000000
00000000
00000000
,
00010000
00100000
00000000
00010000
00100000
00000000
20000000
00000000
00000000
00000000
00010000
00000000
30010000
00000000
00000000
00000000
,
10000000
01000000
00000000
10000000
01000000
00000000
00020000
00000000
00000000
00000000
00001000
00000000
00031000
00000000
00000000
00000000
,
00001000
00000010
00000000
00001000
00000010
00000000
00000002
00000000
00000000
00000000
00001000
00000000
00001003
00000000
00000000
00000000
,
00000001
00000010
00000100
00001000
00000100
00000000
00000000
00000000
00000000
00000000
00001000
00000000
00000100
00000000
00010000
00000000
,
00001000
01000000
00010000
00100000
01000000
10000000
00100000
00000000
,
10000000
00100000
01000000
00010000
01000000
00000000
00000000
00000000
00000000
00000000
00100000
00000000
01000000
00000000
00010000
00000000
,
00100000
00001000
00010000
00000010
00001000
00000100
00000010
00000000
,
00001001
00000000
00000001
00000001
00000100
00002000
00000000
00023000
,
00000000
00000000
00100000
00000000
00031000
01000000
00000000
00000000
,
10100000
00000000
11000000
00000000
10000000
01000000
00000000
00010000
,
00001000
00000010
00000010
00000001
00000001
00001000
00001000
00000100
,
00000100
00000000
00000000
00000000
00000001
00000000
00000100
00000000
00001000
00000000
00000010
00000000
00000100
00001000
00000100
00001000
,
00000100
00000000
00010000
01000000
10000000
01000000
00000000
01100000
,
00000000
10000000
01000000
00100000
00010000
00100000
00010000
00001000
,
00000200
00000000
00000000
00000000
00000310
00000001
00001000
00000100
00000010
00000000
00000010
00000000
00000001
00000000
00001000
00000000
,
00000001
00000000
00000001
00000010
00001000
00001000
00010000
00010000
01000000
10000000
10100000
00010000
00110000
00000000
10000000
01000000
,
00010000
00000000
00000000
00000000
00010000
00000000
00001000
00000000
00000010
00000000
00000100
00000000
00000001
00000000
00000100
00000000
00002000
00000000
00000000
00000000
00003000
00000000
00000001
00000100
00001000
00000000
00000000
00000000
00010000
00000000
00001000
00000000
,
00020000
01000000
00032000
00000100
,
00013000
01000000
00100000
00001000
00010000
01000000
10000000
01000000
,
00020000
00000000
00000000
00000000
00031000
00000000
00000100
00000001
00000020
00000000
00000000
00000000
00010030
00000000
00100000
01000000
,
20000000
00000000
00000000
00000000
00000000
00000000
00010000
00000000
30010000
00000000
00010000
10000000
00010000
00000000
00000000
00000000
,
10000000
00000000
01000000
00000000
00100000
00010000
00000000
00000000
00001000
00000000
00000100
00000000
00000010
00000001
00000000
00000000
,
00000001
00000000
00000100
00000000
00000010
00001000
00000000
00000000
00010000
00000000
01000000
00000000
01010000
00000000
00000000
00000000
,
00001000
00000000
00010000
00000000
00100000
00000000
01000000
00000000
00001000
00000000
00010000
00100000
01000000
00000000
00000000
00000000
,
00010000
01000000
00010000
01000000
00200000
00000000
00000000
00000000
10300000
01000000
10000000
01000000
00200000
00000000
00000000
00000000
,
00310000
00000000
01000000
00001000
00010000
00001000
00000000
00000000
00010000
00000000
00010000
00000000
00000010
00000000
00000010
00000000
,
00000100
00000000
00000100
00000000
00000100
00000000
00000100
00000000
00000001
00001000
00000001
00001000
00000001
00000000
00000000
00000000
,
00000001
00000000
00000010
00000000
00001000
00010000
00000000
00000000
01000000
00000000
10000000
00000000
00100000
00010000
00000000
00000000
,
00001000
00010000
00001000
00100000
00001000
00010000
00000010
00020000
00000000
00000000
00000000
00000000
00030100
00000000
00000010
00000000
,
00000002
00000100
00001000
00000103
,
00000001
00000100
00001000
00010000
00200000
00000000
01300000
00000000
,
20000000
01000000
00010000
31000000
,
10000000
01000000
00010000
00001000
00000010
00000001
00001000
00000001
,
00001000
00000000
00010000
00001000
00000000
00000001
00000010
00000000
,
00000011
00000000
00001100
00000000
00110000
00000000
11000000
10000000
,
00200000
00000000
01300000
00010000
01000000
00000000
00010000
00100000
,
00010000
00010000
00100000
00010000
00001000
00001000
00000100
00000010
,
00000001
00000000
00000100
00000010
00001000
00000000
00000001
00000100
00000010
00000000
00001000
00000000
00000100
00000000
00010000
00000000
,
00001000
00000000
00100000
00010000
01000000
00000000
00010000
00100000
01000000
00000000
10000000
00000000
01000000
00000000
00010000
00000000
,
01000000
00000000
00100000
00010000
00100000
00000000
00001000
00010000
00001000
00000000
00010000
00000000
00000010
00000000
00001000
00000000
,
00000100
00000000
00000010
00000001
00001000
00000000
00000100
00001000
00000001
00000000
00000100
00000000
00001000
00000000
00000100
00000000
,
00000110
00000000
00000010
00000000
00010000
00000000
00011000
00000000
00000000
00000000
00001000
01000000
00010000
00000000
00100000
00000000
,
01100000
01000000
11000000
10000000
10010000
00000000
00010000
00100000
,
00001000
00000010
00001000
00010000
01000000
00010000
00000100
00000010
,
00000001
00000100
00000001
00000100
00000001
00000000
00000100
00000000
00001000
00010000
00001000
00010000
00001000
00000000
00010000
00000000
,
00100000
10000000
00100000
00000000
01000000
00010000
01000000
00000000
00001000
00100000
00010000
01000000
00001000
00100000
00010000
01000000
,
00002000
00000000
00010000
00000000
00010000
00013000
00000000
00000000
,
00001000
00000000
00000000
00000000
00011000
00000000
00000000
00000000
00000010
00001000
00000001
00000100
00000001
00000000
00000100
00000000
,
00001000
00010000
00100000
00000000
01000000
00000000
01100000
00000000
00000000
00000000
00100000
10000000
00100000
00000000
10000000
00000000
,
01000000
00000000
00100000
00010000
00100000
00000000
00001000
00010000
00001000
00000000
00010000
00000100
00010000
00000000
00000100
00000000
,
00001000
00000010
00001000
00000010
00000100
00000010
00000100
00000001
00000010
00000100
00001000
00000100
00000010
00000000
00000000
00000000
,
00000001
00000001
00000100
00000100
00001000
00000000
01100000
00000000
,
20000000
00000000
30200000
00000000
00320000
00000000
00031000
00000100
,
00001000
00001000
00000000
00010000
01000000
00000000
00010000
00001000
,
00000020
00000000
00000001
00000031
00000000
00000001
00001000
00000001
,
00001000
00000000
00000000
00000000
00000110
00000000
00000000
00000000
00001000
00000100
00010000
00001000
00010000
00000000
00001000
00000000
,
01000000
00000000
10000000
00000000
00000000
00000000
01100000
00000000
00000000
00000000
10000000
00100000
01000000
00000000
00010000
00000000
,
10000000
00000000
00010000
01000000
00010000
00000000
00100000
00001000
00100000
00000000
00000010
00010000
00000010
00000000
00001000
00000000
,
00000100
00000001
00000000
00000100
00001000
00000000
00000001
00000000
00000100
00000010
00001000
00000000
00000100
00010000
00001000
00000000
,
00100000
00100000
10000000
10000000
00100000
00010000
10000000
01000000
,
00010000
00010000
00001000
00000110
00000000
00000010
00000001
00000100
,
00002000
00010000
00010000
00010000
00023000
00100000
00100000
00100000
,
00130000
00000000
10000000
01000000
00100000
00000000
00010000
01000000
00100000
00010000
00100000
00010000
00001000
00010000
00001000
00010000
,
00000000
00000000
00000000
00000000
,
00001000
00000010
00000000
00001000
00000010
00000000
00001000
00010000
00000000
00001000
00010000
00000000
00001000
00000100
00001000
00000000
,
00010000
00100000
00000000
00010000
00100000
00000000
00010000
00001000
00000000
00010000
00001000
00000000
00010000
01000000
00010000
00000000
,
00001000
00000100
00000000
00001000
00000100
00000000
00001000
00010000
00000000
00001000
00010000
00000000
00001000
00000010
00001000
00000000
,
00010000
01000000
00000000
00010000
01000000
00000000
00010000
00002000
00000000
00000000
00000000
00000000
00013000
00000000
00001000
00000000
,
00010000
00000000
00010000
01000000
10000000
00100000
01000000
00010000
00001000
00000000
00001000
00000010
00000100
00001000
00000100
00000001
,
00000010
00001000
00010000
00000000
00010000
01000000
10000000
00100000
01000000
00100000
10000000
00100000
01000000
00010000
00001000
00000010
,
00000100
00000000
00000001
00000010
00000100
00001000
00010000
00100000
01000000
00000000
00000000
00000000
01100000
00000000
00000000
00000000
,
10000000
01000000
10000000
01000000
10000000
00000000
00010000
00100000
00010000
00100000
00010000
00000000
01000000
00000000
00001000
00000000
,
00010000
00001000
00010000
00001000
00010000
00000000
00000010
00001000
00000010
00001000
00000010
00000000
00000100
00000000
00000001
00000000
,
00000010
00000100
00001000
00000100
00001000
00000000
00000001
00000100
00000010
00000100
00000010
00000000
00010000
00000000
00001000
00000000
,
00100000
00001000
00010000
00001000
00010000
00000000
00001000
01000000
00010000
01000000
00010000
00000000
10000000
00000000
00100000
00000000
,
10000000
01000000
00000000
00100000
00010000
00000000
01000000
00100000
00000000
01000000
00100000
00000000
00010000
00001000
00010000
00000000
,
00000100
00001000
00000000
00000001
00000010
00000000
00000100
00000010
00000000
00000100
00000010
00000000
00001000
00010000
00001000
00000000
,
00010000
00100000
00000000
10000000
01000000
00000000
00010000
01000000
00000000
00100000
00001000
00000000
00010000
00000100
00001000
00000100
,
00000010
00000001
00000000
00000100
00001000
00010000
00001000
00010000
00000000
00000000
00000000
00000000
00011000
00000000
00000000
00000000
,
00000000
00000000
00022000
00000000
,
00000000
00000000
00000000
00000000
00000000
00000000
00000000
00000000
00033000
00000000
00000000
00000000
00011000
00011000
00000000
00011000
,
00011000
00000000
00000000
00000000
,
00000000
00000000
00000000
00000000
;
