
//----- song ID: skyc -----//
#TITLE:スカイクラッドの観測者;
#ARTIST:いとうかなこ;
#TITLETRANSLIT:Skyclad no kansokusha;
#ARTISTTRANSLIT:Kanako Ito;
#SOURCE:ゲーム「STEINS\;GATE」;
#BANNER:Skyclad no kansokusha.png;
#BACKGROUND:Skyclad no kansokusha-bg.png;
#CDTITLE:./CDTitles/DDR A20 PLUS.png;
#MUSIC:Skyclad no kansokusha.ogg;
#SAMPLESTART:63.09;
#SAMPLELENGTH:15;
#BPMS:0=167;
#NOTES:
     dance-single:
     :
     Beginner:
     3:
     :
0000
0000
0000
0000
,
0000
0000
0000
0000
,
0000
0000
0000
0000
,
0000
0000
0000
0000
,
0000
0000
0000
0000
,
0000
0000
0000
0000
,
0000
0000
0000
0000
,
0000
0000
0000
0000
,
0000
0000
0000
0000
,
0000
0000
0000
0000
,
0000
0000
0000
0000
,
0001
0000
0010
0000
,
0001
0000
1000
0000
,
0100
0000
1000
0000
,
0010
0000
0100
0000
,
0001
0000
0100
0000
,
0001
0000
1000
0000
,
0020
0000
0000
0000
,
0000
0000
0030
0000
,
0100
0000
0000
0000
,
0001
0000
0000
0000
,
1000
0000
0000
0000
,
0001
0000
0000
0000
,
0010
0000
0010
0000
,
0100
0000
0010
0000
,
0001
0000
1000
0000
,
2002
0000
3003
0000
,
0020
0000
0030
0000
,
0002
0000
0003
0000
,
0200
0000
0300
0000
,
2000
0000
3000
0000
,
0020
0000
0030
0000
,
2000
0000
3000
0000
,
0200
0000
0300
0000
,
0002
0000
0003
0000
,
1000
0000
0010
0000
,
1000
0000
0001
0000
,
0100
0000
0001
0000
,
0010
0000
0100
0000
,
1000
1000
1000
0000
,
0020
0000
0030
0000
,
0001
0001
0001
0000
,
0020
0000
0030
0000
,
0000
0000
0000
0000
,
0001
0000
1000
0000
,
0010
0010
0010
0000
,
0100
0000
0001
0000
,
1000
1000
1000
0000
,
0100
0000
0010
0000
,
0001
0000
1000
0000
,
1001
0000
0000
0000
,
1001
0000
0000
0000
,
0010
0000
1000
0000
,
0001
0001
0001
0000
,
0100
0000
0010
0000
,
0100
0100
0100
0000
,
0001
0000
0010
0000
,
1000
0000
0100
0000
,
0001
0001
0001
0000
,
1000
1000
1000
0000
,
0010
0000
0100
0000
,
2002
0000
3003
0000
,
0100
0000
0010
0000
,
0100
0000
0000
0000
,
1000
0000
0100
0000
,
1000
0000
0010
0000
,
0100
0000
0001
0000
,
0010
0000
0001
0000
,
1000
0000
0001
0000
,
0100
0000
0010
0000
,
1000
0000
0100
0000
,
0010
0000
0001
0000
,
0100
0100
0100
0000
,
0010
0000
1000
0000
,
0100
0100
0100
0000
,
2002
0000
0000
0000
,
0000
0000
0000
0000
,
0000
0000
0000
0000
,
0000
0000
0000
0000
,
3003
0000
0000
0000
,
0000
0000
0000
0000
;
#NOTES:
     dance-single:
     :
     Easy:
     6:
     :
0000
0000
0000
0000
,
0000
0000
0000
0000
,
0000
0000
0000
0000
,
0000
0000
0000
0000
,
0000
0000
0000
0000
,
0000
0000
0000
0000
,
0000
0000
0000
0000
,
0000
0000
0000
0000
,
0000
0000
0000
0000
,
0000
0000
0000
0000
,
0000
0000
0000
0000
,
1000
0100
0010
0000
,
0001
0000
0100
0000
,
0010
1000
0100
0000
,
0010
0000
0100
0000
,
1000
0100
0010
0000
,
0001
0010
0100
0000
,
0020
0000
0000
0000
,
0000
0000
0000
0030
,
0001
0000
1000
0000
,
0010
0010
1000
1000
,
0001
0000
0010
0000
,
0100
0010
0100
0000
,
1000
0010
0100
0001
,
0010
0001
1000
0100
,
1000
0000
0001
0000
,
0220
0000
0330
0000
,
0001
0001
1000
0100
,
0010
0100
0010
0000
,
1000
1000
0001
0100
,
0010
0100
0010
0000
,
0001
0001
1000
0010
,
0100
0010
0100
0000
,
1000
1000
0001
0010
,
0100
0010
0100
0000
,
0001
1000
0100
0100
,
1000
0010
1000
0000
,
1000
0001
0100
0100
,
0001
0010
0001
0000
,
0100
0001
0100
0010
,
2000
3000
0200
0300
,
1000
1000
0001
0001
,
0100
0100
0010
0010
,
2002
0000
0000
3003
,
0010
0100
0001
0001
,
1000
0001
1001
0000
,
0001
0010
0001
0100
,
0010
1000
0100
1000
,
0001
0001
0010
0010
,
0001
1000
0100
0010
,
1001
0000
0110
0000
,
1000
0010
1000
0001
,
0100
0001
0010
0010
,
0001
1000
1001
0000
,
1000
0100
1000
0001
,
0010
0001
0100
0100
,
0001
1000
0010
0010
,
0100
0100
0001
0001
,
1000
0010
1000
0001
,
0100
0001
0010
0000
,
0001
0010
0100
1000
,
2002
0000
0000
3003
,
0010
0000
0100
0000
,
0001
0100
0010
1000
,
0001
0001
1000
1000
,
0100
0100
0010
0010
,
0001
0100
0001
0010
,
0001
0100
0001
0010
,
1000
1000
0010
0010
,
0100
0100
0001
0001
,
1000
0010
1000
0100
,
1000
0010
0100
0100
,
0001
0010
0001
0001
,
1000
0100
0010
0010
,
0001
1000
0001
0001
,
2002
0000
0000
0000
,
0000
0000
0000
0000
,
0000
0000
0000
0000
,
0000
0000
0000
0000
,
3003
0000
0000
0000
,
0000
0000
0000
0000
;
#NOTES:
     dance-single:
     :
     Medium:
     9:
     :
0000
0000
0000
0000
,
0000
0000
0000
0000
,
0000
0000
0000
0000
,
0000
0000
0000
0000
,
0000
0000
0000
0000
,
0000
0000
0000
0000
,
0000
0000
0000
0000
,
0000
0000
0000
0000
,
0000
0000
0000
0000
,
0000
0000
0000
0000
,
0000
0000
0000
0000
,
0100
1000
0000
0000
0010
0000
0100
0001
,
0000
0000
0010
0000
0001
1000
0001
0000
,
0010
0000
0100
1000
0000
0000
0010
0000
,
0100
0001
0000
0000
0010
0000
0100
0000
,
1000
0000
0010
0000
0100
0001
0100
0000
,
0001
0000
1000
0000
0010
1000
0020
0000
,
0200
0000
0000
0000
,
0000
0000
0000
0330
,
1001
0000
0010
1000
0000
0020
0000
0130
,
0000
0002
0000
0013
0000
0100
0010
0000
,
1001
0000
1000
0010
0000
1000
0000
0001
,
0010
0110
0000
0000
,
1001
0000
0010
0001
0000
0200
0000
0310
,
0000
2000
0000
3100
0000
0010
0001
0000
,
1000
0000
0010
0100
0000
0001
1000
0010
,
0000
1001
0001
0100
,
0010
0010
1000
0100
,
0010
0100
0010
0000
0100
0010
0100
0000
,
0010
0001
1000
0010
,
0100
0001
0100
0000
0001
0100
0001
0000
,
1000
0100
0010
0001
,
0020
0031
2000
3010
,
0010
1000
0010
0000
0100
0001
0100
0000
,
0010
0100
0010
0000
1000
0000
0100
0000
,
0010
0000
0001
0000
0100
0010
0100
0000
,
0001
0010
0001
0000
1000
0010
1000
0000
,
0001
0010
0100
1000
,
0020
0130
0002
0013
,
0100
0000
1000
0010
0000
0010
1000
0000
,
0200
0310
0002
1003
,
0010
0010
1000
0100
0000
1000
0010
0000
,
0100
0100
0001
0010
0000
0001
0100
0000
,
0220
0000
0000
0330
,
0001
0000
0100
0000
0001
0010
0001
0000
,
1000
0000
0100
0000
1000
0010
1000
0000
,
0001
0010
0100
0010
,
0001
1000
0100
0000
1000
0010
0100
0000
,
0010
0000
1000
0000
0100
0010
0000
0002
,
0000
2003
0000
3100
0000
0010
0000
0100
,
1000
1001
0100
0110
,
1000
0100
1000
0100
0010
0000
0001
0000
,
1000
0000
0010
0000
1000
0100
1000
0000
,
0001
0000
0100
0000
0001
0010
0001
0000
,
1000
0100
0010
0100
,
1000
0001
0010
0000
0001
0100
0010
0000
,
1000
0000
0001
0010
0000
1000
0010
0000
,
0200
0302
2003
3020
,
0130
0010
1000
0100
,
0010
0001
0010
0001
0100
0000
0110
0000
,
0001
0000
0100
0010
0000
0010
0100
0000
,
0002
0010
1000
1003
,
0010
0000
0100
0001
0000
0010
0001
0010
,
0000
0100
0010
1000
,
0001
1001
1000
1001
,
0100
0110
0010
0110
,
1000
0000
0100
0000
0010
0100
0010
0000
,
0001
0000
0010
0000
0100
0010
0100
0000
,
0001
1001
1000
1001
,
0100
0000
0010
0000
0001
0100
0001
0000
,
1000
0000
0010
0000
0100
0010
0100
0000
,
0001
0010
0001
0000
1000
0010
1000
0000
,
0100
0010
0100
0010
0001
0000
0100
0000
,
1000
0100
1000
0000
0001
0100
0001
0000
,
0010
0100
0010
0100
1000
0000
0001
0000
,
2002
0000
0000
0000
,
0000
0000
0000
0000
,
0000
0000
0000
0000
,
0000
0000
0000
0000
,
3003
0000
0000
0000
,
0000
0000
0000
0000
;
#NOTES:
     dance-single:
     :
     Hard:
     12:
     :
0000
0000
0000
0000
,
0000
0000
0000
0000
,
0000
0000
0000
0000
,
0000
0000
0000
0000
,
0000
0000
0000
0000
,
0000
0000
0000
0000
,
0000
0000
0000
0000
,
0000
0000
0000
0000
,
0000
0000
0000
0000
,
0000
0000
0000
0000
,
0000
0000
0000
0000
,
0100
0001
0000
1000
0100
0000
0010
0001
,
0000
1000
0010
0000
0100
0001
1000
0100
,
0010
0000
0001
0010
0000
0001
0100
0000
,
0010
1000
0000
0100
1000
0000
1001
0000
,
0010
0001
1000
0100
0010
0100
1000
0000
,
0001
0100
0010
1000
0001
0010
0002
0000
,
2000
0000
0000
0000
,
0000
0000
0000
3003
,
1100
0000
0010
0001
0000
2000
0000
3020
,
0000
0230
0000
0320
0000
1030
0100
0000
,
0011
0000
0100
0010
0000
1010
0000
0001
,
0100
0010
0100
0001
0000
0000
0000
0000
,
0011
0000
0100
1000
0000
0002
0000
0203
,
0000
0320
0000
0230
0000
0301
0010
0000
,
0100
1000
0001
0010
0000
0001
0100
0020
,
0000
0000
0000
0000
0030
1000
0100
1000
,
0000
0000
0001
0010
0001
0002
0000
2003
,
0000
3010
0100
0020
0000
1030
0100
0000
,
0000
0000
1000
0010
1000
0002
0000
0023
,
0000
0032
0000
2003
0000
3010
0100
0000
,
0000
0000
0001
0100
0010
0200
0000
2300
,
0000
0000
3100
0002
0000
0000
0013
0100
,
1000
0010
1000
0001
0100
0010
0100
0001
,
0010
0100
0010
0001
0000
1000
0010
0100
,
0000
0000
0001
0010
0100
0200
0000
0320
,
0000
0031
1000
0200
0000
0301
0100
0000
,
0000
0000
0010
0001
0010
0002
0000
2003
,
0000
3020
0000
0230
0000
0301
1000
0000
,
0100
0010
0100
1000
0001
0100
0020
0000
,
1000
1000
0130
0110
,
0001
0001
1000
0010
0010
1000
0001
0001
,
0100
1000
1000
0100
0001
0010
0100
0020
,
0000
0000
0000
0000
0031
1000
0010
0000
,
1000
0100
1000
0010
1000
0001
0010
0000
,
0100
1000
0100
0010
0001
0100
0010
0000
,
2000
0000
3002
0000
1003
0010
0000
0100
,
0001
0010
0000
0100
1000
0010
1000
0000
,
0002
0000
0023
0000
0031
0100
0010
0020
,
0000
2030
0000
3100
0010
0001
0010
0001
,
0100
0110
1000
0110
,
0001
0100
0010
0100
0001
1000
0010
0000
,
1000
0100
0010
0001
0010
0100
1000
0000
,
0001
0100
0010
1000
0001
0100
0001
0000
,
0020
0000
0032
0000
1003
0010
0000
1000
,
0100
0001
0000
1000
0010
0001
0100
0000
,
0010
0010
1000
1000
0000
0001
0010
0100
,
0020
0032
2003
3200
,
1300
0110
0001
1001
,
0100
0010
0100
0010
1000
0100
0010
0000
,
0001
1000
0001
0100
0010
1000
0100
0010
,
0002
0010
1000
0103
,
1000
0010
0100
0001
0000
0010
0100
1000
,
0000
0001
0100
0001
1000
0010
1000
0000
,
0001
0011
1000
1010
,
0100
0110
0001
1001
,
0100
1000
0010
0000
0100
0001
0010
0000
,
0100
1000
0100
0010
0001
0100
0010
0000
,
1000
1010
0001
0011
,
0100
0010
0100
0000
1000
0010
1000
0000
,
0001
0100
1000
0100
0001
1000
1000
1000
,
0100
0010
0100
0010
0001
0010
0001
0010
,
0100
1000
0100
1000
0010
1000
0010
1000
,
0001
0100
0001
0100
0001
0010
0001
0010
,
0100
1000
0010
0100
0001
0010
0100
1000
,
2002
0000
0000
0000
,
0000
0000
0000
0000
,
0000
0000
0000
0000
,
0000
0000
0000
0000
,
3003
0000
0000
0000
,
0000
0000
0000
0000
;
#NOTES:
     dance-double:
     :
     Easy:
     6:
     :
00000000
00000000
00000000
00000000
,
00000000
00000000
00000000
00000000
,
00000000
00000000
00000000
00000000
,
00000000
00000000
00000000
00000000
,
00000000
00000000
00000000
00000000
,
00000000
00000000
00000000
00000000
,
00000000
00000000
00000000
00000000
,
00000000
00000000
00000000
00000000
,
00000000
00000000
00000000
00000000
,
00000000
00000000
00000000
00000000
,
00000000
00000000
00000000
00000000
,
00010000
00001000
01000000
00000000
,
00100000
00000000
10000000
00000000
,
01000000
00100000
00001000
00000000
,
00010000
00000000
00000100
00000000
,
00000010
00000001
00000100
00000000
,
00001000
00010000
00001000
00000000
,
00020000
00000000
00000000
00000000
,
00000000
00000000
00000000
00030000
,
00000100
00000000
00000010
00000000
,
00000001
00000001
00001000
00000100
,
00010000
00000000
00001000
00000000
,
00010000
00100000
10000000
00000000
,
01000000
10000000
00010000
00100000
,
00001000
00001000
00010000
00010000
,
00000010
00000000
00010000
00000000
,
00022000
00000000
00033000
00000000
,
00010000
00010000
00001000
01000000
,
00010000
00010000
10000000
00000000
,
00100000
00010000
00001000
00010000
,
00000010
00000010
00001000
00000000
,
00000001
00000001
00000100
00001000
,
00010000
00100000
01000000
00000000
,
10000000
10000000
01000000
00010000
,
00001000
00000010
00000100
00000000
,
00000001
00000010
00000100
00000100
,
00001000
00000100
00010000
00000000
,
00001000
00010000
01000000
10000000
,
00100000
01000000
00001000
00000000
,
00010000
00001000
00000100
00000001
,
00002000
00003000
00000200
00000300
,
00010000
00010000
00001000
00001000
,
00100000
00100000
00010000
00010000
,
20020000
00000000
00000000
30030000
,
00100000
00010000
01000000
00001000
,
00010000
00001000
00011000
00000000
,
00000010
00001000
00000001
00000010
,
00000001
00000100
00001000
00010000
,
00001000
00001000
01000000
01000000
,
00010000
10000000
01000000
00100000
,
00001000
00000000
00010000
00000000
,
00000010
00000100
00000001
00001000
,
00000100
00010000
00001000
00001000
,
00010000
00001000
00011000
00000000
,
00100000
00001000
00010000
00001000
,
00000010
00000001
00000100
00000100
,
00001000
00010000
00001000
00000000
,
00010000
00010000
00100000
00100000
,
10000000
00010000
01000000
00001000
,
00010000
00000100
00001000
00000010
,
00000100
00000000
00000010
00000000
,
00001000
00001000
00000100
00000100
,
00010000
00000000
00001000
00000000
,
00011000
01000000
00010000
10000000
,
00100000
00100000
10000000
10000000
,
01000000
01000000
00010000
00010000
,
00001000
00000100
00000001
00000100
,
00001000
00010000
01000000
10000000
,
00100000
00100000
00010000
00010000
,
01000000
01000000
00001000
00001000
,
00010000
00000100
00010000
00000010
,
00001000
00000001
00000010
00001000
,
00010000
00100000
10000000
01000000
,
00010000
00001000
00000100
00000001
,
00000100
00001000
00010000
01000000
,
02200000
00000000
00000000
00000000
,
00000000
00000000
00000000
00000000
,
00000000
00000000
00000000
00000000
,
00000000
00000000
00000000
00000000
,
03300000
00000000
00000000
00000000
,
00000000
00000000
00000000
00000000
;
#NOTES:
     dance-double:
     :
     Medium:
     9:
     :
00000000
00000000
00000000
00000000
,
00000000
00000000
00000000
00000000
,
00000000
00000000
00000000
00000000
,
00000000
00000000
00000000
00000000
,
00000000
00000000
00000000
00000000
,
00000000
00000000
00000000
00000000
,
00000000
00000000
00000000
00000000
,
00000000
00000000
00000000
00000000
,
00000000
00000000
00000000
00000000
,
00000000
00000000
00000000
00000000
,
00000000
00000000
00000000
00000000
,
00000001
00000010
00000000
00000000
00000100
00000000
00001000
00000100
,
00000000
00000000
00010000
00000000
00001000
00010000
00001000
00000000
,
00100000
00000000
00010000
01000000
00000000
00000000
00010000
00000000
,
10000000
00100000
00000000
00000000
01000000
00000000
00010000
00000000
,
10000000
01000000
00010000
00001000
,
00000100
00000000
00000001
00000000
00001000
00000010
00002000
00000000
,
00000200
00000000
00000000
00000000
,
00000000
00000000
00000000
00003300
,
00010000
00000000
00001000
00010000
00000000
02000000
00000000
13000000
,
00000000
00200000
00000000
01300000
00000000
00010000
00100000
00000000
,
00001000
00000000
00010000
00001000
00000000
00000100
00000000
00000001
,
00000010
00000110
00000000
00000000
,
00000100
00000000
00010000
00001000
00000000
00200000
00000000
00301000
,
00000000
02000000
00000000
03010000
00000000
10000000
00100000
00000000
,
01000000
00000000
00010000
00100000
00000000
00001000
00010000
00001000
,
00000000
00011000
00010000
00000100
,
00001000
00001000
00000001
00000010
,
00001000
00000000
00010000
00000000
00001000
00010000
00001000
00000000
,
00010000
00100000
10000000
00010000
,
00100000
00000000
00001000
00000000
00010000
00001000
00010000
00000000
,
00000100
00001000
00000001
00000010
,
00000200
00001300
00020000
00031000
,
00100000
00010000
10000000
01000000
,
00100000
00010000
00100000
00000000
00001000
00000000
00010000
00000000
,
00001000
00000000
00000100
00000000
00000001
00000010
00000001
00000000
,
00001000
00000010
00001000
00000000
00000100
00000000
00010000
00000000
,
00001000
00010000
00100000
10000000
,
02000000
03100000
00020000
01030000
,
00001000
00000000
00010000
00001000
00000000
00001000
00010000
00000000
,
00000200
00001300
00002000
00003010
,
00000100
00000001
00000010
00001000
00000000
00010000
00001000
00000000
,
00001000
00010000
00100000
10000000
00000000
01000000
00100000
00000000
,
02200000
00000000
00000000
03300000
,
00010000
00000000
01000000
00000000
00001000
00010000
00001000
00000000
,
00010000
00000000
00000100
00000000
00001000
00000010
00001000
00000000
,
00000001
00000100
00001000
00010000
,
01000000
00000000
10000000
00000000
00100000
01000000
00010000
00000000
,
00100000
00000000
00001000
00000000
00010000
00000100
00000000
00002000
,
00000000
00003002
00000000
00000013
00000000
00000100
00000000
00001000
,
00000100
00011000
01000000
01010000
,
00100000
10000000
00100000
00000000
01000000
00000000
00010000
00000000
,
10000000
00000000
00100000
00000000
00010000
00001000
00010000
00000000
,
00001000
00000000
00000100
00000000
00000001
00000010
00000001
00000000
,
00001000
00000100
00010000
00001000
,
00100000
00010000
10000000
00000000
01000000
00100000
00010000
00000000
,
10000000
00000000
00100000
00010000
00000000
00001000
00010000
00000000
,
00000200
00002300
00003002
00000023
,
00001030
00010000
00100000
10000000
,
01000000
00100000
01000000
00000000
00100000
00000000
00110000
00000000
,
00001000
00000000
00010000
00000100
00000000
00000100
00001000
00000000
,
00000002
00000010
00001000
00000103
,
00001000
00000000
00010000
00001000
00000000
00100000
00010000
00100000
,
00000000
01000000
10000000
00100000
,
01000000
01100000
00010000
01010000
,
00001000
00011000
00010000
00010100
,
00001000
00000000
00000010
00000000
00000100
00000010
00000100
00000000
,
00000001
00000000
00001000
00000000
00000100
00001000
00000100
00000000
,
00010000
00011000
00001000
00101000
,
01000000
00000000
00010000
00000000
10000000
00100000
10000000
00000000
,
01000000
00000000
00010000
00000000
00001000
00010000
00001000
00000000
,
00010000
00000100
00010000
00000000
00000100
00001000
00000100
00000000
,
00001000
00000010
00001000
00000000
00000001
00000100
00000001
00000000
,
00001000
00000100
00001000
00000000
00000100
00010000
00000100
00000000
,
00010000
00000010
00010000
00001000
00010000
00000100
00010000
00000000
,
00022000
00000000
00000000
00000000
,
00000000
00000000
00000000
00000000
,
00000000
00000000
00000000
00000000
,
00000000
00000000
00000000
00000000
,
00033000
00000000
00000000
00000000
,
00000000
00000000
00000000
00000000
;
#NOTES:
     dance-double:
     :
     Hard:
     12:
     :
00000000
00000000
00000000
00000000
,
00000000
00000000
00000000
00000000
,
00000000
00000000
00000000
00000000
,
00000000
00000000
00000000
00000000
,
00000000
00000000
00000000
00000000
,
00000000
00000000
00000000
00000000
,
00000000
00000000
00000000
00000000
,
00000000
00000000
00000000
00000000
,
00000000
00000000
00000000
00000000
,
00000000
00000000
00000000
00000000
,
00000000
00000000
00000000
00000000
,
00001000
00000010
00000000
00001000
00000100
00000000
00000010
00000001
,
00000000
00000100
00000010
00000000
00001000
00000100
00010000
00001000
,
00010000
00000000
00100000
01000000
00000000
00010000
00100000
00000000
,
00010000
10000000
00000000
01000000
00100000
00000000
00010000
00000000
,
10000000
01000000
00010000
00001000
00000100
00000001
00001000
00000000
,
00000001
00000100
00000001
00000010
00001000
00010000
00002000
00000000
,
00020000
00000000
00000000
00000000
,
00000000
00000000
00000000
00033000
,
00100000
00000000
00010000
01000000
00000000
00200000
00000000
20300000
,
00000000
30020000
00000000
02030000
00000000
03001000
00010000
00000000
,
00011000
00000000
00000100
00001000
00000000
00000001
00000000
00000010
,
00000001
00001000
00000100
00010000
00000000
00000000
00000000
00000000
,
00011000
00000000
01000000
00010000
00000000
20000000
00000000
32000000
,
00000000
03020000
00000000
00032000
00000000
00003100
00000010
00000000
,
00001000
00000001
00000010
00000100
00000000
00001000
00000100
00020000
,
00000000
00000000
00000000
00000000
00030000
00001000
00010000
00001000
,
00000000
00000000
00100000
00010000
00100000
02000000
00000000
23000000
,
00000000
30010000
00010000
00200000
00000000
00301000
00010000
00000000
,
00000000
00000000
00000100
00001000
00000100
00000020
00000000
00000032
,
00000000
00000203
00000000
00002300
00000000
00013000
00001000
00000000
,
00000000
00000000
00010000
00100000
10000000
00200000
00000000
00320000
,
00000000
00000000
00031000
00000020
00000000
00000000
00000031
00000000
,
00000100
00000001
00000100
00000000
00000010
00001000
00000010
00000000
,
00010000
00001000
00010000
00001000
00000000
01000000
00010000
00100000
,
00000000
00000000
00010000
10000000
00100000
02000000
00000000
03200000
,
00000000
01300000
00001000
00200000
00000000
00301000
00010000
00000000
,
00000000
00000000
00000010
00001000
00000010
00000200
00000000
00000302
,
00000000
00000023
00000000
00002030
00000000
00013000
00001000
00000000
,
00010000
00001000
00100000
00010000
01000000
00100000
10000000
00000000
,
01000000
00100000
00010000
00000000
01000000
00010000
00100000
00000000
,
00001000
00001000
00010000
00000010
00000010
00001000
00000001
00000001
,
00000100
00001000
00010000
00001000
00010000
01000000
10000000
00200000
,
00000000
00000000
00000000
00000000
01300000
00100000
01000000
00000000
,
00001000
00010000
00001000
00000010
00000100
00000010
00000001
00000000
,
00002001
00000000
00010000
00000000
00003001
00000000
00000000
00001000
,
00000200
00000000
00020300
00000000
00031000
00010000
00000000
00011000
,
00000000
00110000
00000000
10100000
00000000
01100000
00000000
00000000
,
00020000
00000000
00230000
00000000
00301000
00010000
00000000
00000200
,
00000000
00002300
00000000
00003001
00000010
00000001
00000000
00001000
,
00000010
00001010
00010000
00011000
,
00001000
01000000
00010000
01000000
00010000
10000000
00100000
00000000
,
01000000
00010000
10000000
01000000
00010000
00001000
00010000
00000000
,
00012000
00000000
00000001
00000000
00013000
00000000
00000000
00000010
,
00002000
00000000
00003200
00000000
00010300
00001000
00000000
00011000
,
00000000
01010000
00000000
11000000
00000000
01100000
00000000
00000000
,
10000000
01000000
00010000
00001000
00000000
00010000
00001000
00010000
,
00000020
00002030
00003002
00000203
,
00000310
00001000
00000100
00010000
,
00001000
00010000
00001000
00000000
01000000
00010000
01000000
00000000
,
00100000
10000000
00100000
01000000
00010000
00100000
00001000
00010000
,
00000020
00000100
00000100
00000130
,
00001000
00000100
00000010
00000001
00000000
00001000
00000010
00010000
,
00000000
00001000
00010000
00001000
00100000
00000000
01000000
00000000
,
10000000
11000000
00010000
01010000
,
00001000
00011000
00000100
00000110
,
00000001
00000010
00000001
00000000
00001000
00000100
00001000
00000000
,
00000100
00010000
00000100
00010000
00001000
00000000
00010000
00000000
,
00001000
00011000
01000000
01010000
,
00100000
10000000
00100000
00000000
10000000
01000000
10000000
00000000
,
00100000
10000000
01000000
00010000
00001000
00000000
00011000
00000000
,
00010000
00001000
00010000
00001000
00000100
00000001
00000100
00000001
,
00000010
00000001
00000010
00000001
00000010
00001000
00000010
00001000
,
00010000
00001000
00010000
00001000
00010000
00100000
00010000
00100000
,
10000000
00100000
10000000
01000000
00010000
00001000
00000100
00000001
,
00002002
00000000
00000000
00000000
,
00000000
00000000
00000000
00000000
,
00000000
00000000
00000000
00000000
,
00000000
00000000
00000000
00000000
,
00003003
00000000
00000000
00000000
,
00000000
00000000
00000000
00000000
;
