
//----- song ID: shid -----//
#TITLE:Shout It Out;
#ARTIST:G-T-R;
#BANNER:Shout It Out.png;
#BACKGROUND:Shout It Out-bg.png;
#CDTITLE:./CDTitles/Over 200.png;
#MUSIC:Shout It Out.ogg;
#SAMPLESTART:47.356;
#SAMPLELENGTH:15;
#BPMS:0=205;
#NOTES:
     dance-single:
     :
     Beginner:
     4:
     :
0000
0000
0000
0000
,
0000
0000
0000
0000
,
0000
0000
0000
0000
,
0000
0000
0000
0000
,
0000
0000
0000
0000
,
0000
0000
0000
0000
,
0000
0000
0000
0000
,
0001
0000
0000
0000
,
1000
0000
0000
0000
,
1001
0000
0000
0000
,
0000
0000
0000
0000
,
0010
0000
1000
0000
,
0010
0000
0000
0000
,
1000
0000
0100
0000
,
1000
0000
0000
0000
,
0010
0000
0001
0000
,
0010
0000
0000
0000
,
0001
0000
0100
0000
,
0001
0000
0000
0000
,
0010
0000
0001
0000
,
0100
0000
0000
0000
,
0100
0000
0001
0000
,
0010
0000
0000
0000
,
0100
0000
1000
0000
,
0010
0000
0000
0000
,
0010
0000
1000
0000
,
0100
0000
0000
0000
,
1001
0000
0000
0000
,
0010
0000
0000
0000
,
1001
0000
0000
0000
,
0010
0000
0000
0000
,
2000
0000
0000
0000
,
3000
0000
0000
0000
,
0002
0000
0000
0000
,
0003
0000
0000
0000
,
0010
0000
0001
0000
,
0010
0000
0001
0000
,
0100
0000
0010
0000
,
0100
0000
0010
0000
,
1000
0000
1000
0000
,
1000
0000
0000
0000
,
2000
0000
0000
0000
,
3000
0000
0000
0000
,
0100
0000
0100
0000
,
0100
0000
0000
0000
,
0020
0000
0000
0000
,
0030
0000
0000
0000
,
0001
0000
0001
0000
,
0001
0000
0000
0000
,
0002
0000
0000
0000
,
0003
0000
0000
0000
,
0010
0000
0010
0000
,
0010
0000
0000
0000
,
0200
0000
0000
0000
,
0300
0000
0000
0000
,
1000
0000
1000
0000
,
1000
0000
0000
0000
,
2002
0000
0000
0000
,
3003
0000
0000
0000
,
1001
0000
0000
0000
,
0001
0000
0010
0000
,
0001
0000
0010
0000
,
1000
0000
0010
0000
,
1000
0000
0000
0000
,
0001
0000
0100
0000
,
0001
0000
0100
0000
,
1000
0000
0100
0000
,
1000
0000
0000
0000
,
2002
0000
0000
0000
,
3003
0000
0000
0000
,
0010
0000
0001
0000
,
0100
0000
0010
0000
,
0100
0000
0010
0000
,
1000
0000
1000
0000
,
0100
0000
0001
0000
,
0100
0000
1000
0000
,
0010
0000
0100
0000
,
0001
0000
0000
0000
,
0010
0000
1000
0000
,
0100
0000
0010
0000
,
0100
0000
0010
0000
,
0001
0000
0001
0000
,
0100
0000
1000
0000
,
0100
0000
0001
0000
,
0010
0000
1000
0000
,
0010
0000
0001
0000
,
0100
0000
0100
0000
,
0010
0000
0010
0000
,
2000
0000
0000
0000
,
3000
0000
0000
0000
,
0001
0000
0010
0000
,
0001
0000
0000
0000
,
1000
0000
0010
0000
,
1000
0000
0000
0000
,
0001
0000
0100
0000
,
0001
0000
0000
0000
,
1001
0000
0000
0000
,
0110
0000
0000
0000
,
1001
0000
0000
0000
,
0100
0000
0000
2002
,
0000
0000
0000
0000
,
0000
0000
0000
0000
,
3003
0000
0000
0000
,
0000
0000
0000
0000
;
#NOTES:
     dance-single:
     :
     Easy:
     9:
     :
0000
0000
0000
0000
,
0000
0000
0000
0000
,
0000
0000
0000
0000
,
0000
0000
0000
0000
,
0000
0000
0000
0000
,
0000
0000
0000
0000
,
0000
0000
0000
0000
,
1000
0000
0000
1100
0000
0000
0000
0000
,
0001
0000
0000
0101
0000
0000
0000
0000
,
1001
0000
0000
0000
,
0000
0000
0000
0000
,
0010
0000
1000
0000
0100
1000
0100
0000
,
0010
0001
1000
0001
,
0100
0100
0010
0010
,
1000
0001
1000
0000
,
0100
0000
1000
0000
0010
1000
0010
0000
,
0100
0001
0010
0001
,
1000
0100
0001
0100
,
1000
0010
1000
0000
0001
0000
0000
0000
,
0100
0000
0001
0000
0010
0001
0010
0000
,
0100
1000
0001
1000
,
0010
0010
0100
0100
,
0001
1000
0001
0000
,
0010
0000
0001
0000
0100
0001
0100
0000
,
0010
0000
1000
0000
0100
1000
0100
0000
,
1000
0010
0100
0001
,
0010
0000
0001
0000
0100
0010
1000
0000
,
0220
0000
0330
0000
,
2002
0000
3003
0000
,
0022
0000
0033
0000
,
2200
0000
3300
0000
,
0002
0000
0010
0000
,
2003
0000
0010
0000
,
3100
0000
0000
0010
0000
0100
0000
0020
,
0000
0000
0000
0030
,
0002
0000
0203
0000
,
1300
0100
0001
0000
,
2000
0000
3200
0000
,
0301
0100
1000
0000
,
0010
0000
0000
0100
0000
0000
0220
0000
,
0000
0000
0330
0000
,
1000
0010
1000
0010
,
0100
0001
0100
0001
,
0010
0000
0001
0100
0000
0010
0000
2000
,
0000
0000
0001
3001
,
0100
0001
0010
0100
,
1000
0010
0100
0001
,
0010
0001
1000
0000
0010
1000
0001
0000
,
1000
0100
0010
0000
0100
0000
0000
0000
,
0001
0100
0001
0100
,
0010
1000
0010
1000
,
0100
0000
1000
0010
0000
0100
0000
0000
,
0001
0010
0100
1000
,
0010
0000
1000
0000
0100
0010
0100
0000
,
0010
0001
0100
0010
,
1000
0000
0100
0000
0010
0100
0010
0000
,
0001
0010
1000
0010
,
0022
0000
0000
0033
,
0100
0000
0000
0110
0000
0000
0000
0000
,
0010
0000
0000
1001
0000
0000
0000
0000
,
1000
0010
0100
0001
,
0100
0000
0010
0000
1000
0001
1000
0000
,
0100
0100
0010
0010
,
0001
0100
0001
0000
1000
0100
1000
0000
,
0020
0030
0010
1000
,
0100
0010
0001
0100
,
0010
0000
0000
0010
0000
0000
0100
0000
,
0000
0100
0000
0000
0110
0000
0000
0000
,
1000
0100
1000
0000
0001
0010
0001
0000
,
2002
0000
3003
0000
,
0100
0010
1000
0010
,
1000
0000
0100
0000
0010
0001
0010
0000
,
0001
1000
0010
0001
,
0010
1000
0001
0001
,
0010
0100
1000
0100
,
0010
0001
0100
0010
,
1000
0010
1000
0000
0001
0010
0001
0000
,
0100
0010
1001
0000
,
0010
0100
0001
0100
,
0001
0000
0010
0000
0100
1000
0100
0000
,
1000
0001
0100
1000
,
0100
0001
1000
1000
,
0100
0010
0001
0010
,
0100
0000
1000
0000
0010
0100
0010
0000
,
0100
0001
1000
0010
,
1000
0000
0001
0000
0100
0010
0100
0000
,
0002
0003
0020
0030
,
0200
0300
2000
3000
,
2020
0000
0000
3030
,
0001
0000
0000
0101
0000
0000
0000
0000
,
2002
0000
0000
3003
,
0010
0000
1000
0020
0000
0000
0030
0000
,
2002
0000
0000
3003
,
0010
0000
0001
0020
0000
0000
0030
0000
,
2002
0000
0000
3003
,
0100
0000
1000
0200
0000
0000
0300
0000
,
0010
0000
0000
0011
0000
0000
0000
0000
,
0100
0000
0000
1100
0000
0000
0000
0000
,
0001
0000
0000
1000
0000
1001
0000
0000
,
0010
0100
0010
2002
,
0000
0000
0000
0000
,
0000
0000
0000
0000
,
3003
0000
0000
0000
,
0000
0000
0000
0000
;
#NOTES:
     dance-single:
     :
     Medium:
     12:
     :
0000
0000
0000
0000
,
0000
0000
0000
0000
,
0000
0000
0000
0000
,
0000
0000
0000
0000
,
0000
0000
0000
0000
,
0000
0000
0000
0000
,
0000
0000
0000
0000
,
1000
0000
0000
0010
0000
0000
1000
0000
0000
0000
0000
0000
0000
0000
0000
0000
,
0001
0000
0000
0010
0000
0000
0001
0000
0000
0000
0000
0000
0000
0000
0000
0000
,
1001
0000
0000
0000
,
0000
0000
0000
0000
,
0010
1000
0100
0000
0010
0001
0100
0000
,
0001
0010
0100
1000
0100
0010
0001
0000
,
0200
0310
2000
3010
,
1000
0001
0010
0100
0010
0000
0000
0000
,
0100
1000
0010
0000
0100
0001
0010
0000
,
0100
1000
0001
0010
0100
0010
0001
0000
,
2000
3001
0020
0031
,
0100
0010
1000
0001
1000
0000
0000
0000
,
0100
0010
1000
0000
0100
0010
0001
0000
,
1000
0010
0100
0001
0010
0100
1000
0000
,
0020
0130
0020
1030
,
0001
0100
0010
0100
0001
0000
0000
0000
,
0010
0000
0100
1000
0000
0100
1000
0000
,
0010
0100
0000
0001
0000
0100
0001
0000
,
0010
0100
0010
0000
0100
0010
0100
0000
,
1000
0001
1000
0001
1000
0000
0010
0000
,
2002
0000
0000
0000
3003
0000
0000
0000
0010
0000
0000
0010
0000
0000
0010
0000
,
2002
0000
0000
0000
3003
0000
0000
0000
0010
0000
0000
0010
0000
0000
0010
0000
,
0220
0000
0000
0000
0330
0000
0000
0000
1000
0000
0000
1000
0000
0000
1000
0000
,
2020
3030
0202
0303
,
0020
0000
0000
2030
0000
0000
3001
0000
,
0200
0000
0000
0302
0000
0000
1003
0000
,
0100
0000
0100
0010
0000
0001
0000
1001
,
0000
1000
0000
0001
0000
0100
0010
0000
,
2000
0000
3200
0000
0301
0100
1000
0000
,
0010
1000
0001
0200
0000
0000
0300
0000
,
0002
0000
0000
0203
0000
0000
1300
0000
,
1000
0100
0000
0202
0000
0000
0303
0000
,
2000
0000
0000
3020
0000
0000
0031
0000
,
0001
0010
1000
0000
1001
0000
0000
0000
,
0010
0000
0001
0100
0000
0010
1000
0000
,
0001
0000
1000
0100
0000
0010
0001
0000
,
0100
0000
1000
0100
0000
0001
0000
0010
,
0100
1000
0100
1000
0001
0100
0001
0100
,
0010
0000
1000
0200
0000
0320
0000
0032
,
0000
0023
0000
0230
0000
2300
0000
3001
,
0010
0001
0100
0010
1000
0010
1000
0100
,
0010
0001
0010
0100
1000
0000
0000
0000
,
0100
0000
1000
0010
0000
0100
0001
0000
,
1000
0000
0001
0010
0000
0100
1000
0000
,
0010
0000
0001
0010
0000
1000
0000
0100
,
0010
0001
0010
0001
1000
0010
1000
0010
,
0100
0000
0001
0010
0001
0010
0000
0100
,
1000
0000
0010
1000
0010
1000
0000
0001
,
0100
0000
0010
0100
0010
0100
0000
0001
,
1000
0000
0100
0010
0001
0000
0100
0000
,
2020
0000
0000
3030
,
1000
0000
0000
0100
0000
0000
1100
0000
0000
0000
0000
0000
0000
0000
0000
0000
,
0010
0000
0000
0100
0000
0000
0110
0000
0000
0000
0000
0000
0000
0000
0000
0000
,
0001
0000
0010
0001
0000
0100
0010
0000
,
1000
0000
0100
1000
0000
0010
0100
0000
,
0001
0010
1000
0010
0001
1000
0100
0010
,
0001
0100
1000
0100
0010
0100
0010
0000
,
1000
0000
0001
0000
1000
0000
0000
0000
0010
0000
0000
1000
0000
0000
0010
0000
,
0100
0000
0000
0001
0000
0000
0100
0000
0010
0000
0000
0100
0000
0000
0010
0000
,
1000
0000
0000
0100
0000
0000
0010
0000
,
0000
0001
0000
0000
1000
0000
0000
0000
,
0010
0100
0001
0010
0001
1000
0100
0010
,
0001
0100
0010
1000
0010
0000
0000
0000
,
1000
0100
1000
0010
0100
0010
1000
0000
,
0001
0010
0100
0010
0001
0100
0001
0000
,
0100
0010
1000
0010
0100
0010
1000
0100
,
0001
0100
0001
0100
1000
0001
0100
0000
,
0010
1000
0100
0000
0010
0001
0100
0000
,
0010
1000
0100
0010
0001
0100
0010
0000
,
1000
0010
0010
0100
0001
0001
1000
0000
,
0010
0000
0000
1000
0000
0000
0001
0000
1001
0000
0000
0000
0000
0000
0000
0000
,
0001
0010
0001
0100
0010
0100
0001
0000
,
1000
0100
0010
0100
1000
0010
1000
0000
,
0010
0100
0001
0100
0010
0100
0001
0010
,
1000
0010
1000
0010
0001
1000
0010
0000
,
0100
0001
0010
0000
0100
1000
0010
0000
,
0100
0001
0010
0100
1000
0010
0100
0000
,
0001
0100
0010
0000
1000
0100
0010
0000
,
0001
0100
0010
1000
0100
0010
0001
0000
,
0100
0001
0100
0000
0010
1000
0010
0000
,
1000
0100
1000
0000
0001
0010
0001
0000
,
0022
0000
0000
0033
,
0100
0000
0000
1000
0000
0000
1001
0000
0000
0000
0000
0000
0000
0000
0000
0000
,
1000
0000
0010
0001
0000
0010
1000
0000
,
0001
1000
0001
2000
0000
0000
3000
0000
,
0001
0000
0010
1000
0000
0010
0001
0000
,
1000
0001
1000
0002
0000
0000
0003
0000
,
1000
0000
0100
0001
0000
0100
1000
0000
,
0001
1000
0001
2000
0000
0000
3000
0000
,
0010
0000
0000
0010
0000
0000
0010
0000
0000
0000
0000
0000
0000
0000
0000
0000
,
0100
0000
0000
0100
0000
0000
0100
0000
0000
0000
0000
0000
0000
0000
0000
0000
,
0001
0000
0000
0001
0000
0000
0001
0000
0000
0000
1000
0000
0000
0000
0000
0000
,
0100
0010
0001
1000
0001
0000
2002
0000
,
0000
0000
0000
0000
,
0000
0000
0000
0000
,
3003
0000
0000
0000
,
0000
0000
0000
0000
;
#NOTES:
     dance-single:
     :
     Hard:
     15:
     :
0000
0000
0000
0000
,
0000
0000
0000
0000
,
0000
0000
0000
0000
,
0000
0000
0000
0000
,
0000
0000
0000
0000
,
0000
0000
0000
0000
,
0000
0000
0000
0000
,
0001
0000
0000
0001
0000
0000
0011
0000
0000
0000
0000
0000
0000
0000
0000
0000
,
1000
0000
0000
1000
0000
0000
1000
0000
0000
0000
1100
0000
0000
0000
0000
0000
,
1001
0000
0000
0000
,
0000
0000
0000
0000
,
0010
1000
0010
1000
0100
0001
0100
1000
,
0001
0010
0100
1000
0001
0100
1000
0000
,
0100
0010
0100
0010
1000
0010
0001
0010
,
1000
0001
0100
0010
1000
0010
0100
0000
,
0001
0010
1000
0010
0001
1000
0100
0010
,
0001
0100
0010
0100
0010
1000
0001
0000
,
0100
1000
0100
1000
0100
0001
1000
0010
,
0100
0000
0001
0000
0010
0000
0100
0000
1000
0000
0001
1000
0001
0000
0000
0000
,
1000
0010
0100
1000
0100
0010
1000
0100
,
0010
1000
0010
0001
1000
0100
0010
0000
,
0001
0100
0010
1000
0001
0010
0100
1000
,
0100
0001
0100
0010
0100
1000
0001
0000
,
0100
0010
0001
0010
0001
0010
0100
0001
,
0010
0100
0001
0100
1000
0100
0001
0100
,
0010
0010
0001
0001
1000
1000
0100
0100
,
1000
0010
1000
0010
0100
0001
0100
0001
,
2000
0000
0000
0000
3000
0000
1000
0100
0010
0000
0000
0010
0000
0000
0010
0000
,
0002
0000
0000
0000
0003
0000
0001
0100
0010
0000
0000
0010
0000
0000
0010
0000
,
2000
0000
0000
0000
3000
0000
1000
0100
0010
0000
0000
0010
0000
0000
0010
0000
,
0001
0100
0001
0000
1000
0100
1000
0000
0010
0000
0100
0000
0010
0000
0000
0000
,
2020
0000
0000
3030
,
0022
0000
0000
0033
,
2200
0000
0000
3300
,
0001
0000
0100
0000
0000
0000
0101
0000
0000
0000
0001
1000
0001
1000
0001
0000
,
1000
0000
1000
0010
0100
0000
0100
0001
,
0010
0000
0010
0001
1000
0100
0010
0000
,
0001
0000
0001
0100
0010
0000
0010
1000
,
0100
0000
0100
0010
0001
1000
0100
0000
,
0010
0001
0001
0100
0001
0001
1000
0000
,
2002
0000
3003
0000
,
0010
0000
0001
0000
0100
0010
0100
0000
0001
0000
1000
0000
0100
0010
0100
0000
,
1000
0000
0001
0000
0100
0001
0100
0000
0001
0000
0010
0000
0100
1000
0100
0000
,
1000
0100
1000
0100
1000
0010
1000
0010
,
0100
0001
0010
0001
0100
0010
1000
0000
,
0001
0100
0010
1010
0000
1100
0000
1001
,
0000
0001
0010
1000
0010
0001
1000
0100
,
0010
0000
0001
1000
0001
0000
0100
0000
0001
1000
0001
0000
0100
0000
0000
0000
,
0010
0000
0000
1000
0000
0000
0100
0000
2002
0000
0000
0000
3003
0000
0000
0000
,
0010
0000
1000
0000
0100
0010
0100
0000
1000
0000
0001
0000
0100
0010
0100
0000
,
0001
0000
1000
0000
0100
1000
0100
0000
1000
0000
0010
0000
0100
0001
0100
0000
,
0001
0100
0001
0100
0001
0010
0001
0010
,
0100
1000
0010
1000
0100
0010
0001
0000
,
1000
0100
0010
0011
0000
0101
0000
1001
,
0001
0010
0100
1100
0000
1010
0000
1001
,
0010
1000
0001
0011
0000
1010
0000
1001
,
0100
1000
0010
1010
0000
0101
0000
0010
,
0220
0000
0000
0330
,
1000
0000
0000
0001
0000
0000
1001
0000
0000
0000
0000
0000
0000
0000
0000
0000
,
0010
0000
0000
0010
0000
0000
0010
0000
1000
0000
0100
0000
0010
0000
0001
0000
,
1000
0100
0001
0100
0000
0100
1000
0001
,
0100
1000
0100
0001
0000
0001
1000
0010
,
0001
0010
1000
0010
0100
0001
0100
1000
,
0100
0100
0001
0001
0010
0100
1000
0000
,
0100
0000
0010
0000
0110
0000
0000
0000
0010
0000
0000
0001
0000
0000
0101
0000
,
0010
0000
0000
1000
0000
0000
1100
0000
0010
0000
0000
0100
0000
0000
0110
0000
,
0002
0000
0000
0203
0000
0000
0320
0000
,
0000
2030
0000
0000
0002
0000
3003
0000
,
0100
0001
0100
0000
0010
0000
1000
0001
1000
0000
0100
0000
0010
0100
0010
0000
,
0001
0000
1000
0001
1000
0000
0001
0000
1000
0000
0000
0000
0000
0000
0000
0000
,
1000
0000
0100
0000
0010
0001
0010
0000
0100
0000
1000
0000
0010
0000
0100
0000
,
0001
0000
1000
0000
0010
0100
0001
0000
1000
0000
0010
0000
0001
0000
0010
0000
,
1000
0100
0010
0001
0010
0100
1000
0001
,
1000
0100
0001
0100
1000
0010
0100
0000
,
0001
0000
0100
0010
1000
0000
0100
0000
0010
0000
0001
0000
1000
0000
0010
0000
,
1000
0000
0001
0010
0100
0000
1000
0000
0010
0000
0100
0000
0001
0000
1000
0000
,
0100
0000
0100
1000
0100
0000
0020
0000
0000
0000
0031
0000
1000
0000
0010
0000
,
0100
0000
0000
0100
0000
0000
0100
0000
0110
0000
0000
0000
0000
0000
0000
0000
,
0001
0000
0010
0000
0100
1000
0100
0000
0010
0000
0001
0000
0100
0000
0010
0000
,
1000
0000
0001
0000
0100
0010
1000
0000
0001
0000
0100
0000
1000
0000
0100
0000
,
0001
0010
0100
1000
0100
0010
0001
1000
,
0001
0010
1000
0010
0001
0100
0010
0000
,
1000
0000
0010
0100
0001
0000
0010
0000
0100
0000
1000
0000
0001
0000
0100
0000
,
0001
0000
1000
0100
0010
0000
0001
0000
0100
0000
0010
0000
1000
0000
0001
0000
,
0010
0000
0001
1000
0100
0000
0010
0000
0001
0000
1000
0000
0001
0000
0100
0000
,
0010
0000
1000
0010
0100
0000
0001
0000
0010
0000
0100
0000
1000
0000
0010
0000
,
0100
0000
0001
1000
0100
0000
0010
0000
0001
0000
1000
0000
0010
0000
0100
0000
,
1000
0000
0100
0001
0100
0000
0010
0000
1000
0000
0100
0000
0010
0000
0001
0000
,
2002
0000
0000
3003
,
0001
0000
0000
1000
0000
0000
1001
0000
0000
0000
0000
0000
0000
0000
0000
0000
,
1000
0010
0010
0100
0010
0010
1000
0001
,
0010
0100
0010
0220
0000
0000
0330
0000
,
0001
0010
0010
0100
0010
0010
0001
1000
,
0010
0100
0010
0220
0000
0000
0330
0000
,
1000
0010
0010
0100
0001
0001
0010
0100
,
0001
0100
1000
2002
0000
0000
3003
0000
,
1000
0000
0000
1000
0000
0000
1010
0000
0000
0000
0000
0000
0000
0000
0000
0000
,
0001
0000
0000
0001
0000
0000
0101
0000
0000
0000
0000
0000
0000
0000
0000
0000
,
0010
0000
0000
0010
0000
0000
0110
0000
0000
0000
1001
0000
0000
0000
0000
0000
,
0001
0010
0100
0000
1000
0010
0100
0000
0001
0000
0000
0000
2002
0000
0000
0000
,
0000
0000
0000
0000
,
0000
0000
0000
0000
,
3003
0000
0000
0000
,
0000
0000
0000
0000
;
#NOTES:
     dance-double:
     :
     Easy:
     9:
     :
00000000
00000000
00000000
00000000
,
00000000
00000000
00000000
00000000
,
00000000
00000000
00000000
00000000
,
00000000
00000000
00000000
00000000
,
00000000
00000000
00000000
00000000
,
00000000
00000000
00000000
00000000
,
00000000
00000000
00000000
00000000
,
00001000
00000000
00000000
00001000
00000000
00000000
00000000
00000000
,
00010000
00000000
00000000
00010000
00000000
00000000
00000000
00000000
,
00011000
00000000
00000000
00000000
,
00000000
00000000
00000000
00000000
,
00001000
00000000
01000000
00000000
00010000
00100000
00010000
00000000
,
10000000
01000000
00100000
00010000
,
00100000
00100000
00001000
00001000
,
00010000
00001000
00010000
00000000
,
00010000
00000000
00000010
00000000
00001000
00000100
00001000
00000000
,
00000001
00000010
00000100
00001000
,
00000010
00000010
00010000
00010000
,
00001000
00010000
00001000
00000000
,
01000000
00000000
00010000
00000000
00100000
01000000
00100000
00000000
,
00010000
10000000
01000000
00100000
,
00001000
00001000
00010000
00010000
,
00000100
00001000
00000010
00000000
,
00000100
00000000
00000001
00000000
00000010
00000100
00000010
00000000
,
00001000
00000000
00010000
00000000
00001000
00010000
00001000
00000000
,
01000000
00010000
01000000
00100000
,
10000000
00010000
10000000
00000000
,
02200000
00000000
03300000
00000000
,
00022000
00000000
00033000
00000000
,
00000220
00000000
00000330
00000000
,
00002002
00000000
00003003
00000000
,
00000001
00000100
00000010
00000000
,
00001000
00000100
00010000
00000000
,
00001000
01000000
00010000
00000000
,
02200000
00000000
00000000
03300000
,
10000000
01000000
10000000
01000000
,
00100000
00010000
00100000
00000000
,
00001000
00010000
00001000
00010000
,
00000010
00001000
00000010
00000000
,
00000100
00000000
00000000
00000001
00000000
00000000
00002002
00000000
,
00000000
00000000
00003003
00000000
,
00001000
00000010
00001000
00000010
,
00010000
00001000
00010000
00001000
,
01000000
00010000
00100000
00010000
,
01000000
00100000
10000000
00000000
,
01000000
00010000
00001000
00000000
,
00100000
00001000
00010000
00000000
,
00000100
00001000
00000010
00000100
,
00000001
00001000
00000001
00000000
00000100
00000000
00000000
00000000
,
00000010
00000100
00000010
00000100
,
00001000
00010000
00001000
01000000
,
00010000
00100000
00010000
00000000
10000000
00000000
01000000
00000000
,
10000000
00100000
10000000
00000000
01000000
00000000
00100000
00000000
,
00001000
00010000
00001000
00000010
,
00000001
00001000
00000001
00000100
,
00001000
00010000
00001000
00010000
,
00100000
10000000
00010000
10000000
,
20020000
00000000
00000000
30030000
,
01000000
00000000
00000000
01100000
00000000
00000000
00000000
00000000
,
00001000
00000000
00000000
00011000
00000000
00000000
00000000
00000000
,
00000100
00001000
00000010
00000010
,
00000100
00000001
00000010
00000010
,
00001000
00010000
00001000
00010000
,
00100000
10000000
00100000
00000000
10000000
01000000
10000000
00000000
,
00020000
00030000
00100000
00100000
,
00001000
00001000
00010000
00010000
,
00000010
00000000
00000000
00001000
00000000
00000000
00000001
00000000
,
00000000
00001000
00000000
00000000
00000100
00000000
00000000
00000000
,
00000010
00000001
00001000
00000000
00000100
00010000
00001000
00000000
,
00200000
00000000
00300000
00000000
,
00010000
01000000
00010000
01000000
,
00001000
00010000
00001000
00010000
,
00000010
00001000
00000100
00001000
,
00000010
00000100
00000001
00000000
,
00000010
00001000
00010000
00000000
,
00000100
00010000
00001000
00000000
,
00100000
00010000
01000000
00100000
,
10000000
00010000
10000000
00000000
00100000
00000000
00000000
00000000
,
01000000
00100000
01000000
00100000
,
00010000
00001000
00010000
00000010
,
00001000
00000100
00001000
00000000
00000001
00000000
00000010
00000000
,
00000001
00000100
00000001
00000000
00000010
00000000
00000100
00000000
,
00010000
00001000
00010000
01000000
,
10000000
00010000
10000000
00100000
,
00010000
00001000
00010000
00001000
,
00000100
00000001
00001000
00000001
,
00000020
00000030
00000200
00000300
,
00020000
00030000
00002000
00003000
,
00022000
00000000
00000000
00033000
,
00001000
00000000
00000000
00011000
00000000
00000000
00000000
00000000
,
02000000
00000000
03020000
00000000
,
00130000
00000000
00000000
01100000
00000000
00000000
00000000
00000000
,
20000000
00000000
32000000
00000000
,
03100000
00000000
00000000
00011000
00000000
00000000
00000000
00000000
,
00000200
00000000
00002300
00000000
,
00003010
00000000
00000000
00000110
00000000
00000000
00000000
00000000
,
00001010
00000000
00000000
00000000
,
00110000
00000000
00000000
00000000
,
01010000
00000000
00000000
00000000
,
00001000
00000100
00001000
00002002
,
00000000
00000000
00000000
00000000
,
00000000
00000000
00000000
00000000
,
00003003
00000000
00000000
00000000
,
00000000
00000000
00000000
00000000
;
#NOTES:
     dance-double:
     :
     Medium:
     12:
     :
00000000
00000000
00000000
00000000
,
00000000
00000000
00000000
00000000
,
00000000
00000000
00000000
00000000
,
00000000
00000000
00000000
00000000
,
00000000
00000000
00000000
00000000
,
00000000
00000000
00000000
00000000
,
00000000
00000000
00000000
00000000
,
00001000
00000000
00000000
00010000
00000000
00000000
00001000
00000000
00000000
00000000
00000000
00000000
00000000
00000000
00000000
00000000
,
00010000
00000000
00000000
00001000
00000000
00000000
00010000
00000000
00000000
00000000
00000000
00000000
00000000
00000000
00000000
00000000
,
00011000
00000000
00000000
00000000
,
00000000
00000000
00000000
00000000
,
00001000
01000000
00001000
00000000
00100000
00010000
00100000
00000000
,
01000000
10000000
01000000
10000000
00010000
00100000
00010000
00000000
,
01000000
00001000
00010000
00001000
,
00010000
00000010
00001000
00000000
,
00000100
00001000
00000100
00000000
00000010
00000001
00000010
00000000
,
00000001
00001000
00000001
00001000
00000010
00000100
00000010
00000000
,
00001000
00000100
00010000
00001000
,
01000000
00001000
00011000
00000000
,
00001000
00100000
00001000
00000000
00100000
00010000
00100000
00000000
,
01000000
10000000
00100000
01000000
00010000
00100000
00010000
00000000
,
00100000
00001000
00010000
00000010
,
00010000
00001000
00000010
00000000
,
00000001
00000000
00000100
00000010
00000000
00000100
00000010
00000000
,
00001000
00000100
00000000
00010000
00000000
00000100
00010000
00000000
,
00001000
00010000
00001000
00000000
01000000
00010000
01000000
00000000
,
00100000
01000000
00100000
01000000
00100000
00000000
10000000
00000000
,
20020000
00000000
00000000
00000000
30030000
00000000
00000000
00000000
10000000
00000000
00000000
01000000
00000000
00000000
00100000
00000000
,
00020000
00000000
00000000
00000000
00030000
00000000
00000000
00000000
01000000
00000000
00000000
00010000
00000000
00000000
00100000
00000000
,
00002000
00000000
00000000
00000000
00003000
00000000
00000000
00000000
00010000
00000000
00000000
00000010
00000000
00000000
00001000
00000000
,
00000200
00000300
00000020
00000030
,
00000002
00000000
00000000
00000203
00000000
00000000
00001300
00000000
,
00000200
00000000
00000000
00002300
00000000
00000000
00013000
00000000
,
00100000
00000000
00100000
01000000
00000000
00010000
00000000
20020000
,
00000000
00000000
00000000
30030000
,
10000000
01000000
00100000
00000000
00010000
01000000
00100000
00000000
,
00010000
00000000
00001000
00020000
00000000
00000000
00030000
00000000
,
00002000
00000000
00000000
00003020
00000000
00000000
00000031
00000000
,
00002000
00000000
00000000
00003200
00000000
00000000
00000310
00000000
,
00000001
00000100
00000001
00001000
00000100
00001000
00000100
00010000
,
00001000
00010000
00001000
00000000
00011000
00000000
00000000
00000000
,
01000000
00000000
00010000
00100000
00000000
00010000
00100000
00000000
,
01000000
00000000
10000000
00100000
00000000
10000000
00100000
00000000
,
01000000
00000000
00010000
00100000
00000000
00001000
00000000
00011000
,
00000000
00010000
00000100
00000000
00001000
00000100
00000010
00000000
,
00000001
00000000
00000001
00000200
00000000
00000320
00000000
00002030
,
00000000
00023000
00000000
02030000
00000000
03200000
00000000
10300000
,
01000000
10000000
01000000
10000000
00010000
00100000
00010000
00100000
,
00001000
00010000
00000100
00001000
00000001
00000000
00000000
00000000
,
00000010
00000000
00000001
00000100
00000000
00000010
00001000
00000000
,
00000001
00000000
00000010
00000100
00000000
00010000
00001000
00000000
,
00100000
00010000
01000000
00000000
00010000
00100000
01000000
00000000
,
10000000
00100000
01000000
00100000
10000000
00010000
00100000
01000000
,
10000000
00000000
00000000
00000000
10000000
01000000
00000000
01000000
,
00010000
00000000
00001000
00000020
00000000
00000000
00000030
00000000
,
00000011
00000000
00000000
00000000
00000001
00000100
00000000
00000100
,
00001000
00000000
00010000
00200000
00000000
00000000
00300000
00000000
,
20200000
00000000
00000000
30300000
,
10000000
00000000
00000000
01000000
00000000
00000000
01100000
00000000
00000000
00000000
00000000
00000000
00000000
00000000
00000000
00000000
,
00001000
00000000
00000000
00010000
00000000
00000000
00011000
00000000
00000000
00000000
00000000
00000000
00000000
00000000
00000000
00000000
,
00000100
00000000
00001000
00000000
00000010
00000100
00000010
00000000
,
00001000
00000000
00000001
00000000
00000010
00000100
00000010
00000000
,
00000001
00000100
00000010
00001000
00000100
00010000
00001000
00000000
,
00100000
00010000
01000000
00100000
10000000
01000000
00100000
00000000
,
01000000
00000000
00000000
00000000
01100000
00000000
00000000
00000000
00100000
00000000
00000000
00001000
00000000
00000000
00001000
00000000
,
00010000
00000000
00000000
00000100
00000000
00000000
00000100
00000000
00001000
00000000
00000000
00000010
00000000
00000000
00000010
00000000
,
00000100
00000000
00000001
00000100
00000000
00000010
00001000
00000000
,
00000100
00010000
00000000
00001000
00010000
00000000
00000000
00000000
,
00001000
01000000
00010000
01000000
00010000
00100000
00001000
00000000
,
00010000
00000100
00001000
00000010
00001000
00000000
00000000
00000000
,
00000100
00000000
00001000
00000010
00000000
00001000
00000010
00000000
,
00000100
00000000
00000001
00000010
00000000
00000001
00000010
00000000
,
00000100
00000000
00001000
00000010
00000000
00010000
00000000
00011000
,
00000000
00001000
01000000
00000000
00010000
01000000
00100000
00000000
,
10000000
00000000
10000000
02000000
00000000
03200000
00000000
00320000
,
00000000
00032000
00000000
00003200
00000000
00000320
00000000
00000031
,
00000100
00000001
00000100
00000001
00001000
00000010
00001000
00000010
,
00010000
00001000
00100000
00010000
10000000
00000000
00000000
00000000
,
00100000
00000000
10000000
01000000
00000000
00100000
00010000
00000000
,
10000000
00000000
00100000
01000000
00000000
00001000
00010000
00000000
,
00000010
00001000
00000100
00000000
00001000
00000010
00000100
00000000
,
00000001
00000010
00000100
00000010
00000001
00001000
00000010
00000100
,
00000001
00000000
00000000
00000000
00000001
00000100
00000000
00000100
,
00001000
00000000
00010000
00200000
00000000
00000000
00300000
00000000
,
10100000
00000000
00000000
00000000
10000000
01000000
00000000
01000000
,
00010000
00000000
00001000
00000020
00000000
00000000
00000030
00000000
,
00000001
00000010
00000100
00000000
00001000
00000010
00000100
00000000
,
00001000
00010000
00100000
00000000
01000000
00010000
00100000
00000000
,
02200000
00000000
00000000
03300000
,
10000000
00000000
00000000
00010000
00000000
00000000
10010000
00000000
00000000
00000000
00000000
00000000
00000000
00000000
00000000
00000000
,
10000000
00000000
01000000
00100000
00000000
01000000
00100000
00000000
,
00001000
00010000
00001000
00020000
00000000
00000000
00030000
00000000
,
00001000
00000000
00000010
00000100
00000000
00000010
00000100
00000000
,
00001000
00000001
00001000
00000002
00000000
00000000
00000003
00000000
,
00000001
00000000
00000100
00001000
00000000
00010000
00001000
00000000
,
00100000
00010000
01000000
00200000
00000000
00000000
00300000
00000000
,
10000000
00000000
00000000
01000000
00000000
00000000
10000000
00000000
00000000
00000000
00000000
00000000
00000000
00000000
00000000
00000000
,
00010000
00000000
00000000
01000000
00000000
00000000
00010000
00000000
00000000
00000000
00000000
00000000
00000000
00000000
00000000
00000000
,
00100000
00000000
00000000
00001000
00000000
00000000
00100000
00000000
00000000
00000000
00001000
00000000
00000000
00000000
00000000
00000000
,
00010000
00000010
00001000
00000010
00000100
00000000
00000220
00000000
,
00000000
00000000
00000000
00000000
,
00000000
00000000
00000000
00000000
,
00000330
00000000
00000000
00000000
,
00000000
00000000
00000000
00000000
;
#NOTES:
     dance-double:
     :
     Hard:
     14:
     :
00000000
00000000
00000000
00000000
,
00000000
00000000
00000000
00000000
,
00000000
00000000
00000000
00000000
,
00000000
00000000
00000000
00000000
,
00000000
00000000
00000000
00000000
,
00000000
00000000
00000000
00000000
,
00000000
00000000
00000000
00000000
,
00001000
00000000
00000000
00001000
00000000
00000000
00001000
00000000
00000000
00000000
00000000
00000000
00000000
00000000
00000000
00000000
,
00010000
00000000
00000000
00010000
00000000
00000000
00010000
00000000
00000000
00000000
00000000
00000000
00000000
00000000
00000000
00000000
,
00011000
00000000
00000000
00000000
,
00000000
00000000
00000000
00000000
,
01000000
00010000
01000000
00010000
00100000
00010000
00100000
00010000
,
10000000
01000000
10000000
01000000
00100000
00010000
01000000
00010000
,
00100000
00001000
00010000
00001000
00010000
00000010
00001000
00000100
,
00001000
00000010
00010000
00000100
00010000
00000100
00001000
00000000
,
00000010
00000100
00000010
00000100
00000001
00001000
00000001
00001000
,
00000100
00000010
00000100
00000010
00000100
00010000
00001000
00100000
,
00010000
01000000
00010000
00100000
00001000
00010000
00001000
01000000
,
00010000
00100000
01000000
10000000
00010000
10000000
00010000
00000000
,
10000000
00100000
01000000
00100000
10000000
00010000
00100000
01000000
,
10000000
00100000
01000000
00010000
00100000
00001000
00010000
00000100
,
00001000
00000100
00010000
00000010
00001000
00000100
00010000
00000010
,
00001000
00000010
00000100
00000001
00001000
00000100
00000010
00000000
,
00000001
00000100
00000001
00000100
00000010
00000100
00000010
00000100
,
00001000
00000100
00001000
00010000
00001000
00010000
00001000
00100000
,
00010000
00100000
00010000
00100000
01000000
00100000
01000000
10000000
,
00100000
10000000
01000000
00000000
00100000
00010000
01000000
00000000
,
02200000
00000000
00000000
00000000
03300000
00000000
00000000
00000000
10000000
00000000
00000000
01000000
00000000
00000000
00010000
00000000
,
00022000
00000000
00000000
00000000
00033000
00000000
00000000
00000000
00001000
00000000
00000000
00000010
00000000
00000000
00000001
00000000
,
00002002
00000000
00000000
00000000
00003003
00000000
00000000
00000000
00000001
00000000
00000000
00000100
00000000
00000000
00001000
00000000
,
00020000
00000000
00032000
00000000
,
00103000
00000000
00000000
01000000
00000000
00000000
10000000
00000000
,
01000000
00000000
00000000
00010000
00000000
00000000
00001000
00000000
,
00000010
00000000
00000001
00000100
00000000
00000100
00000000
00000110
,
00000000
00000000
00001000
00000000
00000000
00000000
00001001
00000000
00000000
00000000
00001000
00000001
00001000
00000000
00000000
00000000
,
00000001
00000000
00000001
00000100
00000010
00000000
00000010
00001000
,
00000100
00000000
00010000
00001000
00000000
00010000
00001000
00000000
,
00100000
00000000
00100000
00010000
01000000
00000000
01000000
00100000
,
10000000
00000000
01000000
00100000
00000000
01000000
00100000
00000000
,
00001000
00010000
00100000
00000000
00010000
00001000
00000010
00000000
,
00001000
00000000
00010000
00000000
00001000
00010000
00001000
00010000
00001000
00000000
00000000
00000000
00000000
00000000
00000000
00000000
,
00010000
00001000
00000010
00000001
00000100
00001000
00010000
00001000
,
00000010
00000001
00000100
00001000
00010000
00000010
00000100
00001000
,
00010000
00000010
00001000
00000100
00010000
00000010
00001000
00000100
,
00010000
00001000
00100000
00010000
01000000
00100000
10000000
00000000
,
01000000
00010000
10000000
00000000
00100000
00001000
00010000
00000000
,
00100000
00010000
00001000
00000000
01000000
00010000
00100000
00000000
,
01000000
00010000
00001000
00100000
01000000
00010000
00001000
00100000
,
01000000
00000000
00000000
00010000
00000000
00000000
00001000
00000000
00020000
00000000
00000000
00000000
00000000
00000000
00000000
00000000
,
00030100
00001000
00000010
00000001
00000010
00001000
00000100
00000010
,
00000001
00000100
00001000
00000100
00000001
00000010
00000100
00001000
,
00000010
00000100
00000010
00000100
00001000
00010000
00001000
00010000
,
00100000
01000000
00100000
10000000
00010000
01000000
00010000
00000000
,
10000000
01000000
00100000
00000000
01000000
00100000
00010000
00000000
,
00001000
00000100
00000010
00000000
00000100
00000010
00000001
00000000
,
00000001
00000100
00000010
00000000
00000100
00000010
00001000
00000000
,
00010000
01000000
00100000
00000000
01000000
00100000
10000000
00000000
,
02200000
00000000
00000000
03300000
,
10000000
00000000
00000000
00010000
00000000
00000000
10010000
00000000
00000000
00000000
00000000
00000000
00000000
00000000
00000000
00000000
,
00001000
00000000
00000000
00010000
00000000
00000000
00011000
00000000
00000000
00000000
00000000
00000000
00000000
00000000
00000000
00000000
,
00010000
00000000
00000100
00000000
00001000
00000010
00001000
00000000
,
00000001
00000000
00000100
00000000
00001000
00010000
00001000
00000000
,
01000000
00010000
01000000
00010000
00100000
00010000
00100000
01000000
,
10000000
01000000
01000000
00000000
00010000
01000000
01000000
00000000
,
00100000
00000000
00000000
00000000
10010000
00000000
00000000
00000000
10000000
00000000
00000000
01000000
00000000
00000000
01000000
00000000
,
00010000
00000000
00000000
00001000
00000000
00000000
00001000
00000000
00000010
00000000
00000000
00000001
00000000
00000000
00000001
00000000
,
00000200
00000000
00000000
00000320
00000000
00000000
00020030
00000000
,
00000000
00032000
00000000
00000000
00020000
00000000
00033000
00000000
,
00001000
00010000
00010000
00001000
00010000
00010000
00001000
00000000
,
00010000
00001000
00010000
00001000
00010000
00001000
00010000
00001000
00010000
00000000
00000000
00000000
00000000
00000000
00000000
00000000
,
00001000
00010000
00100000
10000000
01000000
00010000
00001000
00010000
,
00100000
10000000
01000000
00010000
00001000
00100000
01000000
00010000
,
00001000
00100000
00010000
01000000
00001000
00100000
00010000
01000000
,
00001000
00010000
00000010
00001000
00000100
00000010
00000001
00000000
,
00000100
00001000
00000001
00000000
00000010
00010000
00001000
00000000
,
00000010
00001000
00010000
00000000
00000100
00001000
00000010
00000000
,
00000100
00001000
00010000
00000010
00000100
00001000
00010000
00000010
,
00000100
00000000
00000000
00001000
00000000
00000000
00010000
00000000
00002000
00000000
00000000
00000000
00000000
00000000
00000000
00000000
,
01003000
00010000
00100000
10000000
00100000
00010000
01000000
00100000
,
10000000
01000000
00010000
01000000
10000000
00100000
01000000
00010000
,
00100000
01000000
00100000
01000000
00010000
00001000
00010000
00001000
,
00000010
00000100
00000010
00000001
00001000
00000100
00001000
00000000
,
00000001
00000100
00000010
00000000
00000100
00000010
00001000
00000000
,
00010000
01000000
00100000
00000000
01000000
00100000
10000000
00000000
,
10000000
01000000
00100000
00000000
01000000
00100000
00010000
00000000
,
00001000
00000100
00000010
00000000
00000100
00000010
00000001
00000000
,
00000001
00000100
00001000
00000000
00001000
00010000
00100000
00000000
,
10000000
01000000
00010000
00000000
00001000
00000010
00000001
00000000
,
00002002
00000000
00000000
00003003
,
00000010
00000000
00000000
00000100
00000000
00000000
00000110
00000000
00000000
00000000
00000000
00000000
00000000
00000000
00000000
00000000
,
00000001
00000000
00000100
00000010
00000000
00000100
00000010
00000000
,
00000100
00001000
00010000
00200000
00000000
00000000
00300000
00000000
,
10000000
00000000
01000000
00100000
00000000
01000000
00100000
00000000
,
01000000
00010000
00001000
00000020
00000000
00000000
00000030
00000000
,
00000001
00000000
00000100
00001000
00000000
00000100
00000001
00000000
,
00000010
00001000
00010000
02000000
00000000
00000000
03000000
00000000
,
10000000
00000000
00000000
10000000
00000000
00000000
10100000
00000000
00000000
00000000
00000000
00000000
00000000
00000000
00000000
00000000
,
00010000
00000000
00000000
00010000
00000000
00000000
00110000
00000000
00000000
00000000
00000000
00000000
00000000
00000000
00000000
00000000
,
00001000
00000000
00000000
00010000
00000000
00000000
00001000
00000000
00000000
00000000
00011000
00000000
00000000
00000000
00000000
00000000
,
00001000
00010000
00000010
00000100
00000001
00000000
00000022
00000000
,
00000000
00000000
00000000
00000000
,
00000000
00000000
00000000
00000000
,
00000033
00000000
00000000
00000000
,
00000000
00000000
00000000
00000000
;
