
//----- song ID: shis -----//
#TITLE:思想犯;
#ARTIST:ヨルシカ;
#TITLETRANSLIT:Shisouhan;
#ARTISTTRANSLIT:Yorushika;
#BANNER:Shisouhan.png;
#BACKGROUND:Shisouhan-bg.png;
#CDTITLE:./CDTitles/jubeat festo.png;
#MUSIC:Shisouhan.ogg;
#SAMPLESTART:45.863;
#SAMPLELENGTH:15;
#DISPLAYBPM:200;
#BPMS:0=205,4=200;
#NOTES:
     dance-single:
     :
     Beginner:
     3:
     :
0000
0000
0000
0000
,
0000
0000
0000
0000
,
0000
0000
0000
0000
,
0000
0000
0000
0000
,
0000
0000
0000
0000
,
0010
0000
0000
0000
,
0010
0000
0000
0000
,
0001
0000
0100
0000
,
0010
0000
0000
0000
,
0010
0000
0000
0000
,
0010
0000
0000
0000
,
1000
0000
0100
0000
,
0010
0000
0000
0000
,
0001
0000
0000
0000
,
0100
0000
0000
0000
,
0010
0000
1000
0000
,
0010
0000
0000
0000
,
1000
0000
0000
0000
,
0100
0000
0000
0000
,
0010
0000
0100
0000
,
1000
0000
0000
0000
,
1000
0000
0000
0000
,
0010
0000
0000
0000
,
0100
0000
0001
0000
,
0100
0000
0000
0000
,
0001
0000
0000
0000
,
0010
0000
0000
0000
,
0100
0000
0010
0000
,
0001
0000
0000
0000
,
1001
0000
0000
0000
,
1000
0000
0000
0000
,
1001
0000
0000
0000
,
0001
0000
0000
0000
,
1001
0000
0000
0000
,
1000
0000
0000
0000
,
0020
0000
0000
0000
,
0030
0000
0000
0000
,
0100
0000
0100
0000
,
0100
0000
0000
0000
,
0001
0000
0000
0000
,
0010
0000
0000
0000
,
1000
0000
0010
0000
,
1000
0000
0000
0000
,
1000
0000
0000
0000
,
0100
0000
0000
0000
,
0001
0000
0100
0000
,
0001
0000
0000
0000
,
0001
0000
0000
0000
,
0100
0000
0000
0000
,
1000
0000
0100
0000
,
1000
0000
0000
0000
,
1000
0000
0000
0000
,
0010
0000
0000
0000
,
0001
0000
0010
0000
,
0001
0000
0000
0000
,
1000
0000
0000
0000
,
1001
0000
0000
0000
,
2000
0000
0000
0000
,
3000
0000
0000
0000
,
0002
0000
0000
0000
,
0003
0000
0000
0000
,
0001
0000
0000
0000
,
0010
0000
0000
0000
,
0100
0000
0000
0000
,
1000
0000
0000
0000
,
1000
0000
0000
0000
,
0010
0000
0000
0000
,
0100
0000
0000
0000
,
0001
0000
0000
0000
,
0001
0000
0000
0000
,
0100
0000
0000
0000
,
1000
0000
1000
0000
,
1000
0000
0000
0000
,
1000
0000
0000
0000
,
0010
0000
0000
0000
,
0001
0000
0001
0000
,
0001
0000
0000
0000
,
0001
0000
0000
0000
,
1000
0000
0000
0000
,
1001
0000
0000
0000
,
0000
0000
0000
0000
,
1000
0000
0000
0000
,
0100
0000
0000
0000
,
0010
0000
0100
0000
,
1000
0000
0000
0000
,
1000
0000
0000
0000
,
0010
0000
0000
0000
,
0001
0000
0001
0000
,
0001
0000
0000
0000
,
0001
0000
0000
0000
,
0100
0000
0000
0000
,
0010
0000
0100
0000
,
0001
0000
0000
0000
,
0001
0000
0000
0000
,
0100
0000
0000
0000
,
1000
0000
1000
0000
,
1000
0000
0000
0000
,
0001
0000
0000
0000
,
1001
0000
0000
0000
,
0010
0000
0000
0000
,
0010
0000
0000
0000
,
0100
0000
0100
0000
,
0100
0000
0100
0000
,
0000
0000
0000
0000
;
#NOTES:
     dance-single:
     :
     Easy:
     5:
     :
0000
0000
0000
0000
,
0000
0000
0000
0000
,
0000
0000
0000
0000
,
0000
0000
0000
0000
,
0000
0000
0000
0000
,
0001
0000
0010
0000
,
0100
0000
0000
0000
,
1000
0000
0010
0000
,
0100
0000
0000
0000
,
0010
0000
0100
0000
,
0001
0000
0000
0000
,
0010
0000
0100
0000
,
1000
0000
0000
0000
,
0001
0000
0001
0000
,
0100
0000
0000
0000
,
1000
0000
0100
0000
,
0002
0000
0003
0000
,
1000
0000
1000
0000
,
0010
0000
0000
0000
,
0001
0000
0010
0000
,
2000
0000
3000
0000
,
0010
0000
0010
0000
,
1000
0000
0000
0000
,
0100
0000
1000
0000
,
0020
0000
0030
0000
,
0010
0000
0010
0000
,
0001
0000
0000
0000
,
0100
0000
0001
0000
,
0020
0000
0030
0000
,
0010
0000
0010
0000
,
2002
0000
3003
0000
,
0100
0000
0100
0000
,
2002
0000
3003
0000
,
1000
0000
1000
0000
,
0220
0000
0330
0000
,
0001
0000
0001
0000
,
0001
0100
0001
0000
,
1000
0001
1000
0000
,
1001
0000
0000
0000
,
1000
0010
0100
0000
,
0010
0000
1000
0000
,
0001
0100
0001
0000
,
1000
0000
0010
0000
,
0100
0010
0100
0000
,
0001
0000
1000
0000
,
0010
0100
1000
0000
,
0100
0000
1001
0000
,
0001
0100
0010
0000
,
0100
0000
0001
0000
,
1000
0010
1000
0000
,
0001
0000
1000
0000
,
0100
0010
0100
0000
,
1000
0000
0001
0000
,
0100
0010
1000
0000
,
0100
0010
0001
0000
,
0100
0010
0100
0000
,
0110
0000
0000
0000
,
0002
0000
0000
0003
,
2000
0000
0000
3000
,
0002
0000
0000
0003
,
2000
0000
0000
3000
,
0010
0000
0100
0000
,
0001
0000
1000
0000
,
0001
0010
1000
0000
,
0020
0000
0030
0000
,
0100
0000
0001
0000
,
0010
0000
0100
0000
,
1000
0100
0001
0000
,
0200
0000
0300
0000
,
0010
0000
0100
0000
,
0001
0000
1000
0000
,
0010
0100
1000
0100
,
2000
0000
3000
0000
,
0010
0000
1000
0000
,
0001
0000
0010
0000
,
0100
1000
0100
0000
,
0010
0001
0010
0000
,
0001
0000
0100
0000
,
0010
0000
0000
0000
,
2002
0000
0000
0000
,
3003
0000
0000
0000
,
0010
0000
0001
0000
,
0010
0100
1000
0000
,
0001
0000
0010
0000
,
0100
1000
0010
0000
,
0100
0000
0001
0000
,
1000
0001
1000
0000
,
0100
0010
0100
0010
,
0100
0000
1001
0000
,
0010
0000
0100
0000
,
0001
0100
0010
0000
,
1000
0000
0100
0000
,
1000
0001
1000
0000
,
0010
0000
0100
0000
,
0001
0010
0001
0000
,
1000
0000
0010
0000
,
0100
0010
0100
0000
,
0001
0001
1000
1000
,
1001
0000
0000
0000
,
0010
0000
0010
0000
,
1000
0100
1000
0000
,
0001
0010
0100
0000
,
1000
0010
0100
0001
,
0000
0000
0000
0000
;
#NOTES:
     dance-single:
     :
     Medium:
     10:
     :
0000
0000
0000
0000
,
0000
0000
0000
0000
,
0000
0000
0000
0000
,
0000
0000
0000
0000
,
0000
0000
0000
0000
,
1000
0000
0000
0010
0100
0000
0000
0001
,
1000
0100
0001
0100
,
1000
0000
0000
0010
0100
0000
0000
0001
,
1000
0010
0001
0010
,
1000
0000
0000
0100
0010
0000
0000
0001
,
1000
0100
0001
0100
,
1000
0000
0000
0001
1000
0000
0000
0010
,
0100
1000
0100
0001
,
0010
0000
0001
0000
1000
0100
1000
0000
,
0010
0000
0100
0000
0001
1000
0001
0000
,
1000
0010
0100
0001
,
0100
0010
1000
0001
,
1000
0000
0100
0000
0010
0001
0010
0000
,
0001
0000
0100
0000
0010
0100
0010
0000
,
1000
0001
0100
0010
,
0100
0001
1000
0000
,
0001
0000
0100
0000
0010
1000
0001
0000
,
0100
0000
0001
0000
0010
0100
1000
0000
,
0001
0100
1000
0100
,
0001
0010
0100
0000
,
1000
0001
1000
0000
0010
0000
0100
0000
,
0001
1000
0001
0000
0010
0000
0100
0000
,
1000
1000
0010
0010
,
0100
0001
1001
0000
,
0010
0100
0000
0010
0000
0100
0010
0000
,
1000
0001
0000
1000
0000
0001
1000
0000
,
0010
0100
0000
0010
0000
0100
0010
0000
,
1000
0000
0100
0010
0000
0000
0001
0000
,
1000
0100
0000
0010
0000
0001
0010
0000
,
0001
1000
0000
0010
0000
0100
0010
0000
,
2000
0000
0000
3002
0000
0000
0013
0000
,
0000
0100
1000
0010
,
0100
0000
0001
0010
0001
0000
1000
0001
,
1000
2002
0000
3003
,
1000
0100
1000
0000
0010
0000
0100
0000
,
0001
1000
0001
0000
0010
0000
0100
0000
,
1000
0010
0100
0000
0001
0000
1000
0000
,
0010
0001
0010
1000
,
0100
0010
0001
0000
1000
0000
0001
0000
,
0100
0010
1000
0000
0001
0000
0010
0000
,
0002
0013
2000
3010
,
0001
0100
0010
1000
,
0001
0010
0001
0000
0100
0000
0010
0000
,
1000
0001
1000
0000
0100
0000
0010
0000
,
0001
0100
0010
0000
1000
0000
0001
0000
,
0100
1000
0100
0001
,
0010
0100
1000
0000
0001
0000
1000
0000
,
0010
0100
0001
0000
1000
0000
0100
0000
,
1100
0000
1010
0000
,
0101
0000
0011
0000
,
0010
0000
0110
0000
1000
0001
1000
0001
,
1000
0000
0000
0000
,
2200
0000
0000
3300
,
0220
0000
0000
0330
,
0022
0000
0000
0033
,
2002
0000
0000
3003
,
0001
1000
0001
0000
,
0100
0010
0100
0000
,
0010
1000
0010
0000
1000
0000
0001
0000
,
0200
0000
0010
0310
,
1000
0001
1000
0000
,
0100
0010
0100
0000
,
0010
0001
0010
0000
0001
0000
1000
0000
,
0100
0000
0000
0000
,
0010
0010
1000
1000
,
0001
0010
0100
0000
,
0010
0010
0001
0001
,
1000
0010
0100
0000
,
0001
0100
1000
0100
,
0001
0010
1000
0010
,
0001
1000
0100
0001
,
0100
1000
0010
0100
,
0002
0000
0103
0000
,
2000
0000
3010
0000
,
2002
0000
0000
0000
,
3003
0000
0000
0000
,
0010
0000
1000
0000
0001
0100
0010
0000
,
1000
0100
0010
0000
0001
0100
0001
0000
,
0010
0000
0100
0000
1000
0001
0100
0000
,
0010
1000
0100
0000
1000
0001
0100
0000
,
1000
0000
0001
0000
0100
0010
0100
0000
,
0001
0010
0001
0000
1000
0100
1000
0000
,
1010
0010
0101
0100
,
1001
0010
0010
0010
,
0100
0000
0001
0000
1000
0100
0010
0000
,
0001
0100
0010
1000
0010
0000
0100
0000
,
0001
0000
1000
0000
0100
0010
0001
0000
,
1000
0100
1000
0100
0010
0000
0001
0000
,
0100
0000
0010
0000
1000
0001
0100
0000
,
0001
0010
0001
1000
0001
0000
0100
0000
,
0010
0000
1000
0000
0100
1000
0010
0000
,
0100
0001
0100
0001
1000
0010
1000
0000
,
0001
0010
1000
0010
,
0110
0000
0000
0000
,
1000
0000
0000
0100
0010
0000
0010
0000
,
0001
0000
0000
0100
0010
0000
0010
0000
,
0000
1000
0010
0000
1000
0100
0000
1000
,
0001
0000
0010
0001
0000
0100
0001
1000
,
0000
0000
0000
0000
;
#NOTES:
     dance-single:
     :
     Hard:
     13:
     :
0000
0000
0000
0000
,
0000
0000
0000
0000
,
0000
0000
0000
0000
,
0000
0000
0000
0000
,
0000
0000
0000
0000
,
1000
0000
0001
0100
0001
0000
1000
0100
,
1000
0000
1010
1001
,
0001
0000
0100
0010
1000
0000
0100
0010
,
0001
0000
0101
1001
,
0001
0000
1000
0010
1000
0000
0001
0010
,
0001
0000
0101
1001
,
1000
0000
0010
0100
0001
0000
0010
0100
,
1000
0010
0100
1001
,
0100
0000
0010
0000
1000
0010
1000
0000
,
0100
0000
0010
0000
0001
0010
0001
0000
,
1000
0100
0010
0000
0001
0100
0010
0000
,
1000
0000
0010
0010
,
1000
0100
0010
0001
1000
0000
1000
0000
,
0001
0100
0010
1000
0001
0000
0001
0000
,
0100
0010
0100
0000
0010
0100
0010
0000
,
1000
0100
0000
1000
0100
0010
0100
0000
,
0010
0000
0010
0000
0001
0010
0001
0000
,
0100
0000
0010
0000
1000
0010
1000
0000
,
0001
0100
0010
0000
1000
0100
0010
0001
,
1000
0001
1000
0000
0001
0000
0010
0000
,
0001
1000
0010
1000
0001
0000
0001
0000
,
1000
0001
0010
0001
1000
0000
1000
0000
,
0100
0010
0100
0000
0010
0001
0010
0000
,
0001
0100
0001
0100
0010
0000
1000
0000
,
0001
0001
0000
0011
0000
0010
0001
0000
,
1000
1000
0000
1010
0000
0010
1000
0000
,
0001
0001
0000
0101
0000
0100
0001
0000
,
1100
0000
1000
0100
0000
0100
1000
0000
,
0001
0010
0000
0101
0000
0100
0001
0000
,
1000
0010
0000
1100
0000
1000
0100
0000
,
2000
3020
0230
0302
,
0023
0100
0100
0100
,
0031
0100
0010
1000
0100
0010
0001
1000
,
0001
0220
0000
0330
,
1000
0100
0010
0001
1000
0001
0100
0001
,
1000
0010
0100
0001
1000
0010
0100
0010
,
1000
0100
1000
0100
0010
0001
0010
0001
,
0100
0001
0010
0001
1000
0100
1000
0001
,
0100
0010
0100
0010
1000
0001
1000
0001
,
0100
0010
1000
0001
0010
0001
1000
0100
,
1200
0310
0201
0310
,
1000
0100
0001
0000
1000
0010
0001
0000
,
0100
0001
0010
0001
0100
0001
0010
0001
,
1000
0100
0010
0001
1000
0010
0100
0001
,
1000
0010
0100
0010
1000
0001
0100
0001
,
0010
0100
1000
0001
1000
0100
0010
0100
,
1000
0010
0100
0001
1000
0010
0100
0001
,
1000
0100
0001
0100
1000
0010
0001
0010
,
1000
0100
1000
0100
0010
0001
0010
0001
,
0010
1000
0010
1000
0001
0100
0001
0100
,
1000
0010
0100
0010
1000
0001
0010
0100
,
0110
0000
0000
0000
,
2000
0000
0000
3000
,
0020
0000
0000
0030
,
0002
0000
0000
0003
,
0200
0000
0000
0300
,
1000
0010
1000
0010
1000
0000
0000
0000
,
0001
0100
0001
0100
0001
0000
0000
0000
,
1000
0001
1000
0001
0100
0010
1000
0010
,
0100
0000
0000
0000
0010
0100
0010
0000
,
0002
0100
0100
0103
,
2000
0100
0100
3100
,
0002
0013
2000
3010
,
0110
0000
0000
0000
0010
0100
0010
0000
,
1000
0100
1000
0100
1000
0000
0000
0000
,
0001
0010
0001
0010
0001
0000
0000
0000
,
1000
0001
0010
0100
0010
0001
1000
0010
,
0100
0000
0000
0100
0010
0000
0000
0000
,
2010
0001
0010
3010
,
0012
1000
0010
0013
,
0100
0010
1000
0000
0001
0000
1000
0000
,
0100
0010
0001
0000
1000
0000
0001
0000
,
1000
0100
1000
0000
0010
1000
0010
0000
,
0100
0001
0100
0000
0001
0010
0001
0000
,
2002
0000
0000
0000
,
3003
0000
0000
0000
,
0001
0010
0100
1000
0001
1000
0010
1000
,
0001
0100
0010
1000
0001
0010
0100
1000
,
0001
0010
0001
0010
0100
1000
0100
1000
,
0010
1000
0100
1000
0001
0010
0001
0100
,
0010
0100
0010
0100
0001
1000
0001
1000
,
0010
0100
0001
1000
0100
1000
0001
0010
,
0021
0130
1020
0130
,
0001
0010
1000
0000
0001
0100
1000
0000
,
0001
1000
0100
1000
0010
1000
0100
1000
,
0001
0010
0100
1000
0001
0100
0010
1000
,
0001
1000
0010
0100
0001
0100
0010
1000
,
0100
0010
0001
1000
0001
0010
0100
1000
,
0001
0100
0010
1000
0001
0100
0010
1000
,
0001
0100
0010
0100
0010
1000
0001
1000
,
0001
0010
0001
0010
0100
1000
0100
1000
,
0100
0001
0100
0001
1000
0010
1000
0010
,
0001
1000
0010
1000
0100
0010
0001
0100
,
0110
0000
0000
0000
,
1001
0000
0000
0010
1000
0010
1000
0000
,
1001
0000
0000
0010
0001
0010
0001
0010
,
0000
0001
0100
0010
0001
1000
0100
0010
,
1000
0100
0001
1000
0010
0100
1000
0010
,
0000
0000
0000
0000
;
#NOTES:
     dance-double:
     :
     Easy:
     5:
     :
00000000
00000000
00000000
00000000
,
00000000
00000000
00000000
00000000
,
00000000
00000000
00000000
00000000
,
00000000
00000000
00000000
00000000
,
00000000
00000000
00000000
00000000
,
10000000
00000000
00100000
00000000
,
01000000
00000000
01000000
00000000
,
00010000
00000000
00100000
00000000
,
01000000
00000000
01000000
00000000
,
00010000
00000000
00001000
00000000
,
00010000
00000000
00001000
00000000
,
00000010
00000000
00000001
00000000
,
00001001
00000000
00000000
00000000
,
00000001
00000000
00000010
00000000
,
00000001
00000000
00000010
00000000
,
00000100
00000000
00001000
00000000
,
00000100
00000000
00000000
00000000
,
00010000
00000000
00001000
00000000
,
00100000
00000000
00010000
00000000
,
01000000
00000000
00010000
00000000
,
10000000
00000000
00000000
00000000
,
10000000
00000000
00100000
00000000
,
10000000
00000000
00100000
00000000
,
01000000
00000000
00010000
00000000
,
01000000
00000000
00000000
00000000
,
00001000
00000000
00010000
00000000
,
00000010
00000000
00001000
00000000
,
00000100
00000000
00001000
00000000
,
00000001
00000000
00000000
00000000
,
00000020
00000000
00000030
00000000
,
00001000
00000000
00011000
00000000
,
00200000
00000000
00300000
00000000
,
00010000
00000000
00011000
00000000
,
00000200
00000000
00000300
00000000
,
00001000
00000000
00011000
00000000
,
01000000
00000000
01000000
00000000
,
00100000
00000000
00100000
00000000
,
10000000
00010000
10000000
00010000
,
10000000
00000000
00000000
00000000
,
01000000
00000000
00100000
00000000
,
00010000
00100000
00010000
00000000
,
00100000
00000000
00001000
00000000
,
00010000
00001000
00010000
00000000
,
00000100
00000000
00000010
00000000
,
00000001
00000010
00000100
00000000
,
00000010
00000000
00000001
00000000
,
00000100
00000000
00001000
00000000
,
00010000
00000000
00001000
00000000
,
01000000
00010000
00100000
00000000
,
00010000
00000000
10000000
00000000
,
01000000
00100000
00010000
00000000
,
00100000
00000000
01000000
00000000
,
00010000
00001000
00010000
00000000
,
00000010
00000000
00001000
00000000
,
00000100
00000010
00000001
00000000
,
00001000
00000000
00000001
00000000
,
00001001
00000000
00000000
00000000
,
00002000
00000000
00000000
00000000
,
00000000
00000000
00003000
00000000
,
00020000
00000000
00000000
00000000
,
00000000
00000000
00030000
00000000
,
00100000
00000000
10000000
00000000
,
01000000
00000000
00010000
00000000
,
00001000
00010000
00001000
00000000
,
00022000
00000000
00033000
00000000
,
00000010
00000000
00001000
00000000
,
00000100
00000000
00010000
00000000
,
00001000
00010000
00001000
00000000
,
00022000
00000000
00033000
00000000
,
00000010
00000000
00000001
00000000
,
00000100
00000000
00001000
00000000
,
00010000
00001000
00010000
00001000
,
00010000
00000000
00011000
00000000
,
00100000
00000000
01000000
00000000
,
00010000
00000000
00001000
00000000
,
00000010
00000000
00000100
00000000
,
00010000
00000000
00001000
00000000
,
00010000
00000000
00000100
00000000
,
00000010
00000001
00001000
00000000
,
00002002
00000000
00000000
00000000
,
00003003
00000000
00000000
00000000
,
00000010
00000000
00000100
00000000
,
00001000
00000100
00010000
00000000
,
00001000
00000000
01000000
00000000
,
00001000
00010000
00001000
00000000
,
01000000
00000000
00100000
00000000
,
10000000
01000000
00100000
00000000
,
00001000
00000000
00010000
00000000
,
00022000
00000000
00033000
00000000
,
00001000
00000000
00010000
00000000
,
00000010
00001000
00000100
00000000
,
00000010
00000000
00000001
00000000
,
00000100
00000010
00001000
00000000
,
00000100
00000000
00010000
00000000
,
00001000
00010000
00001000
00000000
,
01000000
00000000
00010000
00000000
,
00100000
01000000
10000000
00000000
,
00010000
00010000
10000000
10000000
,
10010000
00000000
00000000
00000000
,
01000000
00000000
01000000
00000000
,
00001000
00010000
00001000
00000000
,
00000010
00000000
00000010
00000000
,
00001000
00000100
00000010
00000001
,
00000000
00000000
00000000
00000000
;
#NOTES:
     dance-double:
     :
     Medium:
     10:
     :
00000000
00000000
00000000
00000000
,
00000000
00000000
00000000
00000000
,
00000000
00000000
00000000
00000000
,
00000000
00000000
00000000
00000000
,
00000000
00000000
00000000
00000000
,
10000000
00000000
00000000
01000000
00100000
00000000
01000000
00000000
,
00010000
00001000
00000010
00000000
,
00000001
00000000
00000000
00000100
00000010
00000000
00000100
00000000
,
00001000
00010000
00100000
00000000
,
10000000
00000000
00000000
00100000
01000000
00000000
00100000
00000000
,
00010000
00001000
00000100
00000000
,
00000001
00000000
00000000
00000010
00000100
00000000
00000010
00000000
,
00001000
00010000
01000000
00000000
,
10000000
00000000
00010000
00000000
00100000
00001000
00100000
00000000
,
00010000
00000000
10000000
00000000
01000000
00100000
01000000
00000000
,
00100000
00001000
00010000
00000010
,
00001000
00000001
00000100
00000100
,
00001000
00000000
00010000
00000000
00001000
01000000
00001000
00000000
,
00010000
00000000
00000010
00000000
00010000
00001000
00010000
00000000
,
00001000
00010000
00000100
00001000
,
00000010
00000100
00000001
00000000
,
00000001
00000000
00001000
00000000
00000010
00010000
00000010
00000000
,
00001000
00000000
00000001
00000000
00000100
00000010
00000100
00000000
,
00000010
00010000
00001000
00100000
,
00010000
10000000
01000000
00000000
,
00010000
00000000
00001000
00000000
00010000
00000100
00010000
00000000
,
00001000
00000000
00100000
00000000
00001000
00010000
00001000
00000000
,
00010000
00001000
01000000
00010000
,
00100000
01000000
10000000
00000000
,
00010000
00100000
00000000
01000000
00000000
00100000
00010000
00000000
,
00100000
00001000
00000000
00010000
00000000
00001000
00100000
00000000
,
00001000
00010000
00000000
00000100
00000000
00010000
00001000
00000000
,
00010000
00000000
00000010
00001000
00000000
00000000
00000100
00000000
,
00000010
00000001
00000000
00001000
00000000
00000001
00000010
00000000
,
00000100
00001000
00000000
00000010
00000000
00001000
00000100
00000000
,
00020000
00000000
00000000
00032000
00000000
00000000
00013000
00000000
,
00000000
00001000
00010000
00010000
,
00001000
00000000
00010000
00100000
00010000
00000000
00100000
01000000
,
00100000
02200000
00000000
03300000
,
00100000
10000000
00100000
00000000
10000000
00000000
01000000
00000000
,
00100000
00010000
00100000
00000000
00001000
00000000
00010000
00000000
,
00000100
00001000
00000100
00000000
00000010
00000000
00000001
00000000
,
00001000
00000010
00000001
00000010
,
00001000
00000001
00001000
00000000
00000100
00000000
00000010
00000000
,
00000100
00001000
00000100
00000000
00010000
00000000
00001000
00000000
,
00010000
00100000
01000000
00100000
,
01100000
10000000
00010000
10000000
,
01000000
10000000
01000000
00000000
10000000
00000000
00100000
00000000
,
01000000
00010000
01000000
00000000
00001000
00000000
00010000
00000000
,
00000010
00001000
00000010
00000000
00000100
00000000
00000001
00000000
,
00001000
00000100
00000001
00000100
,
00001000
00000001
00001000
00000000
00000010
00000000
00000100
00000000
,
00000010
00001000
00000010
00000000
00010000
00000000
00001000
00000000
,
00011000
00000000
00110000
00000000
,
01100000
00010000
10000000
01000000
,
00010000
00000000
00011000
00000000
00001000
00010000
00001000
00010000
,
00001000
00000000
00000000
00000000
,
00020000
00000000
00000000
00030000
,
00002000
00000000
00000000
00003000
,
00000200
00000000
00000000
00000300
,
00000002
00000000
00000000
00000003
,
00000010
00000001
00000100
00000000
,
00000010
00001000
00000100
00000000
,
00000010
00000000
00001000
00000000
00010000
00001000
00010000
00001000
,
00020000
00000000
00031000
00010000
,
00100000
10000000
01000000
00000000
,
00100000
00010000
01000000
00000000
,
00100000
00000000
00010000
00000000
00001000
00010000
00001000
00000000
,
00020000
00000000
00030000
00000000
,
00001000
00000010
00001000
00000010
,
00000001
00000100
00000010
00000000
,
00000100
00001000
00000100
00001000
,
00010000
00001000
00010000
00000000
,
00100000
10000000
00100000
00010000
,
00100000
00001000
00010000
01000000
,
00100000
00001000
00010000
00001000
,
00000100
00000010
00010000
00001000
,
00000010
00000100
00000001
00000100
,
00001000
00000010
00001000
00000000
,
00002002
00000000
00000000
00000000
,
00003003
00000000
00000000
00000000
,
00000001
00000000
00000100
00000000
00000010
00000100
00000010
00000000
,
00000100
00000000
00001000
00000000
00010000
00001000
00010000
00000000
,
00001000
00000000
00100000
00000000
00010000
00100000
01000000
00000000
,
10000000
00100000
01000000
00000000
00010000
00000000
10000000
00000000
,
00100000
00000000
01000000
00000000
00010000
00100000
00010000
00000000
,
01000000
00000000
00001000
00000000
00100000
00001000
00100000
00000000
,
00010000
00001000
00000100
00000010
,
00000001
00001000
00001000
00001000
,
00000010
00000000
00000100
00000000
00000001
00000010
00000100
00000000
,
00001000
00000000
00000010
00000000
00000100
00000010
00001000
00000000
,
00000100
00000000
00010000
00000000
00001000
01000000
00010000
00000000
,
00100000
01000000
10000000
00000000
00100000
01000000
00010000
00000000
,
00100000
10000000
00100000
00010000
,
01000000
00000000
00010000
00000000
00100000
00001000
00010000
00000000
,
00000100
00000000
00010000
00000000
00000010
00001000
00000100
00000000
,
00000010
00000001
00000010
00000001
00001000
00000010
00001000
00000000
,
00000010
00000100
00001000
00010000
,
00011000
00000000
00000000
00000000
,
10000000
01000000
00000000
01000000
00100000
00000000
00010000
00000000
,
00001000
00000100
00000000
00000100
00000010
00000000
00000001
00000000
,
00000000
00000001
00000100
00000000
00000010
00000100
00000000
00001000
,
00000100
00000000
00001000
00010000
00000000
00001000
00010000
00001000
,
00000000
00000000
00000000
00000000
;
#NOTES:
     dance-double:
     :
     Hard:
     13:
     :
00000000
00000000
00000000
00000000
,
00000000
00000000
00000000
00000000
,
00000000
00000000
00000000
00000000
,
00000000
00000000
00000000
00000000
,
00000000
00000000
00000000
00000000
,
00000010
00000000
00000001
00000010
00000001
00000000
00001000
00000100
,
00001000
00000000
00000000
00000000
00000010
00010000
00001000
00000000
,
00100000
00000000
00010000
01000000
00010000
00000000
10000000
00100000
,
10000000
00000000
00000000
00000000
01000000
00100000
01000000
00000000
,
10000000
00000000
01000000
00100000
00010000
00000000
00100000
00001000
,
00010000
00000000
00000000
00000000
00001000
00010000
00001000
00000000
,
00010000
00000000
00000100
00001000
00000010
00000000
00000100
00000001
,
00001000
00000100
00000010
00000001
,
00001000
00000000
00000100
00000000
00000010
00000001
00000010
00000000
,
00000100
00000000
00010000
00000000
00001000
00010000
00001000
00000000
,
00100000
00010000
00100000
00000000
01000000
10000000
01000000
00000000
,
00100000
00000000
00000000
00000000
00010000
10000000
00010000
00000000
,
10000000
00100000
10000000
00100000
01000000
00000000
00010000
00000000
,
00100000
00001000
00100000
00001000
00010000
00000000
00001000
00000000
,
00010000
00001000
00010000
00000000
00001000
00010000
00001000
00000000
,
00010000
00000100
00000000
00001000
00000100
00000000
00000110
00000000
,
00001000
00000100
00000010
00000000
00000001
00000000
00001000
00000000
,
00000001
00000100
00000010
00000000
00000100
00000000
00001000
00000000
,
00010000
00001000
00010000
00001000
01000000
00010000
00100000
00000000
,
00010000
00100000
10000000
01000000
,
10000000
00100000
10000000
00100000
01000000
00000000
00010000
00000000
,
00100000
00001000
00100000
00001000
00010000
00000000
00001000
00000000
,
00010000
00000010
00001000
00000000
00000010
00000100
00000001
00000000
,
00001000
00000100
00000010
00000001
00001000
00000000
00000001
00000000
,
00000010
00000001
00000000
00000010
00000000
00000001
00000010
00000100
,
00001000
00000100
00000000
00001000
00000000
00000100
00010000
00001000
,
00100000
00010000
00000000
00100000
00000000
00010000
00100000
01000000
,
10000000
00000000
00100000
01000000
00000000
00010000
01000000
00000000
,
00100000
10000000
00000000
00100000
00000000
10000000
00100000
01000000
,
00010000
01000000
00000000
00010000
00000000
00100000
00001000
00010000
,
00000200
00000000
00000000
00000320
00000000
00000000
00000032
00000000
,
00000000
00002003
00000001
00003001
,
00000001
00000000
00000100
00001000
00010000
00000000
00001000
00010000
,
00001000
00022000
00000000
00033000
,
00001000
00100000
00010000
01000000
00010000
00100000
01000000
10000000
,
00100000
10000000
01000000
00100000
00010000
01000000
00100000
01000000
,
00010000
00100000
00001000
00010000
00001000
01000000
00010000
00100000
,
00001000
00010000
00000100
00001000
00000100
00000010
00000001
00001000
,
00000010
00000100
00000001
00001000
00000001
00000100
00000001
00000010
,
00000100
00001000
00000010
00001000
00000100
00010000
00001000
00010000
,
00000010
00011000
00100000
00011000
,
00000010
00000100
00001000
00010000
,
01000000
10000000
01000000
00100000
00010000
01000000
00100000
10000000
,
01000000
00100000
00010000
00100000
00001000
00010000
00000010
00001000
,
00000100
00000010
00000001
00001000
00000001
00000010
00000100
00001000
,
00000010
00000100
00000010
00001000
00000100
00010000
00001000
00010000
,
00001000
01000000
00001000
00100000
00001000
00010000
00000100
00001000
,
00000100
00000010
00000001
00000010
00000100
00001000
00000010
00001000
,
00000100
00000000
00010000
00001000
00100000
00000000
01000000
10000000
,
00100000
00000000
10000000
00100000
01000000
00000000
00010000
01000000
,
00100000
00000000
10000000
00010000
01000000
00001000
00010000
00001000
,
00011000
00000000
00000000
00000000
,
00000200
00000000
00000000
00000300
,
00000002
00000000
00000000
00000003
,
00000020
00000000
00000000
00000030
,
00002000
00000000
00000000
00003000
,
00010000
00000000
01000000
00010000
01000000
00000000
00000000
00000000
,
10000000
00000000
00100000
10000000
00100000
00000000
00000000
00000000
,
01000000
00010000
01000000
00010000
00100000
00001000
00010000
00001000
,
00010000
00000000
00000000
00000000
00001000
00010000
00001000
00000000
,
00020000
00000010
00030010
00000000
,
00000200
00001000
00001300
00000000
,
00020000
00001000
00031000
00000000
,
02000000
00010000
03010000
00000000
,
00001000
00000000
00000100
00001000
00000100
00000000
00000000
00000000
,
00000001
00000000
00000010
00000001
00000010
00000000
00000000
00000000
,
00000100
00001000
00000100
00001000
00000010
00010000
00001000
00010000
,
00001000
00000000
00000000
00001000
00010000
00000000
00000000
00000000
,
00020000
00000000
00130000
01000000
00100000
00000000
00000000
00000000
,
20000000
00000000
31000000
00100000
01000000
00000000
00000000
00000000
,
00020000
00000000
00031000
00010000
00001000
00000000
00000000
00000000
,
00000020
00000000
00000130
00000010
00000100
00000000
00000000
00000000
,
00000001
00000010
00000001
00000000
00001000
00000100
00001000
00000000
,
00000010
00010000
00001000
00010000
,
00022000
00000000
00000000
00000000
,
00033000
00000000
00000000
00000000
,
00010000
00000100
00001000
00000010
00001000
00000100
00000010
00000001
,
00000100
00000001
00000010
00000100
00001000
00000010
00000100
00000010
,
00001000
00000100
00010000
00001000
00010000
00000010
00001000
00000100
,
00010000
00001000
00100000
00010000
00100000
01000000
10000000
00010000
,
01000000
00100000
10000000
00010000
10000000
00100000
10000000
01000000
,
00100000
00010000
01000000
00010000
00100000
00001000
00010000
00001000
,
01000000
00011000
00000100
00011000
,
01000000
00100000
00010000
00001000
,
00000010
00000001
00000010
00000100
00001000
00000010
00000100
00000001
,
00000010
00000100
00001000
00000100
00010000
00001000
01000000
00010000
,
00100000
01000000
10000000
00010000
10000000
01000000
00100000
00010000
,
01000000
00100000
01000000
00010000
00100000
00001000
00010000
00001000
,
00010000
00000010
00010000
00000100
00010000
00001000
00100000
00010000
,
00100000
01000000
10000000
01000000
00100000
00010000
01000000
00010000
,
00100000
00000000
00001000
00010000
00000100
00000000
00000010
00000001
,
00000100
00000000
00000001
00000100
00000010
00000000
00001000
00000010
,
00000100
00000000
00000001
00001000
00000010
00010000
00001000
00010000
,
00011000
00000000
00000000
00000000
,
01000000
00000000
00000000
10000000
00100000
10000000
00100000
00000000
,
00010000
00000000
00000000
00001000
00000010
00001000
00000010
00000000
,
00000000
00000001
00000010
00000100
00001000
00000010
00000100
00001000
,
00010000
00100000
01000000
00010000
00100000
01000000
10000000
00010000
,
00000000
00000000
00000000
00000000
;
