
//----- song ID: shij -----//
#TITLE:至上のラトゥーリア;
#ARTIST:Vanitas Lacrimosa;
#TITLETRANSLIT:Shijou no laturia;
#BANNER:Shijou no laturia.png;
#BACKGROUND:Shijou no laturia-bg.png;
#CDTITLE:./CDTitles/pop'n music peace.png;
#MUSIC:Shijou no laturia.ogg;
#SAMPLESTART:68.093;
#SAMPLELENGTH:15;
#BPMS:0=135;
#NOTES:
     dance-single:
     :
     Beginner:
     3:
     :
0000
0000
0000
0000
,
0000
0000
0000
0000
,
0000
0000
0000
0000
,
0000
0000
0000
0000
,
0000
0000
0000
0000
,
0002
0000
0000
0000
,
0003
0000
0000
0000
,
0001
0001
0001
0000
,
0010
0000
0100
0000
,
1000
1000
1000
0000
,
0100
0000
0010
0000
,
0001
0000
0100
0000
,
0001
0001
0100
0000
,
0001
0000
0010
0000
,
1000
0000
0000
0000
,
1000
0000
0100
0000
,
1000
1000
0100
0000
,
1000
0000
0010
0000
,
0001
0000
0000
0000
,
0002
0000
0000
0000
,
0003
0000
0000
0000
,
0200
0000
0000
0000
,
0300
0000
0000
0000
,
0020
0000
0000
0000
,
0030
0000
0000
0000
,
2000
0000
0000
0000
,
3000
0000
0000
0000
,
1000
0000
0100
0000
,
0010
0010
0010
0000
,
0100
0000
0001
0000
,
0100
0000
0000
0000
,
0001
0000
0100
0000
,
0010
0010
0010
0000
,
0001
0000
1000
0000
,
1001
0000
0000
0000
,
1000
0000
0001
0000
,
1001
0000
0000
0000
,
0010
0000
0100
0000
,
1001
0000
0000
0000
,
0010
0010
0010
0000
,
0100
0100
0100
0000
,
1000
0000
0100
0000
,
0001
0000
0000
0000
,
0001
0000
0100
0000
,
0001
0000
0100
0000
,
0010
0000
1000
0000
,
0010
0000
0000
0000
,
1000
1000
0010
0000
,
0001
0001
0010
0000
,
1000
0000
0100
0000
,
0001
0000
0000
0000
,
0010
0000
0010
0000
,
0100
0000
0100
0000
,
2002
0000
0000
0000
,
3003
0000
0000
0000
,
0001
0000
0100
0000
,
0010
0000
0010
0000
,
1000
0000
0100
0000
,
0010
0000
0010
0000
,
0001
0000
0010
0000
,
1000
0000
0001
0000
,
1001
0000
0000
0000
,
0000
0000
0000
0000
;
#NOTES:
     dance-single:
     :
     Easy:
     6:
     :
0000
0000
0000
0000
,
0000
0000
0000
0000
,
0000
0000
0000
0000
,
0000
0000
0000
0000
,
0000
0000
0000
0000
,
0020
0000
0000
0000
,
0030
0000
0000
0000
,
0001
1000
0001
0000
,
1000
0001
1000
0000
,
0100
0010
0100
0000
,
0010
0100
0010
0000
,
0001
0100
0010
1000
,
0010
0100
0001
0000
,
1000
0100
0010
0001
,
0010
0100
1000
0000
,
0010
0100
0001
0010
,
0100
1000
0001
0000
,
0100
0010
1000
0100
,
0010
0001
1000
0001
,
0200
0000
0310
0000
,
2000
0000
3100
0000
,
0002
0000
0013
0000
,
0002
0000
0103
0000
,
2000
0000
3100
0000
,
0200
0000
0310
0000
,
0020
0000
0031
0000
,
2002
0000
3003
0000
,
0001
1000
0100
1000
,
0001
0001
0001
0000
,
1000
0001
1000
0100
,
1000
1000
1000
0000
,
0001
0000
0000
1000
0000
0000
0001
0000
,
0000
1000
0000
0000
1001
0000
1001
0000
,
0001
0010
0001
0100
,
0101
0000
1100
0000
,
1000
0010
1000
0100
,
1100
0000
0101
0000
,
0001
0100
0010
1000
,
1001
0000
0000
0000
,
0010
0100
0010
0100
,
0010
1000
0010
1000
,
1010
0000
1100
0000
,
1001
0000
0000
0000
,
0100
0010
0100
1000
,
0100
0010
0100
0000
,
0001
0100
0001
0000
,
2002
0000
3003
0000
,
0011
0000
0101
0000
,
1001
0000
0110
0000
,
0001
0001
0001
0010
,
0200
0000
0300
0000
,
1000
0000
0000
0010
0000
0000
1000
0000
,
0001
0000
0000
0100
0000
0000
0001
0000
,
1000
0001
1000
0001
,
2002
0000
3003
0000
,
0001
0100
0010
0000
,
0100
0001
1000
0000
,
0100
0010
0001
0000
,
0010
0100
1000
0000
,
0010
0100
0010
0000
,
1000
0100
0010
0001
,
1000
0000
0000
0001
0000
0000
1000
0000
,
0000
0001
0000
0000
0000
0000
0000
0000
,
0000
0000
0000
0000
;
#NOTES:
     dance-single:
     :
     Medium:
     9:
     :
0000
0000
0000
0000
,
0000
0000
0000
0000
,
0000
0000
0000
0000
,
0000
0000
0000
0000
,
0000
0000
0000
0000
,
0002
0000
0000
0003
,
2000
0000
0000
3000
,
0001
0000
0000
0001
0000
0000
0001
0000
0000
0000
0000
0000
0000
0000
0000
0000
,
1000
0000
0000
0010
0000
0100
0000
0010
0000
0000
0000
0000
0100
0000
0001
0000
,
1000
0000
0000
1000
0000
0000
1000
0000
0000
0000
0000
0000
0000
0000
0000
0000
,
0001
0000
0000
0010
0000
0100
0000
0010
0000
0000
0000
0000
0001
0000
1000
0000
,
0001
0100
0010
1000
0010
0100
0010
0000
,
1000
0100
0010
0100
1000
0001
0010
0000
,
0001
0100
0010
1000
0100
0010
0001
0000
,
0100
0001
1000
0100
1000
0010
0100
0000
,
0001
1000
0001
0010
0100
1000
0010
0000
,
0100
0001
0100
1000
0100
0001
1000
0000
,
0100
0010
0001
0010
0100
1000
0010
0000
,
0100
0000
1000
0000
0100
0000
0001
0000
0100
0000
0000
0100
0000
0000
0100
0000
,
0010
0000
0000
0010
0000
0000
0010
0000
,
1000
0000
0000
1000
0000
0000
1000
0000
,
0100
0000
0000
0100
0000
0000
0100
0000
,
0010
0000
0000
0010
0000
0000
0010
0000
,
0001
0000
0000
0100
0000
0000
0001
0000
,
1000
0000
0000
0100
0000
0000
1000
0000
,
0010
0000
0000
0100
0000
0000
0010
0000
,
0200
0000
0300
0000
,
1000
0000
0000
0000
0010
0000
0000
0000
1000
0000
0000
1000
0000
0000
0100
0000
,
0010
0000
0000
0010
0000
0000
0001
0000
2000
0000
0000
0000
3000
0000
0000
0000
,
0001
0000
0000
0100
0000
0000
0100
0000
1000
0000
0000
0100
0000
0000
0100
0000
,
0001
0000
0000
0010
0000
0000
0010
0000
1000
0000
0000
0000
0010
0000
0010
0000
,
0001
0100
0100
0001
0100
0100
0010
1000
,
1000
0010
0100
0100
0002
0000
2003
0000
,
3010
0100
0010
0100
0001
1000
0001
0000
,
2000
3200
0320
0032
,
0103
0010
0100
0010
1000
0001
1000
0000
,
0002
0023
0230
2300
,
3010
0000
0100
0000
0001
0000
1000
0000
0100
0000
0000
0100
0000
0000
0100
0000
,
0110
0000
0000
0000
,
1000
0100
1000
0100
0010
0001
0010
0000
,
0001
0010
0100
1000
0100
1000
0001
0000
,
1000
0000
0000
0001
0000
0000
0010
0000
0001
0000
0000
0100
0000
0000
0010
0000
,
1000
0000
0000
0000
0010
0100
0010
0000
,
1000
0000
0000
1000
0000
0000
1000
0000
0001
0000
0000
0001
0000
0000
0001
0000
,
1000
0000
0000
0001
0000
0000
1000
0000
0002
0000
0000
0000
0003
0000
0000
0000
,
0010
0000
0000
0100
0000
0000
0010
0000
0100
0000
0000
0000
0001
0000
1000
0000
,
0000
1000
0100
0010
0100
0010
0001
0000
,
0100
0000
0000
0100
0000
0000
0100
0000
0010
0000
0000
0010
0000
0000
0010
0000
,
0100
0000
0000
0010
0000
0000
0100
0000
0110
0000
0000
0000
0000
0000
0000
0000
,
1000
0000
0000
0100
0000
0000
1000
0000
0000
0000
1000
0000
0100
0000
0020
0000
,
0000
0000
0100
0130
,
1000
0010
1000
0000
0010
1000
0010
0000
,
0100
0001
0100
0000
0001
0100
0001
0000
,
1000
0001
1000
0001
1000
0001
1000
0001
,
2000
0000
3000
0000
,
0001
0000
0100
0000
0001
1000
0001
0000
,
0010
1000
0100
0000
,
1000
0000
0010
0000
0100
0001
0100
0000
,
0010
1000
0100
0000
,
0010
0000
0001
0000
0010
1000
0010
0000
,
0001
0100
0010
1000
,
0010
0000
0000
0100
0000
0000
0001
0000
,
0000
2000
0000
0000
0000
0000
0000
0000
,
3000
0000
0000
0000
,
0000
0000
0000
0000
;
#NOTES:
     dance-single:
     :
     Hard:
     12:
     :
0000
0000
0000
0000
,
0000
0000
0000
0000
,
0000
0000
0000
0000
,
0000
0000
0000
0000
,
0000
0000
0000
0000
,
0002
0000
0000
0003
,
2000
0000
0000
3000
,
0001
0010
0000
0001
0010
0000
0001
0010
0000
0000
0001
0000
1001
0000
0000
0000
,
1000
0010
0000
1000
0000
0010
0000
1000
0000
0001
0000
0100
0010
0000
0010
0000
,
1000
0100
0000
1000
0100
0000
1000
0100
0000
0000
1000
0000
1001
0000
0000
0000
,
0001
0100
0000
0001
0000
0100
0000
0001
0000
1000
0000
0010
0100
0000
0100
0000
,
0001
1000
0001
0100
0010
1000
0100
1000
,
0010
0000
0100
0000
0001
0000
0100
0000
0001
1000
0001
0000
0100
0000
0010
0000
,
1000
0100
0010
0001
1000
0100
0010
0001
,
0100
0000
0010
0000
1000
0000
0010
0000
0100
0001
0100
0000
0001
0000
0000
0000
,
1000
0001
0100
0010
1000
0001
0100
0010
,
1000
0000
0100
0000
0010
0000
0001
0000
0100
0010
0100
0000
0010
0000
0010
0000
,
1000
0001
1000
0010
0100
0001
0010
0100
,
0010
0000
0001
0000
0100
0000
0010
0000
1000
0001
1000
0000
0100
0000
0100
0000
,
0020
0000
0000
0001
0000
0000
0031
0000
,
0002
0000
0000
1000
0000
0000
1003
0000
,
2000
0000
0000
0010
0000
0000
3010
0000
,
0020
0000
0000
0100
0000
0000
0130
0000
,
0001
0000
0000
0000
0000
0000
0100
0000
0000
0010
0000
0100
0010
0000
0000
0000
,
0010
0000
0000
0000
0000
0000
1000
0000
0000
0001
0000
1000
0100
0000
0000
0000
,
0001
0000
0000
0000
0000
0000
0100
0000
0000
0010
0000
0100
1000
0000
0001
0000
,
0200
0000
0310
0000
,
1000
0000
0010
0000
1000
0000
0010
0000
0100
0000
0001
0100
0000
0000
0001
0000
,
0010
0000
0001
0010
0000
0000
0100
0000
2000
0000
0000
0000
3001
0000
0000
0000
,
0100
0000
0010
1000
0000
0000
0010
0000
0100
0000
0001
0010
0000
0000
0001
0000
,
0200
0000
0000
2300
0000
0000
3200
0000
0302
0000
0000
0000
1003
0000
0100
0000
,
1000
0000
0001
0010
0001
0000
1000
0000
0001
0010
0001
0000
1000
0000
0001
0010
,
0001
0000
1000
0000
0001
0010
0001
0000
1000
0000
0001
0000
2000
0000
0000
0000
,
3001
0000
0000
0100
0000
0000
0110
0000
0000
1000
0000
0010
0100
0000
0100
0000
,
0001
0010
0000
0001
0000
0000
1000
0100
0000
1000
0000
0001
0100
0000
0001
0000
,
1000
0000
0000
0001
0000
0000
1001
0000
0000
0100
0000
0010
1000
0000
1000
0000
,
0001
1000
0000
0001
0000
0000
0100
0010
0000
0100
0000
0001
1000
0000
0001
0000
,
1000
0000
0100
0000
1000
0010
0000
0100
0000
0000
0001
0000
1000
0000
0001
0000
,
1000
0000
0000
0000
,
0001
0000
0100
0000
0010
0000
1000
0000
0100
0000
1000
0000
0001
0010
0001
0000
,
1000
0010
0100
0010
0001
0010
0100
0010
,
1000
0000
0100
0000
0010
0000
0001
0000
0010
0000
0100
0000
1000
0001
1000
0000
,
0001
0100
0010
0100
1000
0100
0010
0100
,
0001
0000
1000
0000
0010
0000
0100
0000
0010
0000
1000
0000
0100
0010
0100
0000
,
1000
0000
0001
0000
0100
0000
0001
0000
1000
0000
0100
0000
0010
0100
0010
0000
,
0001
0100
1000
0100
0001
0100
1000
0100
,
0001
0010
0200
0000
1300
0200
0000
0310
,
0001
0000
0000
0001
0000
0000
0001
0000
0010
0000
0000
0010
0000
0000
0010
0000
,
1000
0000
0000
1000
0000
0000
1000
0000
0200
0000
0000
0000
0300
0000
0000
0000
,
1000
0000
0000
1000
0000
0000
1000
0000
0000
0000
0010
0000
0001
0000
0010
0000
,
0001
0100
0001
0100
0010
1000
0010
1000
,
0100
0000
0000
0100
0000
0000
0100
0000
0110
0000
0000
0000
0000
0000
1000
0001
,
1000
0000
0000
1000
0000
0000
1000
0000
1001
0000
0000
0000
0200
0000
0000
0000
,
0320
0000
0000
0000
,
0230
0000
0300
0000
,
1000
0001
0100
0001
1000
0100
1000
0010
,
0100
0000
0001
0000
1000
0000
0100
0000
1000
0001
1000
0000
0010
0000
0000
0000
,
0100
0001
0010
0001
1000
0010
0100
0010
,
1000
0000
0100
0000
0010
0000
0001
0000
1000
0001
1000
0000
0010
0000
0000
0000
,
0100
0010
0100
1000
0100
0001
1000
0010
,
0100
0000
0001
0000
0010
0000
0001
0000
0100
0001
0100
0000
0010
0000
0000
0000
,
2000
0000
0000
3200
0000
0000
0320
0000
,
0000
0032
0000
0000
0000
0000
0000
0000
,
0003
0000
0000
0000
,
0000
0000
0000
0000
;
#NOTES:
     dance-double:
     :
     Easy:
     6:
     :
00000000
00000000
00000000
00000000
,
00000000
00000000
00000000
00000000
,
00000000
00000000
00000000
00000000
,
00000000
00000000
00000000
00000000
,
00000000
00000000
00000000
00000000
,
00002000
00000000
00000000
00000000
,
00003000
00000000
00000000
00000000
,
00010000
00001000
00010000
00000000
,
00001000
00010000
00001000
00000000
,
01000000
00100000
01000000
00000000
,
00100000
01000000
00100000
00000000
,
10000000
01000000
10000000
01000000
,
00100000
00010000
00100000
00000000
,
00001000
00010000
00001000
00010000
,
00000100
00001000
00000100
00000000
,
00000010
00000001
00000010
00000001
,
00001000
00000001
00001000
00000000
,
00000010
00010000
00000010
00010000
,
00001000
00010000
00001000
00000000
,
00200000
00000000
00310000
00000000
,
20000000
00000000
31000000
00000000
,
00020000
00000000
01030000
00000000
,
00002000
00000000
00013000
00000000
,
00000020
00000000
00001030
00000000
,
00000002
00000000
00000103
00000000
,
00002000
00000000
00003100
00000000
,
00020000
00000000
00031000
00000000
,
00100000
00010000
01000000
00000000
,
00100000
01000000
00100000
00000000
,
10000000
00010000
00100000
00000000
,
00001000
00010000
00001000
00000000
,
00000010
00000000
00000000
00000100
00000000
00000000
00000010
00000000
,
00000000
00000100
00000000
00000000
00000110
00000000
00000000
00000000
,
00000001
00001000
00000100
00001000
,
00000100
00000000
00011000
00000000
,
00100000
00001000
00100000
00010000
,
01000000
00000000
01100000
00000000
,
10000000
01000000
10000000
01000000
,
00010000
00000000
00000000
00000000
,
00000010
00000001
00000010
00000001
,
00000010
00000100
00000010
00000100
,
00000110
00000000
00010000
00000000
,
00011000
00000000
00000000
00000000
,
00100000
00010000
01000000
00100000
,
10000000
01000000
00100000
00000000
,
00010000
10000000
00010000
00000000
,
20020000
00000000
30030000
00000000
,
00110000
00000000
00011000
00000000
,
00001100
00000000
00000110
00000000
,
00000001
00000100
00001000
00010000
,
00002000
00000000
00003000
00000000
,
00100000
00000000
00000000
00100000
00000000
00000000
00100000
00000000
,
01000000
00000000
00000000
01000000
00000000
00000000
01000000
00000000
,
10000000
00010000
10000000
00010000
,
20000000
00000000
30000000
00000000
,
00010000
01000000
00001000
00000000
,
00010000
00000100
00001000
00000000
,
00000010
00000100
00000001
00000000
,
00000010
00000100
00001000
00000000
,
00000100
00010000
00001000
00000000
,
00100000
00010000
01000000
00000000
,
01000000
00000000
00000000
00001000
00000000
00000000
00010000
00000000
,
00000000
00001000
00000000
00000000
00000000
00000000
00000000
00000000
,
00000000
00000000
00000000
00000000
;
#NOTES:
     dance-double:
     :
     Medium:
     10:
     :
00000000
00000000
00000000
00000000
,
00000000
00000000
00000000
00000000
,
00000000
00000000
00000000
00000000
,
00000000
00000000
00000000
00000000
,
00000000
00000000
00000000
00000000
,
00200000
00000000
00000000
00300000
,
02000000
00000000
00000000
03000000
,
00001000
00000000
00000000
00001000
00000000
00000000
00001000
00000000
00000000
00000000
00000000
00000000
00000000
00000000
00000000
00000000
,
00010000
00000000
00000000
00000010
00000000
00000100
00000000
00000010
00000000
00000000
00000000
00000000
00001001
00000000
00000000
00000000
,
00000001
00000000
00000000
00000001
00000000
00000000
00000001
00000000
00000000
00000000
00000000
00000000
00000000
00000000
00000000
00000000
,
00000100
00000000
00000000
00001000
00000000
00010000
00000000
00001000
00000000
00000000
00000000
00000000
00011000
00000000
00000000
00000000
,
00100000
00010000
00100000
00010000
10000000
01000000
00100000
00000000
,
00001000
00100000
00001000
00010000
00000100
00010000
00000100
00000000
,
00001000
00000010
00001000
00000010
00000100
00000001
00000100
00000000
,
00000001
00000010
00000100
00000010
00000100
00010000
00001000
00000000
,
00100000
00010000
00100000
00010000
01000000
00100000
10000000
00000000
,
01000000
00100000
00001000
00100000
00001000
00010000
00000100
00000000
,
00001000
00000100
00000010
00000001
00000010
00000100
00001000
00000000
,
00000010
00000000
00000100
00000000
00001000
00000000
00010000
00000000
00001000
00000000
00000000
00001000
00000000
00000000
00001000
00000000
,
00100000
00000000
00000000
01000000
00000000
00000000
00100000
00000000
,
00010000
00000000
00000000
01000000
00000000
00000000
00010000
00000000
,
00100000
00000000
00000000
00001000
00000000
00000000
00010000
00000000
,
00000010
00000000
00000000
00001000
00000000
00000000
00000100
00000000
,
00000010
00000000
00000000
00000001
00000000
00000000
00000100
00000000
,
00000010
00000000
00000000
00001000
00000000
00000000
00000100
00000000
,
00010000
00000000
00000000
00001000
00000000
00000000
01000000
00000000
,
00200000
00000000
00300000
00000000
,
10000000
00000000
00000000
00000000
00100000
00000000
00000000
00000000
00010000
00000000
00000000
00010000
00000000
00000000
00001000
00000000
,
00000100
00000000
00000000
00000100
00000000
00000000
00000001
00000000
00002000
00000000
00000000
00000000
00003000
00000000
00000000
00000000
,
00000001
00000000
00000000
00000001
00000000
00000000
00000010
00000000
00001000
00000000
00000000
00001000
00000000
00000000
00010000
00000000
,
01000000
00000000
00000000
01000000
00000000
00000000
10000000
00000000
00010000
00000000
00000000
00000000
10000000
00000000
01000000
00000000
,
00100000
00001000
00001000
00010000
00001000
00001000
00000100
00000010
,
00000010
00001000
00000010
00000010
00000200
00000000
00000300
00000000
,
00000001
00000010
00000100
00001000
00000100
00000010
00000001
00000000
,
00000200
00002300
00023000
00230000
,
10300000
01000000
00100000
00010000
00100000
01000000
10000000
00000000
,
02000000
03020000
00032000
00003020
,
00000031
00000000
00000100
00000000
00000001
00000000
00000100
00000000
00000010
00000000
00000000
00010000
00000000
00000000
00001000
00000000
,
00011000
00000000
00000000
00000000
,
00100000
00010000
00100000
00010000
00100000
01000000
10000000
00000000
,
00100000
01000000
00010000
00100000
00001000
00010000
00001000
00000000
,
00010000
00000000
00000000
00000100
00000000
00000000
00001000
00000000
00000010
00000000
00000000
00001000
00000000
00000000
00000001
00000000
,
00000010
00000000
00000000
00000000
00000001
00001000
00000001
00000000
,
00001000
00000000
00000000
00001000
00000000
00000000
00001000
00000000
00000100
00000000
00000000
00000100
00000000
00000000
00000100
00000000
,
00010000
00000000
00000000
00001000
00000000
00000000
00010000
00000000
00002000
00000000
00000000
00000000
00003000
00000000
00000000
00000000
,
01000000
00000000
00000000
00010000
00000000
00000000
00100000
00000000
00010000
00000000
00000000
00000000
10000000
00000000
00010000
00000000
,
00000000
10000000
01000000
00100000
00010000
00001000
00000100
00000000
,
00000010
00000000
00000000
00000001
00000000
00000000
00000010
00000000
00000100
00000000
00000000
00001000
00000000
00000000
00000100
00000000
,
00010000
00000000
00000000
00001000
00000000
00000000
00010000
00000000
00011000
00000000
00000000
00000000
00000000
00000000
00000000
00000000
,
00100000
00000000
00000000
01000000
00000000
00000000
10000000
00000000
00000000
00000000
10000000
00000000
01000000
00000000
00200000
00000000
,
00000000
00000000
00001000
00301000
,
00010000
00000100
00010000
00000000
00000010
00001000
00000010
00000000
,
00000100
00000001
00000100
00000000
00000001
00000010
00000001
00000000
,
00001000
00000010
00001000
00000010
00010000
00001000
00010000
00001000
,
00020000
00000000
00030000
00000000
,
00001000
00000000
01000000
00000000
00100000
01000000
00100000
00000000
,
10000000
00010000
00100000
00000000
,
00001000
00000000
00010000
00000000
00000010
00001000
00000010
00000000
,
00000100
00000001
00000010
00000000
,
00000001
00000000
00000100
00000000
00001000
00010000
00001000
00000000
,
00100000
00010000
01000000
00000000
,
00010000
00000000
00000000
00100000
00000000
00000000
00001000
00000000
,
00000000
00000020
00000000
00000000
00000000
00000000
00000000
00000000
,
00000030
00000000
00000000
00000000
,
00000000
00000000
00000000
00000000
;
#NOTES:
     dance-double:
     :
     Hard:
     12:
     :
00000000
00000000
00000000
00000000
,
00000000
00000000
00000000
00000000
,
00000000
00000000
00000000
00000000
,
00000000
00000000
00000000
00000000
,
00000000
00000000
00000000
00000000
,
20000000
00000000
00000000
30000000
,
02000000
00000000
00000000
03000000
,
00100000
00010000
00000000
00100000
00010000
00000000
00100000
00010000
00000000
00000000
00100000
00000000
00001000
00000000
00010000
00000000
,
00000100
00001000
00000000
00000100
00000000
00001000
00000000
00000010
00000000
00000100
00000000
00000001
00001000
00000000
00001000
00000000
,
00000001
00000100
00000000
00000001
00000100
00000000
00000001
00000100
00000000
00000000
00000010
00000000
00010000
00000000
00001000
00000000
,
01000000
00010000
00000000
01000000
00000000
00010000
00000000
01000000
00000000
00100000
00000000
10000000
01000000
00000000
01000000
00000000
,
10000000
01000000
00100000
01000000
00100000
00010000
00100000
00001000
,
00010000
00000000
00000100
00000000
00001000
00000000
00000010
00000000
00001000
00000001
00001000
00000000
00000001
00000000
00000100
00000000
,
00000010
00001000
00000100
00000010
00000100
00001000
00000100
00010000
,
00001000
00000000
01000000
00000000
00010000
00000000
00100000
00000000
01000000
10000000
01000000
00000000
10000000
00000000
00000000
00000000
,
00100000
01000000
00010000
01000000
00010000
00100000
00001000
00010000
,
00000100
00000000
00001000
00000000
00000100
00000000
00000010
00000000
00000001
00001000
00000001
00000000
00000100
00000000
00000001
00000000
,
00000010
00000100
00001000
00000100
00010000
00001000
00100000
00010000
,
01000000
00000000
00010000
00000000
00100000
00000000
01000000
00000000
10000000
00010000
10000000
00000000
01000000
00000000
01000000
00000000
,
00200000
00000000
00000000
00010000
00000000
00000000
00310000
00000000
,
00002000
00000000
00000000
00010000
00000000
00000000
00013000
00000000
,
00000200
00000000
00000000
00000010
00000000
00000000
00000310
00000000
,
00000002
00000000
00000000
00001000
00000000
00000000
00001003
00000000
,
00000100
00000000
00000000
00000000
00000000
00000000
00010000
00000000
00000000
00001000
00000000
00010000
00001000
00000000
00000000
00000000
,
00100000
00000000
00000000
00000000
00000000
00000000
00010000
00000000
00000000
01000000
00000000
00100000
10000000
00000000
00000000
00000000
,
01000000
00000000
00000000
00000000
00000000
00000000
00100000
00000000
00000000
00001000
00000000
00010000
00001000
00000000
00001000
00000000
,
00020000
00000000
00031000
00000000
,
00000100
00000000
00000001
00000000
00000100
00000000
00000001
00000000
00000010
00000000
00000100
00000010
00000000
00000000
00000100
00000000
,
00001000
00000000
00000100
00010000
00000000
00000000
00001000
00000000
00200000
00000000
00000000
00000000
00300000
00000000
00000000
00000000
,
01000000
00000000
10000000
01000000
00000000
00000000
00100000
00000000
00001000
00000000
00010000
00000100
00000000
00000000
00001000
00000000
,
00000020
00000000
00000000
00000230
00000000
00000000
00000302
00000000
00000203
00000000
00000000
00000000
00001300
00000000
00010000
00000000
,
00001000
00000000
00100000
00010000
00100000
00000000
01000000
00000000
00100000
00010000
00100000
00000000
01000000
00000000
00100000
00010000
,
00100000
00000000
01000000
00000000
00100000
00010000
00100000
00000000
00001000
00000000
00010000
00000000
00002000
00000000
00000000
00000000
,
00003010
00000000
00000000
00000100
00000000
00000000
00000110
00000000
00000000
00001000
00000000
00000000
00001001
00000000
00000001
00000000
,
00000100
00000010
00000000
00000100
00000000
00000000
00000010
00001000
00000000
00000010
00000000
00010000
00001000
00000000
00010000
00000000
,
00001000
00000000
00000000
01000000
00000000
00000000
01100000
00000000
00000000
10000000
00000000
00000000
10010000
00000000
00010000
00000000
,
10000000
01000000
00000000
10000000
00000000
00000000
00010000
00100000
00000000
00010000
00000000
00100000
00001000
00000000
00010000
00000000
,
00000100
00000000
00001000
00000000
00000100
00000010
00000000
00000001
00000000
00000000
00000100
00000000
00000001
00000000
00001000
00000000
,
00000001
00000000
00000000
00000000
,
00000001
00000000
00000100
00000000
00000010
00000000
00001000
00000000
00000100
00000000
00010000
00000000
00001000
00010000
00001000
00000000
,
00100000
00010000
01000000
00010000
00100000
01000000
10000000
01000000
,
00010000
00000000
00001000
00000000
00000010
00000000
00001000
00000000
00010000
00000000
00000100
00000000
00001000
00000100
00001000
00000000
,
00000010
00000100
00000001
00000100
00000001
00000010
00000100
00010000
,
00001000
00000000
00100000
00000000
00001000
00000000
01000000
00000000
00010000
00000000
00100000
00000000
00010000
10000000
00010000
00000000
,
01000000
00000000
00100000
00000000
10000000
00000000
00100000
00000000
01000000
00000000
00010000
00000000
00100000
00001000
00100000
00000000
,
00001000
00010000
00000010
00000100
00001000
00010000
00000010
00000100
,
00000001
00000100
00001000
00010000
00001000
01000000
00010000
00000000
,
10000000
00000000
00000000
10000000
00000000
00000000
10000000
00000000
00100000
00000000
00000000
00100000
00000000
00000000
00100000
00000000
,
01000000
00000000
00000000
01000000
00000000
00000000
01000000
00000000
00020000
00000000
00000000
00000000
00030000
00000000
00000000
00000000
,
00100000
00000000
00000000
00001000
00000000
00000000
00010000
00000000
00000000
00000000
00010000
00000000
00001000
00000000
00010000
00000000
,
00000100
00001000
00000100
00001000
00000001
00000010
00000001
00000010
,
00000100
00000000
00000000
00000100
00000000
00000000
00010000
00000000
00011000
00000000
00000000
00000000
00000000
00000000
00001000
00000000
,
01000000
00000000
00000000
01000000
00000000
00000000
00100000
00000000
01100000
00000000
00000000
00000000
20000000
00000000
00000000
00000000
,
30020000
00000000
00000000
00000000
,
00130000
00000000
00000000
00000000
,
00001000
00000010
00001000
00000010
00000001
00000100
00001000
00000100
,
00000010
00010000
00000100
00001000
00000010
00010000
00000100
00000000
,
00100000
00001000
00010000
00001000
00010000
01000000
00100000
00010000
,
01000000
00001000
00100000
00010000
01000000
00001000
00100000
00000000
,
01000000
10000000
00100000
01000000
00001000
00010000
00000010
00000100
,
00000001
00001000
00000001
00000100
00001000
00010000
00100000
10000000
,
02000000
00000000
00000000
03020000
00000000
00000000
00032000
00000000
,
00000000
00003020
00000000
00000000
00000000
00000000
00000000
00000000
,
00000030
00000000
00000000
00000000
,
00000000
00000000
00000000
00000000
;
