
//----- song ID: syak2 -----//
#TITLE:灼熱 Pt.2 Long Train Running;
#ARTIST:DJ Mass MAD Izm*;
#TITLETRANSLIT:Shakunetsu Pt.2 Long Train Running;
#BANNER:Shakunetsu Pt.2 Long Train Running.png;
#BACKGROUND:Shakunetsu Pt.2 Long Train Running-bg.png;
#CDTITLE:./CDTitles/bm IIDX 23 copula.png;
#MUSIC:Shakunetsu Pt.2 Long Train Running.ogg;
#SAMPLESTART:85.773;
#SAMPLELENGTH:15;
#BPMS:0=165;
#NOTES:
     dance-single:
     :
     Beginner:
     3:
     :
0000
0000
0000
0000
,
0000
0000
0000
0000
,
0000
0000
0000
0000
,
0000
0000
0000
0000
,
0000
0000
0000
0000
,
0001
0000
0010
0000
,
0001
0000
0100
0000
,
0010
0000
1000
0000
,
0100
0000
1000
0000
,
0010
0000
0010
0000
,
0100
0000
0100
0000
,
0001
0000
0001
0000
,
1000
0000
1000
0000
,
0010
0000
0100
0000
,
0010
0000
0100
0000
,
0020
0000
0030
0000
,
0200
0000
0300
0000
,
0001
0000
0010
0000
,
0010
0000
0001
0000
,
1000
0000
0100
0000
,
0100
0000
1000
0000
,
1001
0000
0000
0000
,
0010
0000
0100
0000
,
0110
0000
0000
0000
,
0001
0000
0010
0000
,
0100
0000
0010
0000
,
1000
0000
0100
0000
,
0001
0000
0100
0000
,
1000
0000
0010
0000
,
1000
0000
0001
0000
,
1000
0000
0001
0000
,
0100
0000
0010
0000
,
0100
0000
0010
0000
,
0110
0000
0000
0000
,
1001
0000
0000
0000
,
1001
0000
0000
0000
,
0110
0000
0000
0000
,
0001
0000
0001
0000
,
0010
0000
0100
0000
,
1000
0000
1000
0000
,
0010
0000
0000
0000
,
1000
0000
0001
0000
,
0100
0000
0100
0000
,
0010
0000
0100
0000
,
0010
0000
1000
0000
,
0100
0000
0010
0000
,
0100
0000
1000
0000
,
0001
0000
0100
0000
,
0001
0000
0001
0000
,
1000
0000
0010
0000
,
0100
0000
0001
0000
,
0100
0000
0000
0000
,
0001
0000
1000
0000
,
0001
0000
0000
0000
,
0100
0000
0010
0000
,
1000
0000
0000
0000
,
0100
0000
0010
0000
,
0200
0000
0000
0000
,
0000
0000
0300
0000
,
0110
0000
0000
0000
,
1001
0000
0000
0000
,
0110
0000
0000
0000
,
1001
0000
0000
0000
,
1000
0000
0001
0000
,
1000
0000
0001
0000
,
0100
0000
0100
0000
,
0010
0000
0010
0000
,
1000
0000
0100
0000
,
0010
0000
0001
0000
,
0001
0000
0010
0000
,
0100
0000
1000
0000
,
1000
0000
0010
0000
,
0100
0000
0001
0000
,
0001
0000
0100
0000
,
0010
0000
1000
0000
,
1001
0000
0000
0000
,
1001
0000
0000
0000
,
0110
0000
0000
0000
,
0110
0000
0000
0000
,
0001
0001
0001
0000
,
0100
0100
0100
0000
,
0010
0000
1000
0000
,
0010
0000
0100
0000
,
0000
0000
0000
0000
;
#NOTES:
     dance-single:
     :
     Easy:
     8:
     :
0000
0000
0000
0000
,
0000
0000
0000
0000
,
0000
0000
0000
0000
,
0000
0000
0000
0000
,
0000
0000
0000
0000
,
0001
0001
1000
1000
,
0001
0001
0100
0100
,
0010
0010
1000
1000
,
0100
0100
0010
0010
,
0001
0100
0001
0100
,
0010
1000
0100
0010
,
0001
0010
0001
0010
,
0001
1000
0010
0100
,
0010
1000
0100
0010
,
0001
0100
1000
0100
,
2002
3003
0220
0330
,
1001
1001
2002
3003
,
0010
0110
1000
1001
,
0010
0100
0001
0100
,
1000
1001
0100
0110
,
0001
0100
0010
0100
,
0110
0110
0110
0000
,
1000
0100
0001
0100
,
1000
0001
1000
0010
,
0110
0000
1001
0000
,
0100
0001
0010
0100
,
1000
0000
0010
0000
0100
0010
0100
0000
,
0001
1000
0010
0100
,
0001
0000
1000
0000
0010
0100
0010
0000
,
1000
0100
0001
0100
,
1000
0000
0010
0000
1000
0001
1000
0000
,
0001
0010
1000
0010
,
0001
0000
0100
0000
0001
1000
0001
0000
,
0110
0100
0110
0010
,
0001
1001
1000
1001
,
0100
0010
1000
0100
,
0110
1001
0110
0000
,
0001
0100
0001
0100
,
0010
1000
0100
0010
,
0001
0100
0010
1000
,
0010
0100
0010
0000
0110
0000
0000
0000
,
1000
1000
0001
1001
,
0100
0000
0010
0000
0100
0010
0100
0000
,
0002
1000
0103
0010
,
0001
0100
0010
1000
,
0200
0001
0310
1000
,
0001
0101
1000
1010
,
0100
0100
0010
0001
,
1000
0010
1000
0100
,
0010
0001
0010
1000
,
0100
1000
0100
0001
,
0100
0100
0010
0000
,
0001
0001
1000
0000
,
0010
0010
0100
0000
,
0001
0010
0100
1000
,
0010
0010
0100
0000
,
1000
0000
0010
0000
,
2002
0000
0000
0000
,
0000
0000
0000
3003
,
0110
0110
0110
0000
,
1001
1001
1001
0000
,
1100
1100
1100
0000
,
0011
0011
0011
0000
,
1000
0100
0001
0100
,
1000
0010
0001
0010
,
1000
0001
0100
0010
,
1000
0001
0010
0100
,
1000
1000
0001
0101
,
0010
0010
1000
1100
,
0001
0010
0001
0001
,
0100
0010
1000
0100
,
1000
0010
1000
0001
,
0100
0010
1000
0100
,
0010
0001
1000
0010
,
1000
0100
0001
0100
,
1001
0100
1001
0010
,
1001
0100
1001
0010
,
0110
0001
0110
1000
,
0110
0001
0110
1000
,
0001
0000
0100
0000
0001
0100
0001
0000
,
1000
0000
0010
0000
1000
0010
1000
0000
,
0010
0100
0010
0000
0100
0001
0100
0000
,
0010
1000
0010
0000
1001
0000
1001
0000
,
0000
0000
0000
0000
;
#NOTES:
     dance-single:
     :
     Medium:
     13:
     :
0000
0000
0000
0000
,
0000
0000
0000
0000
,
0000
0000
0000
0000
,
0000
0000
0000
0000
,
0000
0000
0000
0000
,
0100
0000
0000
0100
0000
0000
0100
0000
0000
0110
0000
0000
1000
0000
1000
0000
,
0010
0000
0000
0010
0000
0000
0010
0000
0000
0110
0000
0000
0001
0000
0001
0000
,
0100
0000
0000
0100
0000
0000
0100
0000
0000
0110
0000
0000
1000
0000
1000
0000
,
0001
0000
0000
0001
0000
0000
0001
0000
0000
1001
0000
0000
0100
0000
0100
0000
,
0001
0000
0010
0000
0001
0000
0100
0000
0010
0000
0000
0010
0000
0000
1000
0000
,
0100
0000
1000
0000
0100
0000
0010
0000
0001
0000
0000
0001
0000
0000
0100
0000
,
0010
0000
1000
0000
0010
0000
0100
0000
0010
0000
0000
0010
0000
0000
1000
0000
,
0001
0100
0001
0000
0100
0010
0100
0000
,
0001
0010
0001
0010
0100
1000
0010
0000
,
1000
0100
1000
0100
0010
0001
1000
0000
,
0200
0300
0020
0030
,
0001
1000
0001
1000
0001
1000
0001
1000
0001
1000
0000
0000
,
0010
1000
0010
0100
0001
0000
1001
0000
,
0100
0010
0100
1000
0001
0010
0001
0000
,
0100
0000
0001
0000
0200
0000
0000
0000
0310
1000
0010
0000
0100
0000
0000
0000
,
0001
0010
0100
1000
0001
0010
0100
0000
,
1000
0000
0010
0000
1000
0000
0000
0000
0001
0100
0001
0000
0100
0000
0000
0000
,
0010
0100
0010
1000
0001
0100
0010
1000
,
0100
0000
0000
0000
0010
0000
0000
0000
0100
1000
0100
0000
1000
0000
0000
0000
,
0002
0000
0000
0000
0103
0000
0000
0000
1000
0000
0000
0010
0000
0000
0100
0000
,
0010
0000
0000
1000
0100
0000
0000
1000
0010
0000
0100
0000
0010
0000
0100
0000
,
0001
0000
0000
0010
0100
0000
0000
0010
0001
0000
1000
0000
0001
0000
0000
0000
,
1000
0000
0000
0010
0100
0000
0000
0010
1000
0000
0001
0000
0100
0000
0001
0000
,
0010
0000
0000
0001
0100
0000
0000
0001
1000
0000
0100
0000
1000
0000
0000
0000
,
0100
0000
0000
0010
0001
0000
0000
0010
0100
0000
1000
0000
0100
0000
0010
0000
,
0001
0000
0000
1000
0010
0000
0000
1000
0100
0000
1000
0000
0010
0000
0000
0000
,
0100
0001
0100
0000
0010
1000
0010
0000
,
0100
0010
0100
0010
1000
0100
1000
0000
,
0001
0000
0001
0000
0100
0010
0100
0000
,
0010
1000
0100
1000
0010
0000
1000
0000
,
0001
0010
0000
0010
0001
0100
0010
0000
,
1000
0010
1000
0000
0010
0000
1000
0000
0001
0000
0100
0000
0010
0000
0000
0000
,
1000
0000
1000
0000
0100
0010
0100
0000
,
0010
0001
0010
0000
0001
0000
1000
0000
0100
0000
1000
0000
0010
0000
0000
0000
,
1000
0010
0100
0001
1000
0010
0100
0001
,
1000
0100
0010
0001
1000
0100
0010
0000
,
0100
0000
0000
0000
0100
0000
0000
0000
1000
0000
0010
1000
0010
0000
0000
0000
,
0100
0010
0100
0010
1000
0001
1001
0000
,
0002
0000
0013
0000
0100
0010
0100
0000
,
1000
0100
1000
0000
0001
0000
0010
0000
0001
0000
0100
0000
0010
0000
0000
0000
,
2000
0000
3001
0000
0010
1000
0100
0000
,
0010
0100
0010
0000
0100
0000
0010
0000
0001
1000
0001
0000
1000
0000
0000
0000
,
0001
0000
0000
0000
0001
0000
0000
0000
1000
0100
1000
0000
0100
0000
0000
0000
,
0010
0001
0100
0010
1000
0001
1000
0000
,
0001
0000
0001
0000
0010
0100
0010
0001
,
1000
0100
1000
0000
0100
0000
0010
0000
0110
0000
0000
0000
1001
0000
0000
0000
,
0010
0000
0010
0000
1000
0100
0000
0100
,
0010
0000
0001
0000
0100
0001
0100
0000
,
0001
0000
0001
0000
1000
0010
1000
0000
,
0100
0010
0002
0103
,
0001
0010
0001
0000
0100
0010
0000
0010
,
1000
0100
1000
0100
0020
0000
0031
0000
,
2000
0000
0002
0000
,
0000
0000
0000
3003
,
0110
0000
0000
0110
0000
0000
0110
0000
0000
0110
0000
0000
1000
0000
1000
0000
,
0110
0000
0000
0110
0000
0000
0110
0000
0000
0110
0000
0000
0001
0000
0001
0000
,
0101
0000
0000
0101
0000
0000
0101
0000
0000
0101
0000
0000
0010
0000
0010
0000
,
1010
0000
0000
1010
0000
0000
1010
0000
0000
1010
0000
0000
0100
0000
0100
0000
,
0001
0000
0000
0010
0000
0000
0001
0000
0000
0010
0000
0100
1000
0000
1000
0000
,
0100
0000
0000
1000
0000
0000
0100
0000
0000
1000
0000
0100
0010
0000
0010
0000
,
0001
0000
0000
0100
0000
0000
0001
0000
0000
0100
0000
0010
1000
0000
1000
0000
,
0010
0000
0000
1000
0000
0000
0010
0000
0000
1000
0000
0100
0010
0000
0010
0000
,
0001
0000
0100
0000
0001
0000
0100
0000
0010
0000
0000
0010
0000
0000
1000
0000
,
1000
0000
0001
0010
0001
0000
1000
0000
0100
0000
0000
0001
0000
0000
0100
0000
,
0010
0000
0001
0000
0100
0000
0010
0000
1000
0000
0000
0001
0000
0000
0100
0000
,
0100
0000
0010
0000
1000
0000
0010
0000
0001
0000
0000
1000
0000
0000
0100
0000
,
0010
0000
1000
0000
0001
0000
0100
0000
0001
0000
0000
1000
0000
0010
1000
0000
,
0001
0000
0100
0000
0010
0000
1000
0100
1000
0000
0000
0100
0000
0000
0001
0000
,
0100
0000
1000
0000
0010
0000
0100
0000
0001
0000
0000
0100
0000
0001
1000
0000
,
0100
0010
0100
0000
0010
0100
0010
0000
0001
0000
1000
0000
0010
0000
0100
0000
,
0001
0000
0000
0100
0010
0000
0000
0000
1000
0010
0000
1000
0001
0000
0000
0000
,
1100
0000
0000
0010
0001
0000
0001
0000
1000
0010
0000
1000
0100
0000
0000
0000
,
0110
0000
0000
0001
1000
0000
0000
0000
0010
0100
0000
0010
1000
0000
0000
0000
,
1100
0000
0000
0000
0001
0100
0000
0000
0110
0000
0000
1000
0100
0000
0000
0000
,
0001
0010
0001
0010
0100
1000
0100
1000
,
0010
0100
0010
0100
0001
0010
0100
1000
,
0001
0010
0001
0000
1000
0000
0100
0000
1000
0000
0000
0010
0000
0000
0010
0000
,
1000
0100
1000
0100
0010
0000
0001
0000
1000
0000
0000
0001
0000
0000
1001
0000
,
0000
0000
0000
0000
;
#NOTES:
     dance-single:
     :
     Hard:
     16:
     :
0000
0000
0000
0000
,
0000
0000
0000
0000
,
0000
0000
0000
0000
,
0000
0000
0000
0000
,
0000
0000
0000
0000
,
0010
0000
0000
0010
0000
0000
0010
0000
0000
0001
0000
0000
0101
0000
0101
0000
,
0010
0000
0000
0010
0000
0000
0010
0000
0000
1000
0000
0000
1100
0000
1100
0000
,
0001
0000
0000
0001
0000
0000
0001
0000
0000
0010
0000
0000
0110
0000
0110
0000
,
1000
0000
0000
1000
0000
0000
1000
0000
0000
0100
0000
0000
0110
0000
0110
0000
,
0001
0000
0100
0000
0010
0100
0010
0000
1000
0000
0001
0010
0000
0000
0011
0000
,
1000
0000
0100
1000
0100
0000
0010
0000
0001
0000
0100
0010
0000
0000
0110
0000
,
0001
0000
1000
0010
1000
0000
0100
0000
0010
0000
0001
1000
0000
0000
1001
0000
,
0100
0010
0100
0000
0010
0000
0001
0000
0100
0000
0010
1000
0010
0000
1001
0000
,
0010
0001
0010
0001
0100
0010
0100
0010
,
1000
0100
1000
0100
0010
0001
1000
0100
,
0010
0001
0100
0010
0000
0000
0010
1000
0100
0010
0000
0000
,
0010
0001
0100
0010
1000
0100
0010
0001
0100
0110
0000
0000
,
1000
0000
0002
0000
0103
0000
0020
0000
1030
0001
1000
0000
1001
0000
0101
0000
,
0020
0000
1030
0001
0100
0000
0002
0000
1003
0000
1100
0000
0101
0000
0000
0000
,
0020
0000
1030
0100
2000
0000
0000
0000
3001
0100
0001
0100
0010
0000
0010
0000
,
2000
0000
3200
0000
0310
0001
0010
0001
1000
0100
1000
0000
1001
0000
0000
0000
,
0002
0000
0103
0000
0210
0000
0300
0000
1000
0100
1000
0100
0010
0001
0010
0000
,
0001
0000
0100
0000
0020
0000
2030
0000
3020
0000
0130
0001
0100
0000
0101
0000
,
0020
0000
2030
0000
3100
0010
0100
0010
0001
0010
0001
0000
0020
0000
0032
0000
,
0203
0000
0000
0000
0310
1000
0010
1000
0001
1000
0000
0101
0000
0000
0011
0000
,
1000
0000
0100
0010
0100
0000
0010
0001
0010
0000
0001
0000
0100
0000
0010
0000
,
1000
0000
0010
0100
0010
0000
0100
0001
0100
0000
0001
0000
1000
0000
0000
0000
,
0001
0000
0010
0100
0010
0000
0100
1000
0100
0000
1000
0000
0010
0000
0100
0000
,
0001
0000
0100
0010
0100
0000
0010
1000
0010
0000
1000
0000
0001
0000
0000
0000
,
0010
0000
0001
0100
0010
0000
1000
0100
0010
0000
0001
0000
1000
0000
0010
0000
,
0100
0000
0010
1000
0100
0000
0010
0001
0100
0000
0010
0000
1000
0000
0000
0000
,
0001
0000
0100
0010
0100
0000
0010
0100
0010
0000
1000
0000
0100
0000
0010
0000
,
0110
0110
0110
0110
0110
0110
1001
0000
,
1000
0100
1000
0000
0001
0000
0100
0000
1000
0000
0100
0000
0010
0000
0100
0000
,
0001
0000
1000
0010
0000
0001
1000
0000
0100
0000
0010
0000
0001
0000
0000
0000
,
1000
0000
0010
0100
0000
0100
0010
0000
1000
0000
0001
0010
0001
0000
0010
0000
,
0100
1000
0100
1000
0100
0000
0010
0001
0000
0001
0100
0000
0110
0000
0000
0000
,
0001
0000
0100
0000
0010
0000
1000
0010
1000
0000
0100
0000
0010
0000
0100
0000
,
1000
0100
0010
0000
0001
0100
0010
0000
0100
0010
1000
0000
0010
0000
0100
0000
,
0001
0010
0100
0000
0010
0001
0100
0000
0010
1000
0100
0000
1000
0100
0010
0000
,
0001
0000
0010
0000
0100
0000
1000
0000
0001
0100
0001
0100
0001
0000
0000
0000
,
1100
0000
0000
0000
1010
0000
0000
0000
0011
0000
0100
1000
0010
0000
1010
0000
,
0100
0000
0110
0000
0001
0000
0011
0000
1000
0001
1000
0000
0010
0000
0110
0000
,
2000
0000
0100
0000
3001
0000
0010
0000
0100
0010
0100
0000
0010
0000
1000
0100
,
1000
0000
0010
0000
0100
0000
0001
0000
1000
0010
1000
0000
0010
0000
0100
0000
,
0002
0000
0100
0000
1003
0000
0010
0000
0100
0001
1000
0000
0010
0100
0001
0000
,
1000
0100
1000
0100
1000
0000
0010
0000
0100
0001
0100
0001
0100
0000
0000
0000
,
0011
0000
0000
0000
1010
0000
0000
0000
1100
0000
0010
0001
0100
0000
0101
0000
,
0010
0000
0110
0000
1000
0000
1100
0000
0001
1000
0001
0000
0100
0000
0110
0000
,
0002
0000
0010
0000
1003
0000
0100
0000
0010
0100
0010
0000
0100
0000
0001
0010
,
0001
0100
0010
1000
0001
0101
1100
0000
,
1000
0010
1000
1000
0001
0100
0001
0000
,
0100
0010
0100
0000
0010
1000
0001
0001
,
0100
0010
1000
0001
1000
0100
0010
0000
,
0110
0000
0101
0000
2000
0000
3010
0100
,
0001
0010
0001
0000
0100
0000
0010
1000
0010
0000
0100
0000
0001
0000
0010
0000
,
0100
0010
0010
0010
0002
0000
1003
0010
,
0200
0302
2003
0000
,
0010
0000
0100
3000
,
0110
0000
0000
0001
0100
0000
1000
0100
0000
0010
1000
0000
0001
0010
0100
0000
,
1100
0000
0000
1000
0100
0000
0001
0100
0000
0010
0001
0000
1000
0100
0010
0000
,
0011
0000
0000
0001
0100
0000
0010
1000
0000
0100
0010
0000
0100
1000
0010
0000
,
0110
0000
0000
1000
0100
0000
0010
0001
0000
0100
0010
0000
0100
0001
0010
0000
,
1100
0000
0000
0110
0000
0000
0011
0000
0000
0100
0000
0010
0100
0010
0100
0000
,
0101
0000
0000
1001
0000
0000
1010
0000
0000
0100
0000
0010
0100
0010
0100
0000
,
1100
0000
0000
1001
0000
0000
0101
0000
0000
1000
0000
0010
1000
0010
1000
0000
,
1001
0000
0000
0011
0000
0000
0110
0000
0000
1000
0000
0001
1000
0001
1000
0000
,
0020
0000
0130
0001
0200
0000
1300
0000
0100
0000
0010
1000
0000
0001
0100
0000
,
0011
0000
1000
0001
2000
0000
3020
0000
0031
0000
0010
1000
0000
0010
0100
0000
,
0001
0100
0001
0000
2000
0000
3020
0000
0031
0000
0010
1000
0000
0001
0100
0000
,
1010
0000
1000
0100
2000
0000
3001
0010
0001
0000
0000
0110
0000
0000
0110
0000
,
1000
0001
0100
0000
0010
1000
0100
0000
0020
0000
0031
0100
0000
1000
0200
0000
,
0310
0000
1000
0100
1000
0000
0010
0100
0010
0000
0000
0101
0000
0000
0101
0000
,
1000
0100
1000
0000
0001
0000
0010
0100
0010
0000
0100
0001
0000
0100
1000
0000
,
0001
0100
0001
0100
0010
1000
0010
1000
0100
0010
0100
0010
0001
0100
0010
1000
,
0001
0000
0000
0010
0100
0000
0110
0000
0001
1000
0000
0100
1000
0100
0010
0000
,
1001
0000
0000
0100
0010
0000
0110
0000
0010
1000
0000
0010
1000
0010
0100
0000
,
0101
0000
0000
1000
0100
0000
1010
0000
0001
0010
0000
0100
1000
0100
0010
0000
,
1001
0000
0000
1000
0100
1000
0000
0000
0110
0000
0000
0010
0001
0000
0101
0000
,
1000
0000
0100
0000
1000
0000
0100
0000
0010
0000
0001
0100
0010
0100
0001
0000
,
0100
0000
0010
0000
0100
0000
0010
0000
1000
0000
0100
1000
0010
0000
0100
0000
,
0001
0010
0100
1000
0001
0100
1000
0100
0001
0000
0100
0010
0000
0000
0100
0000
,
0010
1000
0100
0001
0100
0000
1000
0000
1010
0000
0000
0101
0000
0000
1001
0000
,
0000
0000
0000
0000
;
#NOTES:
     dance-single:
     :
     Challenge:
     18:
     :
0000
0000
0000
0000
,
0000
0000
0000
0000
,
0000
0000
0000
0000
,
0000
0000
0000
0000
,
0000
0000
0000
0000
,
0000
0000
0001
0000
0000
0001
0000
0000
0011
0000
0000
0011
0000
0000
1001
0000
,
0000
0000
1000
0000
0000
1000
0000
0000
1010
0000
0000
1010
0000
0000
1001
0000
,
0000
0000
0001
0000
0000
0001
0000
0000
0101
0000
0000
0101
0000
0000
1001
0000
,
0000
0000
1000
0000
1001
0000
1000
0100
0010
0000
0000
0010
0000
0000
0010
0000
,
0110
0000
0001
0010
0100
1000
0010
0100
0001
0000
0000
0011
0000
0000
0101
0000
,
1001
0000
1000
0100
0001
0000
1000
0010
0001
0000
0000
0011
0000
0000
1100
0000
,
0110
0000
1000
0100
0010
0001
0100
0010
1000
0000
0000
1100
0000
0000
1010
0000
,
1001
0000
0001
0010
1000
0000
0001
0100
1000
0000
0000
1100
0000
0000
0011
0000
,
0001
0010
0100
0000
0010
0100
1000
0000
0010
0000
0100
0010
0000
0010
0100
0000
,
0001
0100
0010
0000
0100
0010
1000
0000
0100
0000
0010
0100
0000
0100
0010
0000
,
0001
0100
0010
0110
0000
0000
1000
0100
0010
0110
0000
0000
,
0001
0010
1000
0001
0100
1000
0001
0001
1000
1001
0000
0000
,
2100
0000
3010
0000
0102
0000
0013
0000
0001
0100
0010
0001
1000
0100
0010
1000
,
0002
0000
0103
1000
0200
0000
0302
0000
0013
0100
0010
0000
1001
0000
0000
0000
,
2100
0000
3100
0100
0002
0000
0103
0100
1000
0010
0100
0001
1000
0100
0010
0001
,
0100
0000
0110
0000
0010
0100
1000
0000
1000
0100
0001
0000
1001
0000
0000
0000
,
0110
0000
0000
0000
1001
0000
0000
0000
1000
0100
0001
0001
0010
1000
1000
0100
,
0001
0100
1000
0100
2000
0000
3002
0000
0013
0000
0001
0100
0010
1000
0010
0000
,
1000
0000
1010
0000
0001
0100
0001
0100
0010
1000
0100
0010
0001
0010
0100
1000
,
0002
0000
0000
0000
0103
1000
0100
0001
1000
0000
0000
1010
0000
0000
0101
0000
,
1001
0000
0000
1000
0100
0000
0000
0100
0001
0000
0001
1000
0010
0001
0010
0000
,
0001
0000
0000
0000
0000
0000
0100
0000
0010
0000
0100
0000
0010
0000
1000
0000
0010
0000
1000
0000
0000
0000
0000
0000
0001
0000
0000
0100
0000
0000
0001
0000
0000
0010
0000
0000
0100
0000
0000
1000
0000
0000
0010
0000
0000
0000
0000
0000
,
1001
0000
0000
0001
0010
0000
0000
0010
1000
0000
1000
0001
0100
1000
0100
0000
,
1000
0000
0010
0100
0001
0100
0010
0000
1000
0010
1000
0100
0010
0001
0100
0000
,
0110
0000
0000
0100
0101
0000
0000
0100
1100
0000
0001
0010
1000
0010
0001
0000
,
2000
0000
3100
0001
2000
0000
3001
0100
1000
0010
0100
0010
0001
0010
0100
0010
,
1000
0000
0000
0010
1010
0000
0000
0010
0011
0000
1000
0100
0001
0100
1000
0000
,
1001
0010
0110
1000
1001
0100
0110
0000
,
2001
0000
3100
0000
0010
0001
0100
0010
1000
0000
0100
0000
1001
0000
0000
0000
,
0002
0000
0103
2000
0000
3001
0010
1000
0001
0100
0001
0010
0001
0000
0000
0000
,
2000
0000
3100
0001
0000
0001
0100
0010
0001
0000
1000
0100
0010
0000
0000
0000
,
0001
1000
0100
0010
0001
0000
0100
0010
1000
0001
0100
0010
0110
0000
0000
0000
,
2000
0000
3200
0000
0310
0000
1000
0010
0100
0000
1000
0010
0100
0000
0000
0000
,
0002
0000
0103
1000
0000
0100
0001
0010
1000
0010
0001
0010
1000
0000
0000
0000
,
0010
0100
1000
0000
0001
0010
0001
0100
0001
0010
0100
0001
0100
0000
0000
0000
,
1000
0000
1010
0000
0001
0000
0011
0000
1000
0010
0100
0001
0010
0001
0100
0010
,
2000
0000
0000
0000
0100
0000
0000
0000
3010
0000
0001
0010
1000
0001
0100
1000
,
0100
0000
0001
0010
0200
0000
0302
0000
1003
0010
0100
1000
0100
0000
0010
0001
,
0200
0000
1000
0000
0301
0011
0110
1100
,
0001
0100
0001
0100
0001
0100
0010
0000
0000
1010
0000
0000
1000
0100
1000
0100
1000
0100
0010
0000
0000
0011
0000
0000
,
0002
0000
0000
0000
0000
0000
0000
0000
0000
0000
0000
0000
0100
0000
0000
0000
0000
0000
0000
0000
0000
0000
0000
0000
0013
0000
0000
0000
0000
0000
1000
0000
0000
0010
0000
0000
0001
0000
1000
0000
0100
0000
1000
0000
0000
0000
0000
0000
,
0001
0010
0100
1000
0010
0100
0001
0010
0100
1000
0010
0100
0001
0010
0100
1000
,
0020
0000
0000
0000
0001
0000
0000
0000
1030
0000
1010
0000
1000
0100
0010
0001
,
1000
0000
0100
0001
0100
1000
0100
0010
0001
0100
0010
0001
1000
0100
0010
1000
,
0001
0100
1000
0000
1000
0100
0001
1000
0010
0000
1010
0000
0001
0010
0100
1000
,
0001
0100
0001
0100
0000
0000
0010
0000
0000
1000
0000
0000
1010
0000
0000
1010
0000
0000
0002
0000
0000
0000
0000
0000
,
0103
0000
0000
0000
0000
0000
0110
0000
0000
0010
0000
0000
1000
0000
0000
0001
0010
0100
1000
0000
0000
0000
0000
0000
,
0001
0100
0010
0000
2002
0000
3003
0000
,
1000
0000
0000
0010
0000
0000
0100
0000
0000
0001
0000
0000
0010
0000
0000
0000
0000
0000
1000
0000
0000
0000
0000
0000
0010
0000
0000
0000
0000
0000
0001
0000
0010
0000
0100
0000
1000
0000
0000
0000
0000
0000
0000
0000
0000
0000
0000
0000
,
1010
0000
0011
0000
1001
0000
0001
0001
,
1000
0000
0100
0000
1000
0000
0100
0000
1000
0000
0100
0000
1000
0000
0000
0000
0000
0000
0001
0000
0000
0010
0000
0000
0001
0000
0000
0010
0000
0000
0001
0000
0000
0000
0000
0000
0100
0000
0000
0000
0000
0000
0100
0000
0000
0000
0000
0000
,
0010
1010
0010
0011
0110
0000
1000
1000
,
0001
0000
0100
0000
0001
0000
0010
0100
0010
0100
0010
0000
0001
0000
1000
0000
,
0100
0100
0200
0000
0020
0000
0330
0000
,
1000
0000
0100
0001
0000
0100
1000
0000
0001
0010
0100
1000
0001
0010
0100
1000
,
0001
0000
0100
1000
0000
0100
0001
0000
1000
0010
0100
0001
1000
0010
0100
0001
,
1000
0000
0010
0001
0000
0010
1000
0000
0001
0010
0100
1000
0001
0100
0010
1000
,
0001
0000
0010
1000
0000
0010
0001
0000
1000
0010
0100
0001
1000
0100
0010
0001
,
1000
0000
0100
1100
0000
0100
0110
0000
0001
0100
0010
1000
0001
0100
1000
0100
,
0001
0000
0100
0101
0000
0100
0110
0000
1000
0010
0100
0001
1000
0100
0001
0100
,
1000
0000
0001
0011
0000
1000
1100
0000
0001
0100
0100
1000
0010
0010
0001
0100
,
0010
0000
1000
1010
0000
0001
0101
0000
1000
0100
0100
0001
0010
0010
1000
0100
,
0010
0000
0001
0010
1000
0000
0001
0100
1000
0000
0001
0011
0000
0001
0101
0000
,
1000
0100
0010
1000
0010
0100
1000
0010
1000
0000
0100
0101
0000
0100
1100
0000
,
1000
0010
0001
0010
1000
0000
0100
0001
0100
0000
1000
1010
0000
1000
1100
0000
,
0001
0010
0100
0001
0100
0010
0001
0100
0001
0000
0010
0011
0000
0010
1010
0000
,
1000
0100
1000
0100
0010
0000
0001
1000
0100
0000
1000
1010
0000
0100
1100
0000
,
1000
0001
0100
0001
0100
0000
0001
0100
0010
0000
0100
0101
0000
0001
0011
0000
,
0010
0100
1000
0100
0010
0000
0001
0100
1000
0000
1000
1100
0000
0100
0101
0000
,
1000
0100
0010
0001
1000
0010
0100
0001
1000
0100
0010
0001
1001
0000
0000
0000
,
2000
0000
3100
0020
0000
0031
0200
0000
0310
2000
0000
3001
0100
0000
0110
0000
,
0002
0000
0013
0200
0000
1300
0020
0000
0130
0002
0000
1003
0010
0000
0110
0000
,
2000
0010
3100
0002
1000
0103
0020
0001
0130
0020
1000
0031
0010
0000
0110
0000
,
0002
0100
0013
2000
0001
3020
0100
1030
0020
0100
0031
2000
0100
3000
0110
0000
,
0020
0100
1030
0020
0100
0031
0010
0000
0200
0010
0301
0200
0010
1300
0100
0000
,
2000
0100
3001
2000
0010
3001
1000
0000
0002
0100
1003
0002
0010
1003
0001
0000
,
1000
0100
0010
0001
1000
0100
0010
0001
1000
0000
0001
0101
0000
1000
1100
0000
,
1001
0001
1000
1001
0001
1000
1001
0001
1000
0000
0000
0001
0000
0000
1001
0000
,
0000
0000
0000
0000
;
#NOTES:
     dance-double:
     :
     Easy:
     8:
     :
00000000
00000000
00000000
00000000
,
00000000
00000000
00000000
00000000
,
00000000
00000000
00000000
00000000
,
00000000
00000000
00000000
00000000
,
00000000
00000000
00000000
00000000
,
10000000
10000000
00010000
00010000
,
01000000
01000000
00001000
00001000
,
00010000
00010000
00000100
00000100
,
00001000
00001000
00000001
00000001
,
00000100
00000010
00000100
00000010
,
00001000
00000100
00010000
00001000
,
00100000
00010000
00100000
01000000
,
10000000
00100000
01000000
00010000
,
00100000
00001000
00010000
00001000
,
00010000
00000010
00001000
00000100
,
00000220
00000330
00002002
00003003
,
00001100
00011000
00022000
00033000
,
00010000
00001000
00010000
00100000
,
10000000
00100000
10000000
01000000
,
00010000
00001000
00010000
00001000
,
00000100
00000001
00000010
00000001
,
00001100
00011000
01010000
00000000
,
10000000
00100000
01000000
00010000
,
00100000
00001000
00010000
00000010
,
00001000
00000000
00001001
00000000
,
00000010
00000001
00000100
00001000
,
00010000
00000000
01000000
00000000
10000000
00100000
10000000
00000000
,
01000000
10000000
00100000
00010000
,
00001000
00000000
00000010
00000000
00000001
00000100
00000001
00000000
,
00000010
00001000
00010000
01000000
,
10000000
00000000
00100000
00000000
10000000
01000000
10000000
00000000
,
00100000
10000000
01000000
00010000
,
00001000
00000000
00000010
00000000
00000001
00000100
00000001
00000000
,
00001001
00000100
00010000
00001000
,
00010000
00011000
00100000
00110000
,
10000000
01000000
00100000
00010000
,
10010000
00011000
00001001
00000000
,
00001000
00000001
00000100
00000010
,
00001000
00000100
00010000
00001000
,
00010000
00100000
01000000
00100000
,
10000000
00010000
10010000
00000000
,
00100000
00100000
00001000
00011000
,
00010000
00000100
00001000
00000010
,
00000200
00001000
00000310
00001000
,
00000100
00010000
00001000
01000000
,
00020000
10000000
01030000
00100000
,
01000000
01010000
00001000
00011000
,
00010000
00010000
00001000
00000100
,
00000001
00000010
00000001
00001000
,
00000100
00000010
00000100
00001000
,
00000100
00010000
00001000
00010000
,
00100000
00100000
10000000
00000000
,
01000000
01000000
00010000
00000000
,
00001000
00001000
00000010
00000000
,
00000001
00000100
00001000
00010000
,
00001000
00001000
00100000
00000000
,
00010000
00000000
10000000
00000000
,
02200000
00000000
00000000
00000000
,
00000000
00000000
00000000
03300000
,
00011000
00011000
00011000
00000000
,
00001001
00001001
00001001
00000000
,
00011000
00011000
00011000
00000000
,
10010000
10010000
10010000
00000000
,
00011000
00010000
00001000
00000100
,
00001000
00010000
00100000
00010000
,
00001000
00000010
00001000
00010000
,
00001000
00000100
00000001
00001000
,
00000010
00000010
00001000
00001100
,
00010000
00010000
00001000
00101000
,
00010000
10000000
01000000
01000000
,
00100000
00010000
00100000
00001000
,
00010000
00000100
00010000
00001000
,
00000100
00000001
00000100
00000010
,
00001000
00000100
00010000
00001000
,
00010000
00100000
10000000
00100000
,
01100000
00010000
00011000
00000010
,
00000110
00000001
00001001
00000100
,
00000101
00000001
00001001
00001000
,
00001100
00010000
00011000
00001000
,
00100000
00000000
00010000
00000000
01000000
00100000
01000000
00000000
,
00100000
00000000
10000000
00000000
01000000
00100000
01000000
00000000
,
00100000
00001000
00100000
00000000
00001000
00010000
00001000
00000000
,
00010000
00000100
00010000
00000000
00001100
00000000
00001001
00000000
,
00000000
00000000
00000000
00000000
;
#NOTES:
     dance-double:
     :
     Medium:
     13:
     :
00000000
00000000
00000000
00000000
,
00000000
00000000
00000000
00000000
,
00000000
00000000
00000000
00000000
,
00000000
00000000
00000000
00000000
,
00000000
00000000
00000000
00000000
,
00000001
00000000
00000000
00000001
00000000
00000000
00000001
00000000
00000000
00000001
00000000
00000000
00000010
00000000
00000010
00000000
,
00000100
00000000
00000000
00000100
00000000
00000000
00000100
00000000
00000000
00000100
00000000
00000000
00010000
00000000
00010000
00000000
,
00001000
00000000
00000000
00001000
00000000
00000000
00001000
00000000
00000000
00001000
00000000
00000000
01000000
00000000
01000000
00000000
,
00010000
00000000
00000000
00010000
00000000
00000000
00010000
00000000
00000000
00010000
00000000
00000000
10000000
00000000
10000000
00000000
,
01000000
00000000
00100000
00000000
01000000
00000000
00100000
00000000
00010000
00000000
00000000
00010000
00000000
00000000
01000000
00000000
,
00001000
00000000
00010000
00000000
00001000
00000000
00010000
00000000
00000010
00000000
00000000
00000010
00000000
00000000
00001000
00000000
,
00000001
00000000
00000010
00000000
00000001
00000000
00000010
00000000
00000100
00000000
00000000
00000100
00000000
00000000
00001000
00000000
,
00000010
00010000
00001000
00000000
01000000
00001000
00010000
00000000
,
00100000
10000000
01000000
00010000
00001000
00000100
00000001
00000000
,
00000010
00000001
00000100
00001000
00010000
01000000
10000000
00000000
,
00020000
01030000
20000000
31000000
,
00110000
00000000
00000000
00011000
00000000
00000000
00001000
00010000
00001000
00010000
00000000
00000000
,
00000010
00001000
00000010
00000100
00000001
00000000
00001001
00000000
,
00000100
00000010
00001000
00000100
00010000
00001000
00010000
00000000
,
00001000
00100000
00020000
00000000
01030000
00000000
01100000
00000000
,
10000000
01000000
00100000
00010000
00100000
00001000
00010000
00000000
,
00000100
00010000
00000100
00000000
00001000
00000010
00001000
00000000
,
00000001
00000010
00000100
00001000
00000100
00010000
00001000
00010000
,
01000000
00000000
10000000
00000000
01000000
00100000
01000000
00000000
,
00020000
00000000
00000000
00000000
00031000
00000000
00000000
00000000
00010000
00000000
00000000
00001000
00000000
00000000
00000100
00000000
,
00000001
00000000
00000000
00001000
00000100
00000000
00000000
00001000
00000010
00000000
00010000
00000000
00001000
00000000
00010000
00000000
,
01000000
00000000
00000000
10000000
00100000
00000000
00000000
10000000
01000000
00000000
00100000
00000000
00010000
00000000
00000000
00000000
,
00100000
00000000
00000000
00010000
01000000
00000000
00000000
00001000
00010000
00000000
00001000
00000000
00000100
00000000
00000001
00000000
,
00000100
00000000
00000000
00000010
00001000
00000000
00000000
00000100
00010000
00000000
00001000
00000000
00010000
00000000
00001000
00000000
,
00010000
00000000
00000000
01000000
10000000
00000000
00000000
00100000
01000000
00000000
00010000
00000000
00100000
00000000
00001000
00000000
,
00010000
00000000
00000000
00001000
00000100
00000000
00000000
00000001
00000010
00000000
00000001
00000000
00001000
00000000
00000000
00000000
,
00000100
00010000
00000100
00000000
01000000
00001000
01000000
00000000
,
00010000
00100000
00010000
10000000
01000000
00100000
00010000
00000000
,
10000000
00000000
10000000
00000000
00100000
00010000
00001000
00000000
,
00010000
00001000
00010000
00001000
00000010
00000000
00000001
00000000
,
00000100
00000010
00000000
00000010
00000100
00000010
00001000
00000000
,
00000100
00010000
00001000
00010000
00000000
00001000
00100000
00000000
,
00010000
00000000
00010000
00000000
10000000
01000000
10000000
00000000
,
01000000
00010000
00001000
00010000
00001000
00000000
00000010
00000000
,
00000001
00000100
00000010
00000000
00001000
00000100
00010000
00000000
,
00001000
00010000
00100000
01000000
00010000
00100000
01000000
00000000
,
10000000
00000000
10000000
00000000
00010000
00100000
00010000
00000000
,
01000000
00001000
00010000
00001000
00000100
00000000
00000110
00000000
,
00000002
00000000
00001003
00000000
00000100
00010000
00001000
00000000
,
01000000
00010000
10000000
00000000
00100000
10000000
01000000
00000000
,
20000000
00000000
30010000
00000000
00100000
00001000
00010000
00000000
,
00000010
00010000
00001000
00000000
00100000
00001000
00100000
00000000
,
00001000
00000000
00001000
00000000
00010000
00001000
00000100
00000000
,
00000001
00000000
00001000
00000000
00000100
00010000
00001000
00000000
,
01000000
00000000
01000000
00000000
00010000
00100000
00010000
10000000
,
01000000
00010000
00001000
00000000
00011000
00000000
00001001
00000000
,
00000010
00000000
00000010
00000000
00000001
00000100
00000000
00000100
,
00001000
00000000
00010000
00000000
00001000
00010000
00001000
00000000
,
00100000
00000000
00100000
00000000
00010000
01000000
00010000
00000000
,
10000000
01000000
00020000
00031000
,
00010000
00000000
00010000
00000000
00001000
00000010
00000000
00000010
,
00000001
00000100
00000001
00000100
00002000
00000000
00013000
00000000
,
00020000
00000000
00002000
00000000
,
00000000
00000000
00000000
00033000
,
00011000
00000000
00000000
00011000
00000000
00000000
00110000
00000000
00000000
00110000
00000000
00000000
10000000
00000000
10000000
00000000
,
01100000
00000000
00000000
01100000
00000000
00000000
01010000
00000000
00000000
01010000
00000000
00000000
00001000
00000000
00001000
00000000
,
00011000
00000000
00000000
00011000
00000000
00000000
00001010
00000000
00000000
00001010
00000000
00000000
00000001
00000000
00000001
00000000
,
00000110
00000000
00000000
00000110
00000000
00000000
00001100
00000000
00000000
00001100
00000000
00000000
00010000
00000000
00010000
00000000
,
00001000
00000000
00000000
00010000
00000000
00000000
00100000
00000000
00000000
10000000
00000000
01000000
00100000
00000000
00100000
00000000
,
00010000
00000000
00000000
01000000
00000000
00000000
10000000
00000000
00000000
01000000
00000000
00010000
00100000
00000000
00100000
00000000
,
00001000
00000000
00000000
00010000
00000000
00000000
00001000
00000000
00000000
00000100
00000000
00000001
00000010
00000000
00000010
00000000
,
00000001
00000000
00000000
00000100
00000000
00000000
00001000
00000000
00000000
00010000
00000000
00001000
00010000
00000000
00010000
00000000
,
00001000
00000000
00100000
00000000
00001000
00000000
00100000
00000000
00010000
00000000
00000000
00010000
00000000
00000000
10000000
00000000
,
10000000
00000000
00100000
00000000
00010000
00000000
00001000
00000000
00000010
00000000
00000000
00000001
00000000
00000000
00001000
00000000
,
00000100
00000000
00010000
00000000
00000100
00000000
00001000
00000000
00000010
00000000
00000000
00000100
00000000
00000000
00001000
00000000
,
00001000
00000000
00010000
00000000
00100000
00000000
10000000
00000000
01000000
00000000
00000000
00100000
00000000
00000000
00010000
00000000
,
00100000
00000000
00001000
00000000
00010000
00000000
00001000
00000000
00100000
00000000
00000000
00010000
00000000
00000000
00001000
00000000
,
00000100
00000000
00000010
00000000
00000001
00000000
00000100
00000000
00000001
00000000
00000000
00000010
00000000
00000000
00001000
00000000
,
00010000
00000000
00001000
00000000
00100000
00000000
00010000
00000000
10000000
00000000
00000000
01000000
00000000
00000000
00010000
00000000
,
00001000
00010000
00000100
00001000
00000010
00000100
00000001
00000010
,
00000001
00000000
00000000
00000100
00001000
00000000
00000000
00000000
00010000
00001000
00000000
00001000
00010000
00000000
00000000
00000000
,
00001000
00000000
00000000
00100000
00010000
00000000
00010000
00000000
10000000
00100000
00000000
00100000
10000000
00000000
00000000
00000000
,
01000000
00000000
00000000
00010000
00001000
00000000
00000000
00000000
00010000
00000100
00000000
00000100
00001000
00000000
00000000
00000000
,
00000010
00000000
00000000
00000010
00000100
00000000
00000000
00000000
00000010
00000000
00000000
00001000
00000100
00000000
00000000
00000000
,
00010000
00001000
00010000
00001000
00100000
00010000
10000000
01000000
,
00100000
00010000
10000000
01000000
00010000
00001000
00000100
00000001
,
00000010
00000000
00000001
00000000
00001000
00000000
00000100
00000000
00000010
00000000
00000000
00000001
00000000
00000000
00000100
00000000
,
00000001
00000000
00000010
00000000
00001000
00000000
00010000
00000000
00100000
00000000
00000000
10000000
00000000
00000000
10010000
00000000
,
00000000
00000000
00000000
00000000
;
#NOTES:
     dance-double:
     :
     Hard:
     16:
     :
00000000
00000000
00000000
00000000
,
00000000
00000000
00000000
00000000
,
00000000
00000000
00000000
00000000
,
00000000
00000000
00000000
00000000
,
00000000
00000000
00000000
00000000
,
00000001
00000000
00000000
00000001
00000000
00000000
00000001
00000000
00000000
00001000
00000000
00000000
00000100
00000000
00000100
00000000
,
00010000
00000000
00000000
00010000
00000000
00000000
00010000
00000000
00000000
00001000
00000000
00000000
00100000
00000000
00100000
00000000
,
00010000
00000000
00000000
00010000
00000000
00000000
00010000
00000000
00000000
10000000
00000000
00000000
01000000
00000000
01000000
00000000
,
00100000
00000000
00000000
00100000
00000000
00000000
00100000
00000000
00000000
00010000
00000000
00000000
01000000
00000000
01000000
00000000
,
00001000
00000000
00010000
00000000
00000100
00010000
00000100
00000000
00001000
00000000
00000010
00000000
00000000
00000000
00001010
00000000
,
00000001
00000000
00000100
00000010
00000100
00000000
00000010
00000000
00001000
00000000
00000100
00000000
00000000
00000000
00001100
00000000
,
00010000
00000000
00001000
00010000
00001000
00000000
00100000
00000000
00010000
00000000
10000000
00000000
00000000
00000000
10100000
00000000
,
00100000
01000000
00100000
00000000
01000000
00000000
00010000
00000000
00100000
00000000
00001000
00010000
00001000
00000000
00010000
00000000
,
00000010
00001000
00000010
00001000
00000001
00000100
00000001
00000100
,
00001000
00000100
00001000
00010000
00001000
00010000
01000000
00000000
,
00100000
00010000
01000000
00001000
00000000
00000000
00010000
00000010
00001000
00000100
00000000
00000000
,
00001000
00000010
00010000
00001000
00100000
00001000
00010000
01000000
00010000
00001000
00000000
00000000
,
00010000
00000000
00002000
00000000
00003100
00000000
00000020
00000000
00000130
00000001
00000100
00000000
00000001
00000000
00001000
00000000
,
00000020
00000000
00010030
00001000
00100000
00000000
00020000
00000000
10030000
00000000
00100000
00000000
01000000
00000000
00000000
00000000
,
00020000
00000000
00130000
00001000
00020000
00000000
00000000
00000000
00031000
00010000
00000100
00001000
00000100
00000000
00000100
00000000
,
00000020
00000000
00000032
00000000
00000103
00000010
00001000
00000100
00001000
00000100
00010000
00000000
00011000
00000000
00000000
00000000
,
00002000
00000000
00013000
00000000
00200000
00000000
00300000
00000000
10000000
01000000
10000000
01000000
00100000
00010000
00100000
00000000
,
00001000
00000000
00010000
00000000
00002000
00000000
00003020
00000000
00000032
00000000
00000103
00000010
00000100
00000000
00000001
00000000
,
00002000
00000000
00003200
00000000
00010300
00001000
00010000
00001000
01000000
00010000
01000000
00000000
00200000
00000000
20300000
00000000
,
30020000
00000000
00000000
00000000
10030000
01000000
00100000
00010000
00100000
00010000
00000000
00011000
00000000
00000000
00001010
00000000
,
00000001
00000000
00000100
00000001
00000100
00000000
00001000
00000100
00001000
00000000
00000100
00000000
00001000
00000000
00010000
00000000
,
01000000
00000000
00010000
01000000
00010000
00000000
01000000
10000000
01000000
00000000
10000000
00000000
00010000
00000000
00000000
00000000
,
10000000
00000000
00100000
10000000
00100000
00000000
00010000
00100000
00010000
00000000
00001000
00000000
00000010
00000000
00000001
00000000
,
00001000
00000000
00000010
00000100
00000010
00000000
00010000
00001000
00010000
00000000
00001000
00000000
00100000
00000000
00000000
00000000
,
00010000
00000000
10000000
01000000
00010000
00000000
00001000
00000100
00000001
00000000
00000010
00000000
00000100
00000000
00001000
00000000
,
00000001
00000000
00000010
00001000
00010000
00000000
00100000
10000000
00010000
00000000
10000000
00000000
01000000
00000000
00000000
00000000
,
10000000
00000000
01000000
00010000
00001000
00000000
00000100
00000001
00001000
00000000
00000010
00000000
00001000
00000000
00000100
00000000
,
00001100
00001100
00011000
00011000
00110000
00110000
10010000
00000000
,
00010000
01000000
00010000
00000000
10000000
00000000
01000000
00000000
00010000
00000000
00001000
00000000
00000100
00000000
00000000
00000000
,
00000001
00000000
00001000
00000010
00000000
00000010
00010000
00000000
00001000
00000000
00010000
00000000
01000000
00000000
00000000
00000000
,
10000000
00000000
00100000
00010000
00000000
00010000
00001000
00000000
00010000
00000000
00000010
00001000
00000010
00000000
00001000
00000000
,
00000001
00000100
00000001
00000100
00000001
00000000
00000100
00001000
00000000
00001000
00010000
00000000
00011000
00000000
00000000
00000000
,
00001000
00000000
00100000
00000000
00010000
00000000
10000000
00010000
10000000
00000000
00100000
00000000
01000000
00000000
00000000
00000000
,
00010000
00100000
00001000
00000000
00010000
00000000
00001000
00000000
00010000
00000010
00001000
00000000
00000001
00000000
00000000
00000000
,
00000100
00000000
00000010
00000000
00001000
00000100
00001000
00000000
00000100
00000000
00010000
00001000
00010000
00000000
00000000
00000000
,
00001000
00000000
00100000
00000000
00010000
00000000
01000000
00000000
00100000
10000000
00100000
10000000
00100000
00000000
00000000
00000000
,
10010000
00000000
00011000
00000000
00001100
00000010
00000001
00000100
,
00001000
00000000
00010000
00000000
00001000
00000000
00011000
00000000
01000000
00001000
01000000
00000000
00010000
00000000
01010000
00000000
,
20000000
00000000
01000000
00000000
30010000
00000000
00100000
00000000
00001000
00010000
00001000
00000000
00010000
00000000
00001000
00000000
,
00000100
00000000
00000001
00000000
00000010
00000000
00000001
00000100
00000001
00000000
00001000
00000000
00001001
00000000
00000000
00000000
,
00000002
00000000
00000010
00000000
00001003
00000000
00000100
00000000
00010000
00001000
00010000
00000000
00001000
00000000
00100000
00000000
,
00010000
01000000
00010000
00000000
10000000
00000000
01000000
00000000
00100000
00010000
00100000
00010000
00100000
00000000
00000000
00000000
,
00011000
00000000
00001001
00000000
00000110
00001000
00000100
00010000
,
00001000
00000000
00010000
00000000
00100000
00000000
01100000
00000000
10000000
00100000
10000000
00000000
00010000
00000000
00000000
00000000
,
00200000
00000000
00010000
00000000
00301000
00000000
00010000
00000000
00000010
00001000
00000010
00000000
00000100
00000000
00000001
00000000
,
00000010
00001000
00010000
00100000
10000000
10100000
10010000
00000000
,
00100000
00001000
00010000
00010000
00000100
00010000
00000100
00000000
,
00001000
00000010
00001000
00000000
00000001
00000100
00000010
00000010
,
00001000
00000001
00000100
00001000
00010000
01000000
10000000
00000000
,
00110000
00000000
00011000
00000000
00000200
00000000
00010300
00000010
,
00001000
00000001
00000010
00000001
00000100
00000010
00001000
00000100
,
00010000
00001000
00001000
00001000
00020000
00000000
01030000
10000000
,
00200000
00320000
00032000
00000000
,
00010000
00000000
01000000
00003000
,
00010000
00000000
00000000
00000100
00001000
00000000
00000100
00000010
00000000
00000001
00000010
00000000
00000001
00000100
00001000
00000000
,
00010000
00000000
00000000
00001000
00100000
00000000
00010000
01000000
00000000
00100000
01000000
00000000
00100000
00010000
00001000
00000000
,
00001000
00000000
00000000
00010000
00000010
00000000
00001000
00000010
00000000
00001000
00000100
00000000
00000010
00000001
00000100
00000000
,
00000001
00000000
00000000
00000100
00001000
00000000
00010000
00100000
00000000
01000000
00100000
00000000
01000000
00010000
00100000
00000000
,
11000000
00000000
00000000
01010000
00000000
00000000
00011000
00000000
00000000
00001000
00000000
00000100
00000001
00000000
00000010
00000000
,
00000011
00000000
00000000
00001100
00000000
00000000
00011000
00000000
00000000
01000000
00000000
00010000
10000000
00000000
00100000
00000000
,
01100000
00000000
00000000
01010000
00000000
00000000
00011000
00000000
00000000
00000010
00000000
00001000
00000100
00000000
00000010
00000000
,
00000110
00000000
00000000
00010100
00000000
00000000
01001000
00000000
00000000
00010000
00000000
10000000
01000000
00000000
10000000
00000000
,
00020000
00000000
01030000
00000000
00002000
00000000
00013000
00000000
00001000
00000000
00000100
00000001
00000000
00001000
00000010
00000000
,
00000100
00000000
00000001
00000100
00000002
00000000
00000203
00000000
00001300
00000000
00010000
01000000
00000000
00100000
00010000
00000000
,
10000000
00000000
00100000
00000000
20000000
00000000
30200000
00000000
00310000
00000000
00001000
00000010
00000000
00000100
00000010
00000000
,
00000001
00000000
00000100
00000010
00000200
00000000
00000310
00000000
00001000
00000000
00000000
00010010
00000000
00000000
00011000
00000000
,
00001000
00100000
00001000
00000000
01000000
00010000
01000000
00000000
00200000
00000000
10300000
00010000
00000000
01000000
00020000
00000000
,
00130000
00000000
00001000
00010000
00001000
00000000
00010000
00000000
00000100
00000000
00000000
00001100
00000000
00000000
00001001
00000000
,
00000010
00000001
00000010
00000000
00000001
00000000
00000100
00000000
00001000
00000000
00010000
00001000
00000000
00010000
01000000
00000000
,
10000000
00100000
10000000
00100000
01000000
00010000
01000000
00001000
00010000
00001000
00010000
00000100
00001000
00000100
00000010
00000001
,
00001000
00000000
00000000
00000100
00010000
00000000
00011000
00000000
00001000
00100000
00000000
00010000
00100000
00010000
10000000
00000000
,
00010000
00000000
00000000
01000000
00001000
00000000
00011000
00000000
00010000
00000100
00000000
00001000
00000100
00001000
00000001
00000000
,
00000010
00000000
00000000
00000001
00000100
00000000
00001000
00000000
00010000
00001000
00000000
00010000
00100000
10000000
00100000
00000000
,
01000000
00000000
00000000
00010000
00100000
00010000
00000000
00000000
00010000
00000000
00000000
01000000
00100000
00000000
00010000
00000000
,
00001000
00000000
00010000
00000000
00001000
00000000
00010000
00000000
00000100
00000000
00001000
00000100
00001000
00000000
00000010
00000000
,
00000100
00000000
00000001
00000000
00000100
00000000
00000001
00000000
00001000
00000000
00000100
00001000
00000100
00000000
00010000
00000000
,
00001000
00100000
00010000
01000000
00100000
10000000
01000000
00100000
00010000
00000000
00000000
10000000
01000000
00000000
00010000
00000000
,
00001000
00000100
00000001
00000100
00001000
00000000
00010000
00000000
00011000
00000000
00000000
01001000
00000000
00000000
00010100
00000000
,
00000000
00000000
00000000
00000000
;
#NOTES:
     dance-double:
     :
     Challenge:
     18:
     :
00000000
00000000
00000000
00000000
,
00000000
00000000
00000000
00000000
,
00000000
00000000
00000000
00000000
,
00000000
00000000
00000000
00000000
,
00000000
00000000
00000000
00000000
,
00000000
00000000
00001000
00000000
00000000
00000010
00000000
00000000
00000001
00000000
00000000
00000100
00000000
00000000
00001000
00000000
,
00000000
00000000
00010000
00000000
00000000
00100000
00000000
00000000
10000000
00000000
00000000
01000000
00000000
00000000
00010000
00000000
,
00000000
00000000
00001000
00000000
00000000
00000100
00000000
00000000
00000001
00000000
00000000
00000010
00000000
00000000
00001000
00000000
,
00000000
00000000
00010000
00000000
01000000
00000000
10000000
00100000
00010000
00000000
00001000
00000000
00011000
00000000
00000000
00000000
,
00011000
00000000
00000010
00001000
00000100
00000010
00000001
00001000
00000001
00000000
00000100
00001000
00000000
00001000
00010000
00000000
,
00011000
00000000
00001000
00010000
00100000
00000000
10000000
00010000
01000000
00000000
10000000
01000000
00000000
00010000
10000000
00000000
,
10010000
00000000
10000000
00010000
01000000
00100000
10000000
00010000
10000000
00000000
01000000
00010000
00000000
00010000
00001000
00000000
,
00011000
00000000
00010000
00001000
00000010
00000000
00000001
00001000
00000100
00000000
00000001
00000100
00000000
00001000
00000001
00000000
,
00000100
00000000
00001000
00000000
00010000
00000000
00100000
00000000
10000000
00000000
00000000
10000000
00000000
00000000
10000000
00000000
,
00100000
00000000
00010000
00000000
00001000
00000000
00000010
00000000
00000001
00000000
00000000
00000001
00000000
00000000
00000001
00000000
,
00000100
00001000
00010000
00100000
00000000
00000000
10000000
01000000
00010000
00001000
00000000
00000000
,
00010000
00100000
00010000
00001000
00000010
00001000
00010000
00010000
00001000
00011000
00000000
00000000
,
00012000
00000000
00013000
00000100
00002000
00000000
00003010
00000100
00000001
00000100
00000010
00001000
00000100
00010000
00001000
00000000
,
00020000
00000000
00130000
01000000
00100000
00000000
10000000
00000000
00010000
01000000
00010000
00000000
10010000
00000000
00000000
00000000
,
20010000
00000000
31000000
00100000
00020000
00000000
01030000
00100000
10000000
01000000
00100000
01000000
00100000
00010000
00100000
00001000
,
00010000
00000000
00000100
00000000
00000010
00000100
00001000
00000000
00000100
00010000
00001000
00000000
00011000
00000000
00000000
00000000
,
00011000
00000000
00000000
00000000
00011000
00000000
00000000
00000000
00001000
00010000
00001000
00100000
00010000
00100000
01000000
10000000
,
00010000
01000000
00100000
10000000
00200000
00000000
02300000
00000000
13000000
00000000
01000000
00010000
01000000
00000000
00001000
00000000
,
00010000
00000000
00000100
00000000
00001000
00000100
00001000
00000100
00000010
00000100
00001000
00000100
00010000
00001000
00010000
00001000
,
00020000
00000000
00000000
00000000
00031000
00000000
00100000
00010000
01000000
00000000
00000000
01010000
00000000
00000000
01010000
00000000
,
10010000
00000000
00000000
10000000
01000000
00000000
00000000
01000000
00010000
00000000
00001000
00000010
00000001
00000000
00001000
00000000
,
00000001
00000000
00000000
00000000
00000000
00000000
00000100
00000000
00000010
00000000
00000100
00000000
00000010
00000000
00001000
00000000
00000010
00000000
00001000
00000000
00000000
00000000
00000000
00000000
00000010
00000000
00000000
00010000
00000000
00000000
00001000
00000000
00000000
00010000
00000000
00000000
00000010
00000000
00000000
00001000
00000000
00000000
00000010
00000000
00000000
00000100
00000000
00000000
,
00000001
00000000
00000000
00000001
00000100
00000000
00000000
00000100
00001000
00000000
00010000
00100000
10000000
00000000
00010000
00000000
,
10000000
00000000
00100000
01000000
00100000
00010000
00001000
00000000
00010000
00000100
00001000
00000100
00000010
00000001
00001000
00000000
,
00001001
00000000
00000001
00000100
00000001
00000000
00001000
00000100
00001000
00000000
00000100
00010000
00001000
00100000
00010000
00000000
,
02000000
00000000
13000000
00010000
00200000
00000000
10300000
01000000
00100000
00001000
00010000
00001000
00100000
01000000
10000000
01000000
,
10000000
00000000
00010000
00100000
00010000
00000000
10000000
00100000
10000000
00000000
10000000
01000000
00100000
00001000
00010000
00000000
,
00000100
00000100
00000010
00000010
00000011
00000011
00001001
00000000
,
00002000
00000000
00003100
00000000
00000001
00000100
00000010
00000100
00001000
00000000
00000001
00000000
00001001
00000000
00000000
00000000
,
00000001
00000000
00000100
00000010
00000000
00010000
00001000
00010000
00001000
00000000
01000000
00100000
10000000
00000000
00000000
00000000
,
00020000
00000000
01030000
10000000
00000000
10000000
01000000
00100000
10000000
01000000
00100000
00010000
10000000
00000000
00000000
00000000
,
10000000
01000000
00100000
00001000
00010000
00000000
00000100
00001000
00000000
00000001
00000100
00000000
00001001
00000000
00000000
00000000
,
00000002
00000000
00000023
00000000
00001030
00000000
00010000
00000100
00001000
00000000
00000010
00010000
00001000
00000000
00000000
00000000
,
00000020
00000000
00000031
00000100
00000000
00001000
00010000
00100000
01000000
00100000
00010000
00001000
00010000
00000000
00000000
00000000
,
00001000
00000010
00001000
00000000
00010000
00001000
00100000
00001000
00010000
00100000
01000000
00010000
01000000
00000000
00000000
00000000
,
00100000
00000000
10100000
00000000
01000000
00000000
01010000
00000000
10000000
01000000
00100000
00010000
00001000
00000100
00000010
00000001
,
00002000
00000000
00000000
00000000
00000100
00000000
00000000
00000000
00003001
00000000
00001000
00000010
00000100
00000001
00000010
00000001
,
00000100
00001000
00000100
00001000
00010000
00000000
00011000
00000000
00001000
01000000
00001000
01000000
00010000
00100000
00010000
00100000
,
02000000
00000000
00010000
00000000
13000000
11000000
01100000
00110000
,
10000000
01000000
00100000
00000000
00001000
00000000
00011000
00000000
00010000
00000010
00001000
00000000
00000100
00000000
00000110
00000000
,
00002001
00000000
00000000
00000000
00000000
00000000
00000000
00000000
00000000
00000000
00000000
00000000
00000100
00000000
00000000
00000000
00000000
00000000
00000000
00000000
00000000
00000000
00000000
00000000
00003001
00000000
00000000
00000000
00000000
00000000
00000100
00000000
00000000
00001000
00000000
00000000
00010000
00000000
00001000
00000000
00010000
00000000
00001000
00000000
00000000
00000000
00000000
00000000
,
00010000
00100000
01000000
00010000
00100000
01000000
00010000
01000000
00100000
00010000
00100000
00001000
00010000
00000010
00001000
00000100
,
00000020
00000000
00000000
00000000
00001000
00000000
00000000
00000000
00000031
00000000
00000011
00000000
00000001
00000010
00000100
00001000
,
00000001
00000000
00000100
00001000
00010000
00001000
00010000
00100000
01000000
00010000
01000000
10000000
01000000
00010000
10000000
01000000
,
00100000
00010000
00100000
00000000
01000000
10000000
01000000
00000000
00200000
00000000
00302000
00000000
00023000
00000000
00030020
00000000
,
00001030
00000100
00001000
00000100
00000000
00000000
00010000
00000000
00000000
00001000
00000000
00000000
00011000
00000000
00000000
00011000
00000000
00000000
00011000
00000000
00000000
00000000
00000000
00000000
,
00011000
00000000
00000000
00000000
00000000
00000000
00010000
00000000
00000000
01000000
00000000
00000000
10000000
00000000
00000000
00010000
10000000
00010000
10000000
00000000
00000000
00000000
00000000
00000000
,
10000000
01000000
00100000
00000000
02200000
00000000
03300000
00000000
,
00001000
00000000
00000000
00010000
00000000
00000000
00001000
00000000
00000000
00010000
00000000
00000000
00001000
00000000
00000000
00000000
00000000
00000000
00010000
00000000
00000000
00000000
00000000
00000000
00000100
00000000
00000000
00000000
00000000
00000000
00001000
00000000
00000010
00000000
00001000
00000000
00000010
00000000
00000000
00000000
00000000
00000000
00000000
00000000
00000000
00000000
00000000
00000000
,
00001010
00000000
00000011
00000000
00001001
00000000
00001000
00001000
,
00000001
00000000
00000100
00000000
00000001
00000000
00000100
00000000
00000001
00000000
00000100
00000000
00000001
00000000
00000000
00000000
00000000
00000000
00001000
00000000
00000000
00000010
00000000
00000000
00001000
00000000
00000000
00000010
00000000
00000000
00001000
00000000
00000000
00000000
00000000
00000000
00000100
00000000
00000000
00000000
00000000
00000000
00010000
00000000
00000000
00000000
00000000
00000000
,
00001000
00010000
00100000
01000000
00010000
00000000
10000000
10000000
,
00100000
00000000
10000000
00000000
01000000
00000000
00100000
00000000
00001000
00010000
00001000
00000000
00010000
00000000
00000100
00000000
,
00000010
00000010
00000020
00000000
00000200
00000000
00000330
00000000
,
00001000
00000000
00000010
00000001
00000000
00000010
00001000
00000000
00000001
00000100
00000010
00001000
00010000
01000000
00100000
10000000
,
00010000
00000000
01000000
10000000
00000000
01000000
00010000
00000000
00100000
01000000
00010000
01000000
00100000
00010000
10000000
00000000
,
00010000
00000000
00100000
10000000
00000000
00100000
00010000
00000000
10000000
01000000
00100000
00010000
00001000
00000100
00000010
00000001
,
00001000
00000000
00000100
00000001
00000000
00000100
00001000
00000000
00000010
00000100
00001000
00000100
00000010
00001000
00000001
00000000
,
00001000
00000000
00000001
00000010
00000000
00000100
00001000
00000000
00000010
00010000
00001000
00000000
00010000
00001000
01000000
00000000
,
00100000
00000000
01000000
00010000
00000000
10000000
00100000
00000000
10000000
01000000
00100000
00010000
01000000
00100000
10000000
00000000
,
00010000
00000000
10000000
01000000
00000000
00100000
00010000
00000000
00100000
00001000
00010000
00000000
00001000
00010000
00000010
00000000
,
00000100
00000000
00000010
00001000
00000000
00000001
00000100
00000000
00000001
00000010
00000100
00001000
00000010
00000100
00000001
00000000
,
00000100
00000000
00001000
00000100
00000001
00000000
00000010
00000100
00001000
00000000
00000100
00010000
00000000
00010000
00001000
00000000
,
00001000
00010000
00100000
01000000
00010000
00100000
01000000
10000000
00010000
00000000
01000000
00100000
00000000
10000000
00010000
00000000
,
10000000
01000000
00100000
01000000
10000000
00000000
00100000
01000000
00010000
00000000
00100000
00001000
00000000
00010000
00000100
00000000
,
00001000
00000100
00000010
00001000
00000010
00000100
00001000
00000010
00001000
00000000
00000100
00000001
00000000
00000100
00001000
00000000
,
00000001
00000100
00000010
00000100
00001000
00000000
00010000
00100000
01000000
00000000
00010000
00100000
00000000
01000000
10000000
00000000
,
00010000
10000000
01000000
00100000
00010000
00000000
00100000
00001000
00010000
00000000
00001000
00010000
00000000
00010000
00001000
00000000
,
00001000
00010000
00000010
00001000
00000100
00000000
00000010
00000100
00000001
00000000
00000100
00001000
00000000
00000001
00000010
00000000
,
00000010
00000001
00000100
00000010
00001000
00000100
00010000
00001000
00100000
00010000
01000000
00100000
10000000
01000000
10000000
00000000
,
00020000
00030000
01000000
00200000
00300000
00010000
00002000
00003000
00000100
00000020
00000030
00001000
00000001
00000000
00001001
00000000
,
00000002
00000003
00000100
00002000
00003000
00010000
00000200
00000300
00000010
00002000
00003000
00010000
01000000
00000000
01100000
00000000
,
20000000
30100000
01000000
00020000
00130000
00001000
00020000
00031000
01000000
00002000
00013000
00000100
00001000
00000000
00001010
00000000
,
00000002
00001003
00000010
00020000
00030100
00002000
00003010
00010000
00002000
00103000
00010000
02000000
03010000
00000000
01100000
00000000
,
20000000
31000000
00100000
02000000
13000000
00010000
00200000
00301000
00010000
00000020
00001030
00000100
00001000
00000010
00000100
00000000
,
00000002
00000103
00000010
00002000
00003100
00010000
00000020
00010030
00001000
02000000
03010000
00100000
01000000
10000000
00010000
00000000
,
10000000
01000000
00100000
00010000
01000000
00100000
00010000
00001000
00100000
00001000
01000000
00001000
00100000
00001000
00010000
00000000
,
00011000
00001000
00010000
00011000
00001000
00010000
00011000
00000000
00001000
00000000
00000000
00010000
00000000
00000000
00011000
00000000
,
00000000
00000000
00000000
00000000
;
