
//----- song ID: shyg -----//
#TITLE:世界の果てに約束の凱歌を -DDR Extended Megamix-;
#ARTIST:BEMANI Sound Team "TAG";
#TITLETRANSLIT:Sekai no hate ni yakusoku no gaika wo -DDR Extended Megamix-;
#CDTITLE:./CDTitles/DDR A20 PLUS.png;
#MUSIC:Sekai no hate ni yakusoku no gaika wo -DDR Extended Megamix-.ogg;
#SAMPLESTART:77.463;
#SAMPLELENGTH:15;
#DISPLAYBPM:100:200;
#BPMS:0=200,196=100,227=200,290=100,290.5=200,291=400,292=200;
#STOPS:227=0.3;
#NOTES:
     dance-single:
     :
     Beginner:
     5:
     :
0000
0000
0000
0000
,
0000
0000
0000
0000
,
0000
0000
0000
0000
,
0000
0000
0000
0000
,
0000
0000
0000
0000
,
0001
0000
0010
0000
,
1000
0000
0010
0000
,
0200
0000
0300
0000
,
0010
0000
0100
0000
,
1001
0000
0000
0000
,
0010
0100
0010
0000
,
1001
0000
0000
0000
,
0100
0010
0100
0000
,
1001
0000
0000
0000
,
1000
0001
1000
0000
,
1001
0000
0000
0000
,
0001
1000
0001
0000
,
1000
0000
0100
0000
,
1000
0000
0010
0000
,
1000
0000
0100
0000
,
0010
0000
0001
0000
,
0100
0100
0100
0000
,
0001
0000
1000
0000
,
0010
0010
0010
0000
,
1000
0000
0001
0000
,
1000
0000
0010
0000
,
0100
0000
0001
0000
,
0100
0000
0001
0000
,
0010
0000
0100
0000
,
1000
1000
1000
0000
,
0100
0000
0010
0000
,
0001
0001
0001
0000
,
0100
0000
0010
0000
,
2002
0000
3003
0000
,
0001
0000
0100
0000
,
0220
0000
0330
0000
,
0010
0000
1000
0000
,
2002
0000
3003
0000
,
1000
0000
0010
0000
,
0220
0000
0330
0000
,
0100
0000
0001
0000
,
1000
1000
1000
0000
,
0010
0000
1000
0000
,
0001
0001
0001
0000
,
0010
0000
0001
0000
,
1000
0000
1001
0000
,
0001
0000
1001
0000
,
0100
0010
0100
0010
,
0001
0000
1000
0000
,
1001
0000
0000
0000
,
1001
0000
0000
0000
,
0010
0010
0100
0000
,
0100
0100
0010
0000
,
0001
0100
0001
0100
,
0010
1000
0010
0000
,
1000
0100
1000
0100
,
0010
0000
1001
0000
,
0000
0000
0010
0000
,
0001
0000
0100
0000
,
0010
0100
0010
0000
,
1000
0000
0001
0000
,
1000
1000
1000
0000
,
0001
0001
0001
0000
,
1000
0000
0100
0000
,
0001
0000
1001
0000
,
1000
0000
0010
0000
,
1000
0100
1000
0000
,
0001
0010
0001
0000
,
1000
0000
0001
0000
,
1000
0000
0010
0000
,
0001
0000
0100
0000
,
1000
0000
0100
0000
,
0001
0000
1000
0000
,
0000
0000
0000
0000
,
0100
0000
0100
0000
,
0010
0000
0010
0000
,
1000
0001
1000
0000
,
1000
0000
1000
0000
,
0100
0000
0100
0000
,
0010
0000
0010
0000
,
0001
1000
0001
0000
,
1001
0000
0001
0000
,
0100
0010
1000
0000
,
1001
0000
1000
0000
,
0100
0010
0001
0000
,
1000
0000
0010
0000
,
1000
0000
0100
0000
,
0010
0001
0100
0010
,
1000
0000
0001
0000
,
1001
0000
0000
0000
,
0000
0000
0000
0000
;
#NOTES:
     dance-single:
     :
     Easy:
     10:
     :
0000
0000
0000
0000
,
0000
0000
0000
0000
,
0000
0000
0000
0000
,
0000
0000
0000
0000
,
0000
0000
0000
0000
,
0010
0100
0220
0330
,
0001
1000
2002
3003
,
0001
1000
0010
0100
,
0001
1000
0001
0000
,
1000
0000
0000
1000
0000
0000
1100
0000
,
0000
1100
0000
0000
0010
0000
0010
0000
,
0001
0000
0000
0001
0000
0000
0101
0000
,
0000
0101
0000
0000
0010
0000
0010
0000
,
1000
0000
0000
1000
0000
0000
1001
0000
,
0000
1001
0000
0000
0010
0000
0010
0000
,
0100
0000
0000
0100
0000
0000
0110
0000
,
0000
0110
0000
0000
1001
0000
0000
0000
,
1000
0100
1000
0100
,
0010
0000
0001
0000
0010
0001
0010
0000
,
0001
0100
0001
0100
,
0010
0000
1000
0000
0010
1000
0010
0000
,
1000
0100
0001
0100
,
1000
0001
0100
0001
,
1000
0010
0001
0010
,
1000
0001
0100
0000
,
0001
0100
0001
0100
,
0010
0000
1000
0000
0010
1000
0010
0000
,
1000
0100
1000
0100
,
0010
0000
0001
0000
0010
0001
0010
0000
,
0001
0100
1000
0100
,
0001
1000
0100
1000
,
0001
0010
1000
0010
,
0001
1000
0100
0000
,
2000
0000
3010
0000
,
0002
0000
0013
0000
,
0200
0000
0310
0000
,
0020
0000
0130
0000
,
0002
0000
0013
0100
,
2000
0000
3010
0100
,
0002
0000
0013
0000
,
2000
0000
3010
0000
,
0100
0001
0010
0010
,
0100
1000
0001
0001
,
1000
1000
0010
0010
,
0100
0010
1000
0010
,
1000
0000
0000
1000
0000
0000
0000
0000
,
0001
0000
0000
0001
0000
0000
0000
0000
,
1000
0001
1000
0001
,
0010
0100
0010
0100
,
0020
0000
0030
1001
,
0200
0000
0300
1001
,
1000
0000
0001
0000
0100
0010
0100
0000
,
0001
0001
0001
0000
1000
1000
1000
0000
,
0010
0000
1000
0000
0100
0010
0001
0000
,
1000
0000
0010
0000
0100
0001
0100
0000
,
0010
0010
0010
0000
0100
0100
0100
0000
,
2002
0000
3003
0000
,
0010
0001
0100
0001
,
0010
0000
0100
0000
1000
0010
1000
0000
,
0100
0001
0100
1000
,
0001
0100
0001
0000
1000
0010
1000
0000
,
0001
0100
0101
0000
,
1000
0010
1010
0000
,
0001
0010
1000
0010
,
0001
0000
0000
1000
0000
0000
0001
0000
,
1000
0000
1000
0000
1000
0100
0010
0000
,
0001
1000
0100
0000
0010
0001
1000
0000
,
0001
0000
0001
0000
0001
0100
0010
0000
,
2000
3002
2003
3001
,
0001
0110
1000
0110
,
0001
0110
1000
0110
,
0010
0100
0010
0100
,
0001
1000
0001
1000
0002
0000
0000
0000
,
1003
0000
0000
1100
0000
0000
0001
0000
,
0000
0101
0000
0000
0010
0000
0010
0000
,
1000
0000
0000
1010
0000
0000
0001
0000
,
0000
0011
0000
0000
0100
0000
0100
0000
,
0010
0000
0000
1001
0000
0000
0100
0000
,
0000
1001
0000
0000
0010
0000
0010
0000
,
1000
0000
0000
0110
0000
0000
0001
0000
,
1000
0000
0001
0000
,
0001
0100
1000
0000
0100
0000
0001
0000
,
1000
0010
1000
0100
,
1000
0100
0001
0000
0100
0000
1000
0000
,
0010
1000
0010
0010
,
1000
0010
0001
0000
0010
0000
1000
0000
,
0001
0010
1000
0000
0010
0000
0001
0000
,
1000
1000
1000
0000
0001
0001
0001
0000
,
1000
0100
0010
0001
,
2002
0000
0000
0000
,
0000
0000
0000
0000
,
0000
0000
0000
0000
,
0000
0000
0000
0000
,
3003
0000
0000
0000
,
0000
0000
0000
0000
;
#NOTES:
     dance-single:
     :
     Medium:
     14:
     :
0000
0000
0000
0000
,
0000
0000
0000
0000
,
0000
0000
0000
0000
,
0000
0000
0000
0000
,
0000
0000
0000
0000
,
1001
0000
0000
0100
0000
0100
0200
0000
0000
0300
0000
0000
,
1001
0000
0000
0010
0000
0010
0020
0000
0000
0030
0000
0000
,
1000
0000
1000
0100
0000
0100
0010
0000
0010
0001
0000
0001
,
0100
0000
0100
0010
0000
0010
0100
0010
0100
0010
0000
0000
,
1000
0001
0000
1000
0001
0000
0010
0100
,
0000
0010
0100
0000
1100
0000
0011
0000
,
0100
0010
0000
0100
0010
0000
1000
0001
,
0000
1000
0001
0000
1010
0000
0101
0000
,
1000
0100
0000
1000
0100
0000
0010
0001
,
0000
0010
0001
0000
0110
0000
1001
0000
,
0001
0100
0000
0001
0100
0000
0010
1000
,
0000
0100
1000
0010
0100
0001
0100
0010
,
1000
0000
1000
0100
0010
0000
0010
0001
,
0100
0000
0100
0010
0100
0000
0110
0000
,
1001
0000
0001
0100
0010
0000
0010
1000
,
0100
0000
0100
0010
0100
0000
0110
0000
,
1001
0000
0010
0001
0000
0010
0100
0000
,
1001
0000
0010
1000
0000
0010
0100
0000
,
1001
0000
1000
0100
0000
0001
0100
0000
,
0010
0000
0001
0100
0010
0000
1000
0000
,
1001
0000
0001
0100
1000
0000
0100
0001
,
0010
0000
0100
0010
0100
0000
0110
0000
,
1001
0000
1000
0100
0001
0000
0100
1000
,
0010
0000
0100
0010
0100
0000
0110
0000
,
1001
0000
0001
0100
0000
1000
0100
0000
,
0110
0000
1000
0010
0000
0001
0010
0000
,
0110
0000
0010
1000
0000
0100
1000
0000
,
0010
0000
0100
0001
0100
0000
0100
0001
,
2000
3010
0002
0013
,
0100
0010
1000
0010
,
0100
0000
0001
1000
0000
1000
0100
0000
,
0010
0011
0010
1010
,
0020
0000
0130
0010
0000
0010
0100
0000
,
0002
0000
0000
1000
1003
0000
1001
0000
,
0001
0011
1000
1010
,
0200
0000
0000
0010
0310
0000
0100
0000
,
0001
0000
0100
0001
0010
0000
0100
1000
,
0100
0000
0010
0001
0100
0000
0010
0000
,
1000
0000
0010
0100
0001
0000
1000
0100
,
0001
0100
1000
0100
,
0010
0000
0001
0202
0000
0000
0303
0000
,
0010
0000
1000
2200
0000
0000
3300
0000
,
1000
0100
0010
0001
,
1000
0010
0100
0001
1000
0100
0010
0001
,
0200
0010
1000
0301
,
0020
0100
0001
1030
,
1000
0000
0001
0000
0010
0001
0010
0000
0100
0000
1000
0000
0010
1000
0010
0000
,
1000
0100
0001
0100
1000
0001
1001
0000
,
1000
0000
0010
0000
1000
0100
1000
0000
0001
0000
0010
0000
0001
0100
0001
0000
,
0010
0100
1000
0000
0001
0010
0100
0000
1000
0000
0001
0000
1001
0000
0000
0000
,
0001
0100
1000
0100
0001
1000
0001
0000
,
2002
0000
0000
0000
0000
0000
3003
0000
1000
0001
1000
0001
0000
0000
0000
0000
,
0001
0100
0010
1000
0100
0001
0100
1000
,
0001
0010
0100
1000
0010
1000
0001
0100
,
0010
1000
0100
1000
0010
0100
0001
0100
,
0001
1000
0010
0100
0001
1000
0110
0000
,
1000
0000
0000
0010
0000
0000
0100
0000
0202
0000
0000
0000
0303
0000
1000
0001
,
1000
0000
0000
0100
0000
0000
0010
0000
0022
0000
0000
0000
0033
0000
0100
0010
,
0100
0000
0000
0010
0000
0000
0001
0000
0100
0000
0000
0010
0000
0000
1000
0000
,
0100
0100
0000
1001
0000
0010
0010
0000
,
1000
0000
0010
0000
1000
0000
0100
0000
1000
0000
0010
0000
1000
0001
1000
0001
,
1000
0000
0000
0100
0000
0000
0001
0000
0001
0000
0000
0100
0000
0000
1000
0000
,
1000
0000
0000
0010
0000
0000
0100
0000
0100
0000
0000
0001
0000
0000
1000
0000
,
1000
0000
1000
0001
0000
0001
1000
0000
1000
0001
0000
0000
,
0010
0001
0010
0001
1000
0010
1000
0010
,
0100
0001
0100
0001
1000
0100
1000
0100
,
0010
0001
0100
0010
1000
0100
0010
0001
,
0100
0010
0100
0010
0220
0000
0000
0330
,
1000
0010
0100
0001
0010
0001
0100
0100
,
0010
1000
0001
0100
0010
0100
0001
0001
,
1000
0100
0010
0001
0100
0010
1000
1000
,
0010
0100
0001
0100
0010
0010
1001
0000
,
0001
1000
0100
1000
0010
0100
0010
0010
,
1000
0100
0010
0001
0100
1000
0100
0100
,
0010
1000
0001
0100
0001
0010
0100
0100
,
1000
0000
0000
0010
0000
0000
1010
0000
0001
0000
0000
0100
0000
0000
0101
0000
,
0001
0000
0110
1000
0010
0100
0001
0010
,
0110
0001
1000
0100
1000
0010
0100
0001
,
0101
1000
0100
1000
0010
0100
0001
0010
,
0011
1000
0100
0010
0001
0100
1001
0000
,
0010
1000
0100
0010
0001
0001
1000
0100
,
1000
0010
0100
0001
1000
1000
0001
1000
,
0100
0000
1000
0001
0000
1000
0001
0000
0100
0000
0001
1000
0000
0001
1000
0000
,
0001
0000
0100
0001
0000
0100
0001
0000
1000
0000
0010
1000
0000
0010
1000
0000
,
2002
0000
0000
0000
,
0000
0000
0000
0000
,
0000
0000
0000
0000
,
0000
0000
0000
0000
,
3003
0000
0000
0000
,
0000
0000
0000
0000
;
#NOTES:
     dance-single:
     :
     Hard:
     17:
     :
0000
0000
0000
0000
,
0000
0000
0000
0000
,
0000
0000
0000
0000
,
0000
0000
0000
0000
,
0000
0000
0000
0000
,
1001
0000
0000
0001
0010
0100
2000
0000
0000
3000
0000
0000
,
1001
0000
0000
1000
0010
0100
0002
0000
0000
0003
0000
0000
,
1000
0000
0100
0010
0000
0001
0100
0000
0010
1000
0000
0001
,
1000
0001
1000
0001
1000
0001
0010
0100
0010
0100
0000
0000
,
0011
0011
0000
0101
0101
0000
1010
1010
,
0000
0000
1100
0000
1100
0000
0000
0000
1000
0100
0010
0000
0001
0100
0010
0000
,
1010
1010
0000
0011
0011
0000
1100
1100
,
0000
0000
0101
0000
0101
0000
0000
0000
1000
0010
0100
0000
0001
0010
0100
0000
,
1100
1001
0000
0011
1001
0000
0110
0101
,
0000
0000
0110
0000
1100
0000
0000
0000
0100
0010
0001
0000
1000
0100
0010
0000
,
0011
1100
0000
1010
0101
0000
0110
1001
,
0000
0000
1000
0000
0001
0000
1000
0000
0001
0100
0001
0100
0010
1000
0010
1000
,
0010
0000
0000
0000
1000
0000
0001
0100
0010
0000
0000
0000
1000
0000
0100
0010
,
0001
0000
0100
0010
0010
0000
0110
0000
,
1001
0000
0000
0000
0001
0000
1000
0100
0010
0000
0000
0000
0001
0000
0100
0010
,
1000
0000
0100
0010
0010
0000
0110
0000
,
1001
0000
0010
0011
0000
0010
0110
0000
,
1001
0000
0010
1010
0000
0010
0110
0000
,
1001
0000
1000
0110
0000
0001
0110
0000
,
0011
0000
0000
0000
0101
0000
0100
0010
1000
0000
0000
0000
1100
0000
0000
0000
,
1000
0000
0000
0000
1000
0000
0001
0100
1000
0000
0000
0000
1000
0000
0100
0001
,
0010
0000
0010
0100
0100
0000
0110
0000
,
1001
0000
0000
0000
0001
0000
1000
0100
0001
0000
0000
0000
0001
0000
0100
1000
,
0010
0000
0010
0100
0100
0000
0110
0000
,
1001
0000
0001
1100
0000
1000
0101
0000
,
0110
0000
1000
0011
0000
0001
1010
0000
,
0110
0000
0010
1001
0000
0100
1001
0000
,
1010
0000
0000
0000
0101
0000
0010
1000
0100
0000
0000
0000
0011
0000
0001
0000
,
2000
0010
3002
0010
,
0203
0320
2030
3020
,
0230
0000
0301
1000
0000
1000
0100
0001
,
0200
0320
0032
2003
,
3020
0000
0130
0001
0000
0001
2000
0000
,
3002
0000
0000
0000
0000
0000
1003
0100
2000
0000
0000
0000
3001
0000
0010
0000
,
0002
0023
2030
3002
,
0203
0000
0000
1000
2000
0000
3300
0000
,
0001
0100
0001
0000
0010
0000
0000
0000
0100
1000
0100
0000
0010
0000
0000
0000
,
0001
0100
0010
0000
1000
0000
0000
0000
0100
0010
0001
0000
1000
0000
0000
0000
,
1010
0000
0011
0000
0101
0000
1000
0100
,
0101
0000
0011
0000
1010
0000
0100
0010
,
0001
0000
0000
0101
0000
0000
0101
0000
0000
0000
0010
0000
0000
1000
0000
0000
,
0100
0000
0000
1100
0000
0000
1100
0000
0000
0000
0010
0000
0000
0001
0000
0000
,
1000
0100
1000
0100
0010
0001
0010
0001
,
1000
0010
1000
0010
1000
0010
1000
0010
0100
0001
0100
0001
0100
0001
0100
0001
,
0100
0000
0000
0000
0000
0000
0001
0010
0100
0000
0000
0000
0000
0000
1000
0010
0100
0000
0000
0000
0000
0000
0001
0100
0010
0000
0000
0000
0000
0000
1000
0100
,
0010
0000
0000
0000
0000
0000
0001
1000
0100
0000
0000
0000
0000
0000
1000
0001
0010
0000
0000
0000
0000
0000
0001
1000
0010
0000
0000
0000
0000
0000
0000
0000
,
1000
0000
0000
0100
0000
0000
0110
0000
0000
0000
0001
0000
0100
0000
0010
0000
1000
0000
0100
0000
0010
0000
0002
0000
0000
0000
0100
0000
1003
0000
0000
0000
,
1000
0000
0001
0100
1000
0000
0100
0000
0001
0000
1000
0000
0000
0000
1010
0000
0000
0000
1100
0000
0000
0000
2002
0000
0000
0000
0000
0000
3003
0000
0000
0000
,
1000
0000
0000
0010
0000
0000
0110
0000
0000
0000
0100
0000
0001
0100
0010
0000
1000
0000
0000
0001
0000
0000
1001
0000
0000
0000
0100
0000
0001
0000
0000
0000
,
0010
0001
0010
0001
0010
0100
1000
0010
0000
0010
0100
0010
0110
0000
1010
0000
,
1000
0000
1000
0100
0001
0000
0100
0000
1000
0000
0001
0000
0000
0000
1001
0000
0000
0000
1000
0100
0001
0000
0100
0000
1000
0000
0001
0000
0000
0000
0100
0000
,
0020
0000
0000
0000
0000
0000
0030
0000
1001
1001
1001
1001
0000
0000
0000
0000
,
0001
0000
0100
0010
0000
0100
0010
0000
1000
0000
0100
0000
1100
0000
0000
0000
,
1000
0000
0100
0010
0000
0100
0010
0000
0001
0000
0100
0001
0000
0100
0001
0000
,
1000
0000
0001
0100
0000
0100
0001
0000
1000
0000
0100
0010
0000
0010
0100
0000
,
1000
0000
0000
0010
0000
0000
0001
0000
0100
0010
0100
0010
0100
0000
0100
0010
,
2000
0000
0000
0010
0000
0000
0001
0000
3100
0010
0100
0010
0100
0000
0100
0010
,
0002
0000
0000
0010
0000
0000
1000
0000
0103
0010
0100
0010
0100
0000
0001
0100
,
0010
0000
1000
0100
0000
0100
0001
0000
1001
0000
1000
0010
0000
0010
0001
0000
,
0100
0000
0110
0000
0000
0000
1010
0000
0000
0000
0101
0000
1000
0100
1000
0100
,
0010
0000
0001
0000
0101
0000
0100
0000
0110
0000
0010
0000
1000
0010
1000
0100
,
0010
0000
0001
0100
0000
0100
0010
0000
1000
0000
0100
0010
0000
0010
0001
0000
,
0100
0000
0010
1000
0000
0010
1000
0000
0001
0000
1000
0100
0000
1000
0100
0000
,
1000
0000
0000
0000
1000
0000
0000
0000
2000
0000
0000
0000
0001
0000
0000
0000
0001
0000
0000
0000
3002
0000
0000
0000
1000
0000
0000
0000
1000
0000
0000
0000
1003
0000
0000
0000
1001
0000
0000
0000
0000
0000
0010
0000
0000
0100
0000
0000
,
0002
0000
0000
0023
0000
0000
1030
0000
0002
0000
0000
0203
0000
0000
1300
0001
,
2000
0000
0000
3020
0000
0000
0031
0000
2000
0000
0000
3200
0000
0000
0301
0000
,
1000
0010
1000
0010
0100
0001
0100
0001
,
1000
0001
1000
0001
0010
0100
0010
0100
0020
0000
0000
0000
0000
0000
0000
0000
,
0031
1000
0001
1000
0001
0000
0100
0010
0100
0010
0100
0000
0010
1000
0010
1000
,
0010
0000
0100
0001
0100
0001
0100
0000
0001
0010
0001
0000
1000
0100
1000
0000
,
0010
1000
0010
0100
0010
0000
1000
0001
1000
0010
1000
0000
0001
0100
0001
1000
,
0001
0000
0100
0010
0100
0001
0100
0000
0010
0100
0001
0000
0100
0010
1000
0000
,
0001
1000
0100
0010
0001
0000
0010
0100
1000
0001
0100
0000
0010
1000
0001
0100
,
0001
0000
1000
0001
0100
0010
1000
0000
0100
0010
0001
0000
0100
0010
1000
0000
,
0010
1000
0100
0010
0001
0000
0100
0001
0010
0100
1000
0000
0010
0100
0001
0010
,
0001
0000
0000
1001
0000
0000
1100
0000
1010
0000
0000
1001
0000
0000
0101
0000
,
2000
0000
0000
0000
3100
0000
0010
0001
0100
0001
0000
0001
0010
0000
0100
0000
,
1000
0000
0010
0100
0001
1000
0000
0001
0000
1000
0000
0001
0100
0010
0100
0001
,
1000
0000
0100
0010
0001
0100
0000
0001
0000
0010
0000
0001
0100
0000
0010
0000
,
1000
0000
0100
1000
0001
0010
0000
0001
0000
0100
0000
0001
0100
0010
1000
0000
,
0001
0100
0001
0000
1000
0010
1000
0000
0100
1000
0100
0000
0010
0001
0010
0000
,
0001
0100
0010
0000
1000
0100
0010
0000
0001
1000
0010
0000
0100
0010
1000
0000
,
0100
0000
0010
0001
0000
0010
0001
0000
0100
0000
0010
1000
0000
0010
1000
0000
,
0001
0010
0100
1000
0010
0100
0001
0010
0100
1000
0010
0100
0001
0010
0100
1000
,
0002
0000
0000
0000
,
0000
0000
0000
0000
,
0000
0000
0000
0000
,
0000
0000
0000
0000
,
0003
0000
0000
0000
,
0000
0000
0000
0000
;
#NOTES:
     dance-double:
     :
     Easy:
     10:
     :
00000000
00000000
00000000
00000000
,
00000000
00000000
00000000
00000000
,
00000000
00000000
00000000
00000000
,
00000000
00000000
00000000
00000000
,
00000000
00000000
00000000
00000000
,
00001000
00001000
00002000
00003000
,
00010000
00010000
00020000
00030000
,
00001000
00010000
00001000
00010000
,
00100000
10000000
00100000
00000000
,
10000000
00000000
00000000
10000000
00000000
00000000
01000000
00000000
,
00000000
01000000
00000000
00000000
00100000
00000000
00001000
00000000
,
00010000
00000000
00000000
00010000
00000000
00000000
00000100
00000000
,
00000000
00000100
00000000
00000000
00001000
00000000
00000010
00000000
,
00000100
00000000
00000000
00000100
00000000
00000000
00000001
00000000
,
00000000
00000001
00000000
00000000
00000100
00000000
00001000
00000000
,
00010000
00000000
00000000
00010000
00000000
00000000
00001000
00000000
,
00000000
00001000
00000000
00000000
00011000
00000000
00000000
00000000
,
00010000
01000000
00010000
01000000
,
10000000
00000000
00100000
00000000
01000000
00100000
01000000
00000000
,
00010000
00100000
00010000
00100000
,
00001000
00000000
00010000
00000000
00001000
00010000
00001000
00000000
,
00000010
00000001
00000010
00000100
,
00001000
00000010
00000100
00001000
,
00010000
00001000
00010000
00100000
,
01000000
00100000
10000000
00000000
,
01000000
00100000
01000000
00100000
,
00010000
00000000
00100000
00000000
00001000
00010000
00001000
00000000
,
00010000
00000010
00010000
00000010
,
00001000
00000000
00000010
00000000
00001000
00000100
00001000
00000000
,
00000001
00000010
00000001
00000010
,
00000100
00001000
00000100
00010000
,
00001000
01000000
00010000
01000000
,
00100000
10000000
00100000
00000000
,
10000000
00000000
10000000
00000000
,
01000000
00100000
01000000
00000000
,
00010000
00000000
00010000
00000000
,
00001000
00010000
00001000
00000000
,
00000010
00000000
00000010
00000000
,
00000100
00001000
00000100
00000000
,
00001000
00000000
00001000
00000000
,
00000001
00001000
00000001
00000000
,
00000100
00001000
00010000
00000000
,
00001000
00010000
00100000
00000000
,
10000000
10000000
00010000
00010000
,
01000000
00001000
00010000
00000000
,
00001000
00000000
00000000
00001000
00000000
00000000
00000000
00000000
,
00010000
00000000
00000000
00010000
00000000
00000000
00000000
00000000
,
00000010
00001000
00000010
00001000
,
00000001
00000100
00000001
00000000
,
00000200
00000300
00000100
00001000
,
00020000
00030000
00010000
01000000
,
10000000
10000000
10000000
00000000
00100000
00000000
01000000
00000000
,
00001000
00001000
00001000
00000000
00010000
00010000
00010000
00000000
,
00000100
00000100
00000100
00000000
00000010
00000000
00000001
00000000
,
00001000
00001000
00001000
00000000
00000100
00000000
00010000
00000000
,
00001000
00001000
00001000
00000000
00010000
00010000
00010000
00000000
,
00022000
00000000
00033000
00000000
,
00010000
00001000
01000000
00010000
,
00100000
01000000
10000000
10000000
,
01000000
00010000
01000000
00010000
,
00001000
00000010
00001000
00000010
,
00000001
00000001
00000101
00000000
,
00001000
00001000
00001100
00000000
,
00000100
00010000
00001000
00010000
,
00100000
00000000
00000000
00100000
00000000
00000000
00100000
00000000
,
10000000
00000000
10000000
00000000
01000000
00100000
01000000
00000000
,
10000000
00100000
00010000
00001000
,
00000100
00000000
00000100
00000000
00000100
00000010
00000100
00000000
,
00000002
00000000
00002003
00000000
,
00003010
00000010
00010000
00010000
,
00001000
00001000
01000000
01000000
,
00010000
00100000
01000000
10000000
,
01000000
00100000
01000000
00100000
01000000
00000000
00000000
00000000
,
00011000
00000100
00000010
00000001
,
00000100
00000010
00000100
00001000
,
00010000
00100000
10000000
01000000
,
00010000
01000000
00100000
01000000
,
00011000
00000010
00000001
00001000
,
00000010
00000100
00000010
00001000
,
00000100
00010000
00100000
00010000
,
00001000
00001000
00010000
00010000
,
00001000
00000000
00011000
00000000
01000000
00100000
01000000
00000000
,
00010000
10000000
01000000
00010000
,
00001000
00000000
00000010
00000000
00000100
00001000
00000100
00000000
,
00001000
00000010
00000100
00000100
,
00000001
00000100
00001000
00010000
,
00100000
10000000
01000000
00010000
,
00001000
00000010
00001000
00010000
,
00100000
00010000
00001000
00000000
,
00022000
00000000
00000000
00000000
,
00000000
00000000
00000000
00000000
,
00000000
00000000
00000000
00000000
,
00000000
00000000
00000000
00000000
,
00033000
00000000
00000000
00000000
,
00000000
00000000
00000000
00000000
;
#NOTES:
     dance-double:
     :
     Medium:
     14:
     :
00000000
00000000
00000000
00000000
,
00000000
00000000
00000000
00000000
,
00000000
00000000
00000000
00000000
,
00000000
00000000
00000000
00000000
,
00000000
00000000
00000000
00000000
,
00001001
00000000
00000000
00000010
00000100
00000010
00000200
00000000
00000000
00000300
00000000
00000000
,
00010010
00000000
00000000
00010000
00001000
00010000
00002000
00000000
00000000
00003000
00000000
00000000
,
00010000
00000000
00010000
00001000
00000000
00001000
00100000
00000000
00100000
01000000
00000000
01000000
,
10000000
00000000
10000000
00010000
00000000
00010000
10000000
00010000
10000000
00010000
00000000
00000000
,
10000000
01000000
00000000
10000000
01000000
00000000
00100000
01000000
,
00000000
00100000
01000000
00000000
00100000
00010000
01000000
00001000
,
00010000
00001000
00000000
00010000
00001000
00000000
00010000
00000100
,
00000000
00010000
00000100
00000000
00000010
00000100
00001000
00000100
,
00000010
00000001
00000000
00000010
00000001
00000000
00001000
00000001
,
00000000
00001000
00000001
00000000
00000100
00000010
00001000
00000100
,
00010000
00001000
00000000
00010000
00001000
00000000
01000000
00100000
,
00000000
01000000
00100000
00000000
10000000
00010000
10000000
00000000
,
00100000
00000000
10000000
01000000
00100000
00000000
00010000
01000000
,
00100000
00000000
10000000
01000000
00100000
00000000
01000000
00000000
,
00010000
00000000
00001000
00000010
00000100
00000000
00001000
00000010
,
00000100
00000000
00000001
00000010
00000100
00000000
00001000
00000000
,
00000001
00000100
00000001
00000010
00000000
00000100
00001000
00000000
,
00000010
00010000
00001000
00010000
00000000
00001000
00000010
00000000
,
00001000
00010000
01000000
00100000
00000000
01000000
10000000
00000000
,
00100000
00000000
01000000
00100000
01000000
00000000
01000000
00000000
,
10100000
00000000
10000000
01000000
00010000
00000000
01000000
00010000
,
00001000
00000000
00010000
00001000
00000010
00000000
00000011
00000000
,
00001001
00000000
00000001
00000100
00001000
00000000
00000100
00001000
,
00010000
00000000
00001000
00010000
00100000
00000000
01100000
00000000
,
10010000
00000000
00100000
10000000
01000000
00100000
00010000
00000000
,
01100000
00000000
00010000
00001000
00010000
00000010
00001000
00000000
,
00000110
00000000
00001000
00000010
00000100
00000001
00000100
00000000
,
00000001
00000000
00001000
00000100
00000010
00000000
00000001
00000100
,
00000020
00001030
00000002
00001003
,
00000100
00010000
01000000
00100000
,
00010000
00000000
01000000
10000000
00000000
10000000
01000000
00000000
,
00100000
10000000
01000000
00010000
,
00001000
00000000
00000010
00000001
00000000
00000001
00000010
00000000
,
00000200
00000000
00000000
00000010
00000310
00000000
00001001
00000000
,
00000100
00001000
00010000
00100000
,
20000000
00000000
00000000
01000000
31000000
00000000
00000000
00000000
,
01000000
00100000
01000000
00000000
00010000
00001000
00010000
00000000
,
00000010
00000100
00000010
00000000
00001000
00000000
00000001
00000000
,
00000100
00000010
00000100
00000000
00001000
00010000
00001000
00000000
,
00100000
01000000
00100000
00000000
00010000
00000000
10000000
00000000
,
01000000
00000000
00100000
00220000
00000000
00000000
00330000
00000000
,
00001000
00000000
00000010
00000022
00000000
00000000
00000033
00000000
,
00000001
00001000
00010000
10000000
,
10000000
00100000
00010000
00000000
00001000
00010000
00001000
00000000
,
00012000
00000100
01000000
00003100
,
00021000
00100000
00000010
00130000
,
00001000
00000000
00010000
00000000
00001000
00000010
00001000
00000000
00010000
00000000
00001000
00000000
00000100
00000001
00000100
00000000
,
00000001
00000100
00001000
00010000
00100000
10000000
10010000
00000000
,
10000000
00000000
01000000
00000000
00100000
00010000
00100000
00000000
00001000
00000000
00010000
00000000
01000000
00010000
01000000
00000000
,
00010000
00001000
00000010
00000001
00000100
00000010
00001001
00000000
,
00000001
00000010
00001000
00010000
01000000
10000000
00010000
00000000
,
10010000
00000000
00000000
00000000
00000000
00000000
00000000
00000000
00001000
00010000
00001000
00010000
00000000
00000000
00000000
00000000
,
00000001
00000010
00000001
00000010
00000100
00001000
00000010
00000100
,
00001000
00010000
00000100
00010000
00001000
00010000
00100000
01000000
,
00010000
00100000
01000000
10000000
00010000
00100000
01000000
10000000
,
00100000
01000000
00100000
10000000
01000000
00100000
10010000
00000000
,
10000000
00000000
00000000
01000000
00000000
00000000
00010000
00000000
00002000
00000000
00000000
00000000
00003000
00000000
00010000
00001000
,
00010000
00000000
00000000
00001000
00000000
00000000
00000010
00000000
00000002
00000000
00000000
00000000
00000003
00000000
00001000
00000001
,
00001000
00000000
00000000
00000001
00000000
00000000
00000010
00000000
00001000
00000000
00000000
00010000
00000000
00000000
01000000
00000000
,
10000000
00010000
00000000
10010000
00000000
01000000
01000000
00000000
,
00100000
10000000
01000000
10000000
00100000
10000000
01000000
00100000
,
00001000
00010000
00001000
00000010
00000001
00000100
00001000
00000100
,
00000001
00000010
00000100
00010000
00001000
00000100
00000001
00001000
,
00000001
00000000
00000001
00001000
00000000
00001000
00010000
00000000
00010000
10000000
00000000
00000000
,
10000000
01000000
01100000
00000000
00010000
01000000
01100000
00000000
,
00010000
00100000
00011000
00000000
00001000
00000010
00011000
00000000
,
00001000
00000010
00000001
00000100
00001000
00010000
00100000
10000000
,
01000000
00010000
00001000
00000010
00000002
00000000
00000003
00000000
,
00000001
00000100
00000010
00001000
00000100
00000010
00000100
00000100
,
00001000
00000100
00010000
00001000
00100000
00010000
01000000
00100000
,
10000000
01000000
00010000
01000000
10000000
00100000
01000000
01000000
,
00100000
01000000
00010000
00100000
00001000
00010000
00000100
00001000
,
00000010
00000100
00001000
00000100
00000001
00000010
00000100
00010000
,
00001000
00100000
00010000
01000000
00001000
00100000
00010000
01000000
,
10000000
01000000
10000000
01000000
00010000
00100000
00010000
00100000
,
00001000
00000000
00000000
00001000
00000000
00000000
00001000
00000000
00010000
00000000
00000000
00010000
00000000
00000000
00010000
00000000
,
00001000
00000000
00000110
00000001
00000010
00000100
00001000
00000010
,
00000100
00001000
00000100
00000010
00001000
00000100
00010000
00001000
,
00011000
00100000
00010000
01000000
00010000
00100000
01000000
10000000
,
00100000
01000000
10000000
01000000
00100000
10000000
01000000
00000000
,
10000000
01000000
00010000
00001000
00100000
00001000
00010000
00001000
,
00000010
00000001
00000100
00001000
00010000
00001000
00010000
01000000
,
10000000
00000000
00000000
00100000
00000000
00000000
01100000
00000000
01000000
00000000
00000000
00001000
00000000
00000000
00011000
00000000
,
00010000
00001000
00000010
00000001
00000100
00001000
00010000
00000000
,
00022000
00000000
00000000
00000000
,
00000000
00000000
00000000
00000000
,
00000000
00000000
00000000
00000000
,
00000000
00000000
00000000
00000000
,
00033000
00000000
00000000
00000000
,
00000000
00000000
00000000
00000000
;
#NOTES:
     dance-double:
     :
     Hard:
     17:
     :
00000000
00000000
00000000
00000000
,
00000000
00000000
00000000
00000000
,
00000000
00000000
00000000
00000000
,
00000000
00000000
00000000
00000000
,
00000000
00000000
00000000
00000000
,
00001001
00000000
00000000
00000001
00000010
00000100
00002000
00000000
00000000
00003000
00000000
00000000
,
00000110
00000000
00000000
00001000
00010000
00100000
02000000
00000000
00000000
03000000
00000000
00000000
,
00100000
10000000
00100000
10000000
00000000
00000000
01000000
00100000
01000000
00100000
00000000
00000000
,
00001000
00010000
00001000
00010000
00001000
00010000
00001000
00010000
00001000
00010000
00000000
00000000
,
00000100
00001000
00000100
00000000
00000000
00000000
00000010
00000001
00000010
00000000
00000000
00000000
00000001
00001000
00000001
00000000
,
00000000
00000000
00000100
00000010
00000100
00000000
00000000
00000000
00001000
00000000
00010000
00000000
00100000
00000000
01000000
00000000
,
00100000
10000000
00100000
00000000
00000000
00000000
10000000
01000000
10000000
00000000
00000000
00000000
00010000
00100000
00010000
00000000
,
00000000
00000000
00100000
00001000
00100000
00000000
00000000
00000000
00001000
00000000
00010000
00000000
00000010
00000000
00001000
00000000
,
00000001
00000100
00000010
00000000
00000000
00000000
00001000
00000100
00000010
00000000
00000000
00000000
00000100
00010000
00001000
00000000
,
00000000
00000000
00010000
00001000
01000000
00000000
00000000
00000000
00010000
00000000
01000000
00000000
00100000
00000000
10000000
00000000
,
01000000
00100000
00010000
00000000
00000000
00000000
00100000
00001000
00010000
00000000
00000000
00000000
00000100
00001000
00000010
00000000
,
00000000
00000000
00000100
00000000
00000001
00000000
00000100
00000000
00000010
00000100
00000010
00000100
00000010
00000000
00000000
00000000
,
00001000
00000000
00000001
00000000
00000010
00000000
00000100
00001000
00000100
00000000
00010000
00000000
00001000
00000000
00100000
00010000
,
00100000
00000000
01000000
00000000
10000000
00000000
00100000
01000000
00100000
00000000
10000000
00000000
00010000
00000000
01000000
00000000
,
00010000
00000000
10000000
00000000
01000000
00000000
00100000
00010000
00100000
00000000
00001000
00000000
00010000
00000000
00000010
00001000
,
00000010
00000000
00001000
00000000
00000100
00000000
00000010
00000001
00000010
00000000
00000001
00000000
00000100
00000000
00000001
00000000
,
00000010
00000010
00000001
00001000
00001000
00000010
00000100
00001000
,
00010000
00010000
00001000
01000000
01000000
00010000
00100000
00010000
,
10000000
10000000
01000000
00010000
00010000
00001000
00100000
00010000
,
01000000
00000000
00001000
00000000
00010000
00000000
00001000
00010000
00001000
00000000
01000000
00000000
00010000
00000000
00000000
00000000
,
00010000
00000000
10000000
00000000
01000000
00000000
00100000
00010000
00100000
00000000
00001000
00000000
00010000
00000000
00000100
00001000
,
00000100
00000000
00000010
00000000
00000001
00000000
00000100
00000010
00000100
00000000
00000001
00000000
00001000
00000000
00000010
00000000
,
00001000
00000000
00000001
00000000
00000010
00000000
00000100
00001000
00000100
00000000
00010000
00000000
00001000
00000000
01000000
00010000
,
01000000
00000000
00010000
00000000
00100000
00000000
01000000
10000000
01000000
00000000
10000000
00000000
00100000
00000000
10000000
00000000
,
01000000
01000000
10000000
00010000
00010000
01000000
00100000
00010000
,
00001000
00001000
00010000
00000010
00000010
00001000
00000100
00001000
,
00000001
00000001
00000010
00001000
00001000
00010000
00000100
00001000
,
00000010
00000000
00010000
00000000
00001000
00000000
00010000
00001000
00010000
00000000
00000010
00000000
00001000
00000000
00000000
00000000
,
00000002
00000000
00000103
00000010
00000200
00000000
00001300
00010000
,
00002000
00203000
00320000
02030000
,
03100000
10000000
01000000
00000000
00100000
00010000
01000000
00000000
,
10100000
11000000
01010000
00011000
,
00000020
00000000
00000000
00000032
00000000
00000000
00001003
00000000
,
00000002
00000000
00000000
00001000
00001003
00000000
00000001
00000010
,
00002000
00023000
02030000
23000000
,
30200000
00320000
00002000
00033000
,
00000100
00001000
00000010
00000000
00000100
00000000
00000001
00000000
00000010
00000000
00000100
00000000
00001000
00000000
00000010
00000000
,
00001000
00000100
00010000
00000000
00001000
00000000
00010000
00000000
01000000
00000000
00100000
00000000
00010000
00000000
10000000
00000000
,
01000000
10000000
00100000
00000000
01000000
00000000
00010000
00000000
00100000
00000000
01000000
00000000
00010000
00000000
01000000
00000000
,
00100000
00001000
00010000
00000010
00001000
00000100
00000010
00000000
,
00000001
00000000
00000100
00000010
00000000
00000100
00000010
00000000
00000000
00000000
00010000
00000000
00000000
00011000
00000000
00000000
,
01000000
00000000
00100000
01000000
00000000
00100000
01000000
00000000
00000000
00000000
00010000
00000000
00000000
00110000
00000000
00000000
,
00001000
00010000
00100000
00010000
00001000
00010000
00100000
00010000
,
00001000
00100000
00001000
00010000
00001000
00100000
00001000
00010000
00001000
00010000
00000100
00010000
00001000
00010000
00000100
00010000
,
00001000
00000000
00000000
00000000
00000000
00000000
00000010
00000001
00000100
00000000
00000000
00000000
00000000
00000000
00000010
00001000
00000100
00000000
00000000
00000000
00000000
00000000
00001000
00000100
00010000
00000000
00000000
00000000
00000000
00000000
00001000
00010000
,
00001000
00000000
00000000
00000000
00000000
00000000
00100000
00010000
01000000
00000000
00000000
00000000
00000000
00000000
00100000
10000000
00010000
00000000
00000000
00000000
00000000
00000000
10000000
01000000
00100000
00000000
00000000
00000000
00000000
00000000
00000000
00000000
,
10000000
00000000
00000000
00100000
00000000
00000000
00010000
00000000
00000000
00000000
00001000
00000000
00010000
00000000
00000100
00000000
00000010
00000000
00000001
00000000
00001000
00000000
00000020
00000000
00000000
00000000
00000100
00000000
00000130
00000000
00000000
00000000
,
00000001
00000000
00000100
00001000
00010000
00000000
00100000
01000000
00010000
00000000
10000000
00000000
00000000
00000000
01100000
00000000
00000000
00000000
00110000
00000000
00000000
00000000
00022000
00000000
00000000
00000000
00000000
00000000
00033000
00000000
00000000
00000000
,
00000001
00000000
00000000
00000100
00000000
00000000
00001100
00000000
00000000
00000000
00010000
00000000
00100000
00000000
10000000
00000000
01000000
00000000
00000000
00010000
00000000
00000000
00011000
00000000
00000000
00000000
00010000
00000000
00001000
00000000
00000000
00000000
,
00000010
00000001
00000010
00000001
00000010
00001000
00010000
01000000
00000000
01000000
00100000
00001000
00010000
00001000
00011000
00000000
,
00001000
00000000
00010000
00100000
10000000
00000000
01000000
00000000
00010000
00000000
00001000
00000000
00000000
00000000
00011000
00000000
00000000
00000000
00001000
00000010
00000001
00000000
00000100
00000000
00001000
00000000
00010000
00000000
00000000
00000000
00010000
00000000
,
00002000
00000000
00000000
00000000
00000000
00000000
00003000
00000000
00011000
00011000
00011000
00011000
00000000
00000000
00000000
00000000
,
00001000
00000000
00100000
00000000
00010000
00000000
01000000
00000000
00100000
10000000
00100000
00000000
10000000
00000000
01000000
00000000
,
00100000
00000000
00001000
00010000
00000000
00001000
00010000
00000000
00000010
00000000
00001000
00000100
00000000
00001000
00000100
00000000
,
00000010
00000000
00000001
00001000
00000000
00000001
00001000
00000000
00000001
00000000
00000100
00000010
00000000
00001000
00000010
00010000
,
00001000
00000000
01000000
00010000
00000000
01000000
00010000
00000000
00100000
00000000
01000000
00000000
10010000
00000000
00000000
00000000
,
10000000
00000000
01000000
00000000
10000000
00000000
01000000
00000000
00100000
00010000
00100000
00010000
00100000
00000000
00010000
00000000
,
00001000
00000000
00000100
00000000
00001000
00000000
00000100
00000000
00000010
00000001
00000010
00000001
00000010
00000000
00000001
00000000
,
00000100
00000000
00000010
00000100
00000010
00000000
00010000
00000000
00001000
00000000
01000000
00100000
01000000
00000000
00100000
00000000
,
01000000
01000000
00000000
01100000
00000000
10010000
10010000
00000000
,
10000000
00000000
01000000
00000000
00100000
00000000
00010000
00000000
10000000
00000000
01000000
00000000
00100000
00010000
00001000
00000100
,
00000010
00000000
00000000
00000001
00000000
00000000
00000001
00000000
00000100
00000000
00000000
00001000
00000000
00000000
00001000
00000000
,
00010000
01000000
00010000
01000000
00010000
00001000
00010000
00010000
,
00001000
00000010
00001000
00010000
00100000
00010000
00001000
00000010
00001000
00011000
00000000
00000000
,
00001000
00000010
00001000
00000010
00000001
00000100
00000001
00000100
,
00001000
00010000
00001000
00010000
01000000
10000000
01000000
10000000
,
00100000
10000000
01000000
00100000
00001000
00010000
00000100
00001000
,
00000010
00000100
00000010
00000100
00000001
00000100
00000001
00000100
00000002
00000000
00000000
00000000
00000003
00000000
00000000
00000000
,
00000001
00001000
00000001
00001000
00000001
00000000
00000100
00000010
00000100
00000010
00000100
00000000
00000010
00010000
00000010
00010000
,
00000010
00000000
00010000
00001000
00010000
00001000
00010000
00000000
00001000
00000000
01000000
00000000
00010000
00000000
00100000
00000000
,
01000000
10000000
01000000
00100000
01000000
00000000
00100000
00001000
00010000
00001000
00100000
00000000
00001000
00010000
00000010
00010000
,
00001000
00000000
00000100
00000001
00000100
00000010
00000100
00000000
00000001
00000000
00000010
00000000
00000100
00000000
00001000
00000000
,
00000010
00000100
00000001
00001000
00000100
00000000
00001000
00000100
00010000
00001000
00010000
00000000
00001000
01000000
00010000
00100000
,
01000000
00000000
00100000
00010000
10000000
00100000
01000000
00000000
00100000
00000000
10000000
00000000
01000000
00000000
00100000
00000000
,
00001000
00010000
00000100
00001000
00000010
00000000
00000100
00000001
00000010
00000100
00001000
00000000
00000100
00010000
00001000
01000000
,
00010000
00000000
00000000
10000000
00000000
00000000
01000000
00000000
00010000
00000000
00000000
00001000
00000000
00000000
00000100
00000000
,
00000001
00000000
00000000
00000000
00001001
00000000
00000010
00000001
00000010
00000001
00000000
00000001
00000100
00000000
00001000
00000000
,
00010000
00000000
00000100
00010000
00001000
00010000
00000000
00000100
00000000
00010000
00000000
00001000
00100000
00010000
01000000
00000000
,
00100000
00000000
10000000
01000000
10000000
01000000
00000000
00100000
00000000
00001000
00000000
00010000
00001000
00000000
00000010
00000000
,
00000001
00000000
00000010
00000100
00001000
00000001
00000000
00001000
00000000
00000010
00000000
00000100
00000001
00000100
00000010
00000000
,
00001000
00000100
00001000
00000000
00000001
00000000
00000100
00000000
00000010
00010000
00000010
00000000
00010000
00000000
00001000
00000000
,
01000000
00010000
01000000
00000000
00100000
00000000
10000000
00000000
01000000
00100000
01000000
00000000
10000000
00000000
00010000
00000000
,
10000000
00100000
10000000
00000000
00100000
00000000
00010000
00000000
00001000
00000100
00001000
00000000
00000100
00000000
00000001
00000000
,
00000001
00000010
00000100
00001000
00000010
00000100
00001000
00010000
00100000
01000000
00010000
00100000
01000000
10000000
00010000
00000000
,
20020000
00000000
00000000
00000000
,
00000000
00000000
00000000
00000000
,
00000000
00000000
00000000
00000000
,
00000000
00000000
00000000
00000000
,
30030000
00000000
00000000
00000000
,
00000000
00000000
00000000
00000000
;
