
//----- song ID: setd -----//
#TITLE:Seize The Day;
#ARTIST:亜咲花;
#ARTISTTRANSLIT:Asaka;
#SOURCE:TVアニメ「ゆるキャン△ SEASON2」より;
#BANNER:Seize The Day.png;
#BACKGROUND:Seize The Day-bg.png;
#CDTITLE:./CDTitles/DDR A20 PLUS.png;
#MUSIC:Seize The Day.ogg;
#SAMPLESTART:56.321;
#SAMPLELENGTH:15;
#BPMS:0=122;
#NOTES:
     dance-single:
     :
     Beginner:
     1:
     :
0000
0000
0000
0000
,
0000
0000
0000
0000
,
0000
0000
0000
0000
,
0000
0000
0000
0000
,
0000
0000
0000
0000
,
1000
0000
0000
0000
,
1000
0000
0100
0000
,
0010
0000
0000
0000
,
0010
0000
0001
0000
,
0100
0000
0000
0000
,
0100
0000
0010
0000
,
1000
0000
0000
0000
,
1000
0000
0000
0000
,
0001
0000
0000
0000
,
0001
0000
0000
0000
,
0100
0000
0100
0000
,
0010
0000
1000
0000
,
0001
0000
0000
0000
,
0001
0000
0000
0000
,
0010
0000
0010
0000
,
0100
0000
0000
0000
,
1000
0000
1000
0000
,
0100
0000
0100
0000
,
0010
0000
0010
0000
,
0001
0000
0001
0000
,
1000
0000
0100
0000
,
0010
0000
0001
0000
,
2002
0000
0000
0000
,
3003
0000
0000
0000
,
1000
0000
0010
0000
,
0200
0000
0300
0000
,
0010
0000
0000
0000
,
0001
0000
1000
0000
,
0010
0000
1000
0000
,
0002
0000
0003
0000
,
0010
0000
0000
0000
,
0100
0000
0000
0000
,
1000
0000
1000
0000
,
0001
0000
0001
0000
,
2002
0000
0000
0000
,
3003
0000
0000
0000
,
0001
0000
0000
0000
,
1000
0000
0010
0000
,
1000
0000
0000
0000
,
0100
0000
0000
0000
,
0000
0000
0000
0000
;
#NOTES:
     dance-single:
     :
     Easy:
     4:
     :
0000
0000
0000
0000
,
0000
0000
0000
0000
,
0000
0000
0000
0000
,
0100
0000
0010
0000
,
0001
0000
1000
0000
,
0001
0000
1000
0010
,
1000
0000
0001
0000
,
0010
0000
0001
0100
,
0001
0000
1000
0000
,
0100
0000
0010
0001
,
0010
0000
0001
0000
,
0100
0000
0010
1000
,
0010
0000
0100
0000
,
0000
0001
0000
1000
,
0000
0001
0000
1000
,
0100
0010
0100
1000
,
0001
0000
0100
0000
,
0000
0001
0000
1000
,
0000
0001
0000
1000
,
0010
0100
0010
0000
,
0100
0001
0010
0000
,
0001
0010
0001
0000
,
0100
0010
1000
0000
,
0001
0100
0001
0000
,
0010
0100
1000
0000
,
0010
0000
0100
0000
,
0001
0010
0100
1000
,
2002
0000
0000
0000
,
3003
0000
0000
0000
,
0001
1000
0100
0000
,
0010
0001
1000
0000
,
1001
0000
0110
0000
,
1001
0000
0010
0010
,
1000
0001
0010
0000
,
0100
1000
0001
0000
,
1001
0000
0110
0000
,
1001
0000
0010
0010
,
0100
0000
0001
0000
,
1000
0000
0100
0000
,
0020
0000
0000
0000
,
0030
0000
1001
0000
,
0010
0000
0001
0000
,
1000
0010
1000
0010
,
0100
0000
0001
0000
,
0020
0000
0030
0100
,
0000
0000
0000
0000
;
#NOTES:
     dance-single:
     :
     Medium:
     7:
     :
0000
0000
0000
0000
,
0000
0000
0000
0000
,
0000
0000
0000
0000
,
0001
0010
0001
1000
,
0010
0010
0100
0100
,
1001
0000
0000
0000
0100
0001
0100
0000
,
0010
2000
3200
0320
,
0031
0000
0000
0000
1000
0100
1000
0000
,
1010
0000
0002
0023
,
0130
0000
0000
0000
1000
0010
1000
0000
,
0110
0000
0000
0000
0001
0010
0001
0000
,
1000
1000
0010
0100
,
0010
1000
0010
0000
1000
0100
1000
0000
,
0001
0001
0100
0110
,
1000
1000
0100
1100
,
0010
0000
0001
0000
0100
0010
0100
0000
,
0010
1000
0101
1100
,
0010
0010
0001
0101
,
0010
0010
0100
0110
,
1000
0100
1000
0010
,
0100
1001
0010
0001
,
0100
0010
1000
0100
,
0010
0000
0001
0000
1000
0100
1000
0000
,
0001
0100
0010
1000
,
0001
0000
0100
0000
0010
1000
0010
0000
,
1000
0001
0100
0010
,
1000
0000
0100
0000
0010
0001
0010
0000
,
0002
0100
1000
0013
,
0000
0100
0010
0100
0000
0000
1001
0000
,
0010
0000
0000
0000
1000
0000
0000
0000
0100
0000
0000
0100
0000
0000
0200
0000
,
0000
0000
0310
0000
0001
0100
0001
0000
,
1000
0000
0010
0000
1000
0010
1000
0000
,
0001
0010
0001
0000
1000
0000
1001
0000
,
0010
0000
0000
0000
0001
0000
0000
0000
0100
0000
0000
0100
0000
0000
0200
0000
,
0000
0310
1000
1000
,
0001
0000
0010
0000
0100
0010
0100
0000
,
1000
0010
1000
0000
0001
0000
1001
0000
,
0200
0000
0320
0000
,
0130
0001
1000
1000
,
0220
0000
0000
0330
,
0001
1000
1001
0000
,
0110
0000
0000
0000
0001
0100
0001
0000
,
1000
0100
0010
0001
,
1001
0010
0100
0000
,
1000
0000
0000
0001
0000
0000
0110
0000
,
0000
0000
0000
0000
;
#NOTES:
     dance-single:
     :
     Hard:
     10:
     :
0000
0000
0000
0000
,
0000
0000
0000
0000
,
0000
0000
0000
0000
,
1000
0010
0100
0001
,
1000
0100
0000
0000
1000
0010
0000
0000
0100
0010
0000
0000
0100
0001
0000
0000
,
0010
0000
0000
0100
0000
0000
0010
0000
0000
0000
0001
0000
0100
0000
0010
0000
,
1000
0200
0320
0032
,
0103
0000
0000
0001
0000
0000
0100
0000
0000
0000
0010
0000
1000
0000
0100
0000
,
0010
0000
0000
0100
0000
0000
0010
0000
0002
0000
0000
0000
2003
0000
0000
0000
,
3010
0000
0000
0100
0000
0000
0010
0000
0000
0000
1000
0000
0100
0000
0010
0000
,
0001
0000
0000
1000
0000
0000
0001
0000
0000
0000
0010
0000
0100
0000
1000
0000
,
0010
0000
0000
0100
0000
0000
0010
0000
0000
0000
1000
0000
0001
0000
0100
0000
,
0001
1000
0010
0000
1000
0100
1000
0000
,
0001
0100
0001
1000
0010
0000
0101
0000
,
1000
0010
1000
0100
0010
0000
1100
0000
,
0010
1000
0010
0000
0100
0001
0100
0000
,
1001
0100
0110
1000
,
0100
0010
0100
1000
0001
0000
0101
0000
,
0010
1000
0010
0100
0001
0000
1100
0000
,
0100
0010
0001
0000
0100
0010
1000
0000
,
0100
0000
1001
0000
0100
0010
0100
0000
,
0010
0000
0000
0010
1000
0000
0000
1000
0100
0000
0000
0100
0010
0000
0000
0010
,
0001
0000
0000
0001
0100
0000
0000
0100
0010
0000
1000
0000
0100
0000
0000
0000
,
0010
0000
0000
0010
0001
0000
0000
0001
0100
0000
0000
0100
0010
0000
0000
0010
,
1000
0000
0000
1000
0001
0000
0000
0001
0100
0000
0010
0000
1000
0000
0000
0000
,
0100
0000
0000
0100
0010
0000
0000
0010
0001
0000
0000
0001
1000
0000
0000
1000
,
0010
0000
0000
0010
0100
0000
0000
0100
0001
0000
0010
0000
0001
0000
0000
0000
,
0010
0001
0010
0100
0010
1000
0010
0001
,
0000
0000
1000
0000
0001
0000
0100
0010
0000
0000
0000
0000
0100
0000
0000
0000
,
1001
0000
0000
0000
0110
0000
0000
0000
1000
0000
0000
0001
0010
0000
0002
0000
,
0000
0000
1003
0000
0010
0100
0010
0000
,
1000
0100
1000
0000
0010
0100
0010
0000
,
1000
0100
0001
0100
1000
0000
0010
0000
,
0110
0000
0000
0000
1001
0000
0000
0000
0100
0000
0000
1000
0010
0000
2000
0000
,
0000
0000
3001
0000
1000
0100
1000
0000
,
0001
0010
0001
0000
0100
0010
0100
0000
,
0001
0010
1000
0010
0001
0000
0110
0000
,
0020
0000
0031
0100
0020
0000
1030
0100
,
0010
0100
1000
0000
0010
0100
0001
0000
,
0010
0000
0000
0000
1001
0000
0000
0000
0001
0000
0000
1000
0000
0000
0110
0000
,
0000
0100
0001
0010
0110
0000
0000
0000
,
0001
0000
0000
1000
0000
0000
0010
0000
0000
0000
0100
0000
0010
0000
1000
0000
,
0100
0000
0000
0010
0000
0000
0001
0000
0000
0000
1000
0000
0010
0000
0100
0000
,
0001
0010
0100
0000
,
1000
0000
0000
0001
0000
0100
0010
0000
,
0000
0000
0000
0000
;
#NOTES:
     dance-double:
     :
     Easy:
     4:
     :
00000000
00000000
00000000
00000000
,
00000000
00000000
00000000
00000000
,
00000000
00000000
00000000
00000000
,
00001000
00000000
00010000
00000000
,
00000100
00000000
00001000
00000000
,
00000010
00000000
00000001
00001000
,
00000100
00000000
00010000
00000000
,
00001000
00000000
00100000
00010000
,
10000000
00000000
00100000
00000000
,
01000000
00000000
00010000
00100000
,
00001000
00000000
00010000
00000000
,
00000010
00000000
00001000
00000100
,
00000010
00000000
00000001
00000000
,
00000000
00000100
00000000
00001000
,
00000000
00010000
00000000
01000000
,
10000000
00100000
10000000
01000000
,
00010000
00000000
00001000
00000000
,
00000000
00000100
00000000
00000001
,
00000000
00001000
00000000
00000100
,
00010000
00001000
00010000
00000000
,
00100000
01000000
00100000
00000000
,
10000000
01000000
00100000
00000000
,
00010000
01000000
00001000
00000000
,
00010000
00000100
00001000
00000000
,
00000010
00000100
00000001
00000000
,
00000010
00000000
00000001
00000000
,
00000010
00001000
00010000
00100000
,
02200000
00000000
00000000
00000000
,
03300000
00000000
00000000
00000000
,
10000000
01000000
00010000
00000000
,
00001000
00000000
00000100
00000000
,
00000010
00001000
00000100
00000000
,
00000010
00000001
00000100
00000000
,
00000001
00000100
00001000
00000000
,
00010000
00000000
01000000
00000000
,
00100000
00010000
01000000
00000000
,
00100000
10000000
01000000
00000000
,
00010000
00000000
00001000
00000000
,
00000010
00000000
00000001
00000000
,
00000200
00000000
00000000
00000000
,
00000300
00000000
00011000
00000000
,
00001000
00000000
01000000
00000000
,
00010000
10000000
00100000
10000000
,
01000000
00000000
00010000
00000000
,
00002000
00000000
00003000
00000100
,
00000000
00000000
00000000
00000000
;
#NOTES:
     dance-double:
     :
     Medium:
     7:
     :
00000000
00000000
00000000
00000000
,
00000000
00000000
00000000
00000000
,
00000000
00000000
00000000
00000000
,
10000000
01000000
10000000
00010000
,
00100000
00100000
00001000
00001000
,
00011000
00000000
00000000
00000000
00000100
00001000
00000100
00000000
,
00000010
00000002
00002003
00003200
,
00010300
00000000
00000000
00000000
00001000
01000000
00001000
00000000
,
01010000
00000000
20000000
32000000
,
03100000
00000000
00000000
00000000
00010000
01000000
00010000
00000000
,
00011000
00000000
00000000
00000000
00000010
00001000
00000010
00000000
,
00000100
00000100
00000001
00001000
,
00000100
00010000
00000100
00000000
00010000
00001000
00010000
00000000
,
00001000
00100000
00010000
00100000
,
01000000
10000000
00100000
01000000
,
00010000
00100000
00001000
00010000
,
00011000
00000010
00001010
00000100
,
00000001
00000010
00000100
00001000
,
00000010
00010000
00001000
00010000
,
00001000
00100000
00010000
01000000
,
00100000
10000000
01000000
00010000
,
00001000
00010000
00001000
00000100
,
00000001
00000000
00000010
00000000
00000100
00001000
00000100
00000000
,
00010000
00001000
00010000
00100000
,
10000000
00000000
01000000
00000000
00100000
01000000
00100000
00000000
,
00010000
01000000
00100000
01000000
,
00001000
00000000
00010000
00000000
00000100
00001000
00000100
00000000
,
00000020
00000001
00000100
00000031
,
00000000
00001000
00000010
00001000
00000000
00000000
00000110
00000000
,
00000001
00000000
00000000
00000000
00000100
00000000
00000000
00000000
00001000
00000000
00000000
00001000
00000000
00000000
00002000
00000000
,
00000000
00000000
00013000
00000000
00001000
00010000
00001000
00000000
,
01000000
00000000
00010000
00000000
10000000
00100000
10000000
00000000
,
01000000
00010000
00001000
00000000
00010000
00000000
00011000
00000000
,
00000100
00000000
00000000
00000000
00001000
00000000
00000000
00000000
00000001
00000000
00000000
00000001
00000000
00000000
00000002
00000000
,
00000000
00000013
00000100
00001000
,
00000100
00010000
00001000
00100000
,
00010000
01000000
00010000
00000000
10000000
00000000
00100000
00000000
,
02000000
00000000
03002000
00000000
,
00013000
00000010
00001000
00000001
,
00002002
00000000
00000000
00003003
,
00000100
00001000
00011000
00000000
,
00010000
00000000
00000000
00000000
00001000
00010000
00001000
00000000
,
00010000
00100000
10000000
00100000
,
00010000
00001000
00010000
00000000
,
00000010
00000000
00000000
00000100
00000000
00000000
00001001
00000000
,
00000000
00000000
00000000
00000000
;
#NOTES:
     dance-double:
     :
     Hard:
     10:
     :
00000000
00000000
00000000
00000000
,
00000000
00000000
00000000
00000000
,
00000000
00000000
00000000
00000000
,
00000001
00000100
00000010
00001000
,
00000001
00000100
00000000
00000000
00000100
00001000
00000000
00000000
00001000
00010000
00000000
00000000
00010000
00001000
00000000
00000000
,
00010000
00000000
00000000
01000000
00000000
00000000
10000000
00000000
00000000
00000000
00100000
00000000
01000000
00000000
00010000
00000000
,
10000000
00200000
00320000
00032000
,
00003010
00000000
00000000
00000001
00000000
00000000
00000100
00000000
00000000
00000000
00000010
00000000
00001000
00000000
00000100
00000000
,
00010000
00000000
00000000
00001000
00000000
00000000
00100000
00000000
00020000
00000000
00000000
00000000
20030000
00000000
00000000
00000000
,
30100000
00000000
00000000
01000000
00000000
00000000
00010000
00000000
00000000
00000000
10000000
00000000
01000000
00000000
00010000
00000000
,
00001000
00000000
00000000
00010000
00000000
00000000
00000100
00000000
00000000
00000000
00001000
00000000
00000010
00000000
00000100
00000000
,
00000001
00000000
00000000
00001000
00000000
00000000
00000100
00000000
00000000
00000000
00010000
00000000
00001000
00000000
00010000
00000000
,
00001000
00100000
00010000
00000000
01000000
00010000
10000000
00000000
,
00100000
01000000
00100000
01000000
00010000
00000000
00011000
00000000
,
00000100
00001000
00000100
00001000
00000010
00000000
00000101
00000000
,
00000010
00000100
00001000
00000000
00000100
00010000
00001000
00000000
,
00100000
00010000
01000000
11000000
,
00010000
01000000
00010000
01000000
00001000
00000000
00011000
00000000
,
00000010
00001000
00000010
00001000
00000100
00000000
00000011
00000000
,
00000001
00001000
00000010
00000000
00010000
00001000
00010000
00000000
,
00001000
00000000
00100000
00000000
00010000
01000000
00010000
00000000
,
10000000
00000000
00000000
10000000
01000000
00000000
00000000
01000000
00100000
00000000
00000000
00100000
00010000
00000000
00000000
00010000
,
01000000
00000000
00000000
01000000
00001000
00000000
00000000
00001000
00010000
00000000
00000010
00000000
00001000
00000000
00000000
00000000
,
00000001
00000000
00000000
00000001
00000010
00000000
00000000
00000010
00000100
00000000
00000000
00000100
00001000
00000000
00000000
00001000
,
00000010
00000000
00000000
00000010
00010000
00000000
00000000
00010000
00001000
00000000
00100000
00000000
00001000
00000000
00000000
00000000
,
01000000
00000000
00000000
01000000
00100000
00000000
00000000
00100000
10000000
00000000
00000000
10000000
01000000
00000000
00000000
01000000
,
00010000
00000000
00000000
00010000
00001000
00000000
00000000
00001000
00000100
00000000
00000001
00000000
00000010
00000000
00000001
00000000
,
00002000
00000100
00000001
00003010
,
00000000
00000000
00000100
00000000
00001000
00000000
00010000
00001000
00000000
00000000
00000000
00000000
01010000
00000000
00000000
00000000
,
02100000
00000000
00000000
00000000
03010000
00000000
00000000
00000000
01000000
00000000
00000000
00100000
10000000
00000000
02000000
00000000
,
00000000
00000000
03010000
00000000
00001000
00010000
00000010
00000000
,
00000100
00000001
00000100
00000000
00000010
00001000
00000100
00000000
,
00010000
00001000
00000010
00001000
00010000
00000000
01100000
00000000
,
20010000
00000000
00000000
00000000
31000000
00000000
00000000
00000000
00010000
00000000
00000000
00001000
00010000
00000000
00002000
00000000
,
00000000
00000000
00003100
00000000
00000001
00000010
00000100
00000000
,
00001000
00000010
00000100
00000000
00001000
00010000
00001000
00000000
,
01000000
00010000
00100000
00010000
01000000
00000000
11000000
00000000
,
20000000
00000000
30100000
01000000
00020000
00000000
00130000
00001000
,
00010000
00000100
00001000
00000000
00000010
00000100
00000001
00000000
,
00000021
00000000
00000000
00000000
00000100
00000000
00000000
00000000
00001000
00000000
00000000
00000100
00000000
00000000
00000031
00000000
,
00000000
00000001
00000100
00001000
00011000
00000000
00000000
00000000
,
00100000
00000000
00000000
00010000
00000000
00000000
01000000
00000000
00000000
00000000
00100000
00000000
10000000
00000000
00100000
00000000
,
01000000
00000000
00000000
00010000
00000000
00000000
00100000
00000000
00000000
00000000
00001000
00000000
00010000
00000000
00001000
00000000
,
00000100
00000001
00000010
00000000
,
00001000
00000000
00000000
00010000
00000000
00100000
01000000
00000000
,
00000000
00000000
00000000
00000000
;
