
//----- song ID: saka -----//
#TITLE:逆さま♥シンデレラパレード;
#ARTIST:メリー・バッド・メルヘン;
#TITLETRANSLIT:Sakasama Cinderella parade;
#ARTISTTRANSLIT:Merry Bad Marchen;
#BANNER:Sakasama Cinderella parade.png;
#BACKGROUND:Sakasama Cinderella parade-bg.png;
#CDTITLE:./CDTitles/pop'n music peace.png;
#MUSIC:Sakasama Cinderella parade.ogg;
#SAMPLESTART:43.797;
#SAMPLELENGTH:15;
#BPMS:0=135;
#NOTES:
     dance-single:
     :
     Beginner:
     2:
     :
0000
0000
0000
0000
,
0000
0000
0000
0000
,
0000
0000
0000
0000
,
0000
0000
0000
0000
,
0000
0000
0000
0000
,
1000
0000
0100
0000
,
1000
1000
1000
0000
,
0100
0000
0100
0000
,
0001
0001
0001
0000
,
0010
0000
0100
0000
,
1001
0000
0000
0000
,
0002
0000
0000
0000
,
0003
0000
0000
0000
,
2000
0000
0000
0000
,
3000
0000
0000
0000
,
0020
0000
0000
0000
,
0030
0000
0000
0000
,
0200
0000
0000
0000
,
0300
0000
0000
0000
,
0001
0001
0001
0000
,
0010
0000
0010
0000
,
0200
0000
0000
0000
0000
0300
0000
0000
,
0000
0000
2000
0000
0000
0000
0000
3000
,
0000
0000
0000
0000
0000
0000
0000
1000
,
0000
0001
0000
1000
0000
0000
0000
1000
,
0000
0000
0000
0010
0000
0000
0000
0100
,
0000
0000
0000
0100
0000
0000
0000
0001
,
0000
0000
0000
0001
0000
0000
0000
0001
,
0000
0000
0000
0000
0000
0000
0000
0001
,
0000
0000
0000
0010
0000
0000
0000
0100
,
0000
0000
0000
0100
0000
0000
0000
1000
,
0000
0000
0000
0001
0000
0000
0000
1000
,
0000
0000
0000
1001
0000
0000
0000
1000
,
0000
0000
0000
0000
0000
1000
0000
0000
,
0000
0000
0000
0100
0000
0000
0000
0000
,
0000
0100
0000
0000
0000
0000
0000
0010
,
0000
0000
0000
0000
0000
0010
0000
0000
,
0000
0000
0000
0001
0000
0000
0000
0000
,
0000
0001
0000
0000
0000
0000
0000
0002
,
0000
0000
0003
0000
,
0000
0020
0000
0000
0000
0000
0030
0000
,
0000
0000
0000
0200
0000
0000
0000
0000
,
0300
0000
0000
0000
0000
2000
0000
0000
,
0000
0000
3000
0000
0000
0000
0000
1000
,
0000
0000
1000
0000
,
0000
0100
0000
0000
0000
0000
0000
0000
,
0000
0000
0000
0010
0000
0000
0000
0000
,
0010
0000
0000
0000
0000
0001
0000
0000
,
0000
0001
0000
1000
,
0000
0001
0001
0001
,
0000
0001
0000
0100
,
0000
0001
0000
0001
,
0000
0100
0000
1000
,
0000
0100
0000
0000
,
0000
1000
0000
0100
,
0000
1000
0000
1000
,
0000
0100
0000
0001
,
0000
0100
0000
0000
,
0000
0001
0000
0010
,
0000
0100
0100
0100
,
0000
1001
0000
0000
,
0000
0000
0000
0000
;
#NOTES:
     dance-single:
     :
     Easy:
     7:
     :
0000
0000
0000
0000
,
0000
0000
0000
0000
,
0000
0000
0000
0000
,
0000
0000
0000
0000
,
0000
0000
0000
0000
,
1000
0100
0010
0100
,
1000
0100
0010
0000
,
0001
0100
0010
0100
,
0001
0100
0010
0000
,
1001
0000
0110
0000
,
0001
0000
1000
0000
0100
0100
0000
0000
,
0020
0000
0030
0000
,
0002
0000
0003
0000
,
2000
0000
3000
0000
,
0200
0000
0300
0000
,
0010
1000
0010
0000
,
0100
0001
0100
0000
0001
0000
0000
0000
,
1001
0000
0110
0000
,
0001
1000
0001
0000
,
0010
0100
0010
0000
0100
0000
0010
0000
,
1000
0001
1000
0000
0001
0000
1000
0000
,
0010
0000
0000
0010
0000
1000
0000
0000
,
1000
0000
0001
0000
0000
0001
0000
0200
,
0000
0000
0000
0000
0000
0300
0000
0010
,
0000
0010
0000
1001
0000
0000
0000
1000
,
0000
0001
0000
0100
0010
1000
0000
0100
,
0000
0010
0000
0001
0000
0010
0000
0100
,
0000
0100
0000
0010
0000
0010
0000
0001
,
1000
0001
1000
0001
0000
0000
0000
1000
,
0000
0001
0000
1000
0100
0010
0000
0001
,
0000
1000
0000
0010
0000
0100
0000
0010
,
0000
0010
0000
0100
0000
0100
0000
0010
,
0000
0100
0000
1001
0000
0000
0000
1000
,
0000
0000
0001
0000
0000
0001
0000
0000
,
1000
0000
0000
0100
0000
0000
0010
0000
,
0000
0010
0000
0000
0100
0000
0000
1000
,
0000
0000
0010
0000
0000
0100
0000
0000
,
0001
0000
0000
1000
0000
0000
0001
0000
,
0000
1001
0000
0000
0000
0000
0000
0002
,
0000
0000
0003
0000
,
0000
0020
0000
0000
0000
0000
0030
0000
,
0000
0000
0000
2000
0000
0000
0000
0000
,
3000
0000
0000
0000
0000
0200
0000
0000
,
0000
0000
0300
0000
0000
0000
0000
0001
,
0000
0000
0001
0000
0100
0000
0000
0100
,
0000
1000
0000
0000
1000
0000
0010
0000
,
0000
0010
0000
1000
0000
0000
1000
0000
,
0001
0000
0000
0001
0000
0100
0000
0000
,
0100
1001
0000
0110
,
0000
1001
0110
1001
,
0000
0000
0001
0100
0010
0000
1000
0000
,
0100
1000
0010
0001
,
0010
0000
1000
0010
0100
0000
0001
0000
,
1000
0100
0010
0100
,
0000
0000
1000
0010
0100
0000
0001
0000
,
0010
0001
0100
1000
,
0100
0000
0001
0100
0010
0000
1000
0000
,
0001
0010
0100
0010
,
0000
1001
0000
0110
,
0000
0000
0010
0100
0010
0100
0010
0000
,
1000
0000
1001
0000
0100
0000
0100
0100
,
0000
0000
0000
0000
;
#NOTES:
     dance-single:
     :
     Medium:
     10:
     :
0000
0000
0000
0000
,
0000
0000
0000
0000
,
0000
0000
0000
0000
,
0000
0000
0000
0000
,
0000
0000
0000
0000
,
0010
0000
0100
0000
0010
0100
0010
0000
,
1000
0001
1000
0000
0001
1000
0001
0000
,
0100
0000
0010
0000
0100
0010
0100
0000
,
0001
0000
1000
1000
0000
0001
0001
0000
,
0101
0000
1010
0000
,
0020
0000
0230
0000
0301
0001
0000
0000
,
1000
0100
0020
0030
,
0001
0100
0020
0030
,
2000
3000
0200
0300
,
0001
0100
1000
0100
0001
0000
0000
0000
,
0010
0000
1100
0000
,
0100
0100
0011
0000
,
0101
0000
1010
0000
,
0020
2030
3002
0203
,
0310
1000
0010
1000
0010
1000
0100
0010
,
0001
1000
0001
1000
0001
0100
0001
0100
,
0010
0000
0010
1000
0000
0001
0000
0001
,
0010
0000
0100
0000
0100
1000
0000
1001
,
0000
0000
0000
0110
0000
0000
0000
1001
,
0000
0110
0000
1001
0000
0100
0100
1000
,
0010
1000
0010
0100
0001
0010
0000
0001
,
0100
0001
0100
0010
1000
0100
0000
1000
,
0000
0110
0000
0001
0000
0110
0000
1000
,
0010
0001
0000
1001
0000
0001
0001
0100
,
0010
0100
0010
1000
0100
0010
0000
0001
,
0100
0001
0100
0010
0100
0001
0000
0100
,
0000
1001
0000
0010
0000
1001
0000
1100
,
0000
0101
0000
1001
0000
0000
0000
1000
,
0000
1000
0100
0000
0000
0001
0000
0001
,
0100
0000
0000
1000
0000
1000
0010
0000
,
0000
0000
0001
0000
0000
0000
0010
0001
0010
0000
0000
0000
0000
0000
0001
0000
,
0000
0001
0100
0000
0100
1000
0000
1000
,
0010
0000
0010
0001
0000
0000
1000
0000
,
0000
1001
0000
0001
1000
0000
0000
0020
,
0000
0000
0030
0000
2000
0000
0000
3000
,
0000
0200
0000
0000
0300
0000
0002
0000
,
0000
0003
0000
0200
0000
0000
0300
0000
,
2000
0000
0000
3000
0000
0020
0000
0000
,
0030
0000
0002
0000
0000
0003
0000
1000
,
0100
1000
0100
0000
1000
0010
1000
0010
,
0000
0100
0001
0100
0001
0000
1000
0100
,
0010
0001
0000
0001
0100
0001
0100
0000
,
0001
0010
0001
0010
0000
0100
1000
0100
,
1000
0000
0010
1000
0001
0000
0010
0001
,
1000
0000
0001
1000
0001
1000
0001
0000
,
0000
0000
0010
1000
0010
1000
0100
0010
,
0100
0010
0001
0010
1000
0010
0001
1000
,
0100
0000
0010
0001
0010
0001
0100
0010
,
0100
0010
1000
0010
0001
0010
1000
0001
,
1000
0000
0001
0100
0001
0100
1000
0100
,
1000
0100
0001
1000
0100
0001
0100
1000
,
0001
0000
1000
0100
1000
0100
0001
0100
,
0001
0100
1000
0001
0100
1000
0100
0001
,
1000
0000
0010
0010
0000
0000
0100
0100
,
0000
0000
0001
0100
0010
1000
0100
0100
,
0100
0000
1001
0000
1000
0100
1000
0001
,
0000
0000
0000
0000
;
#NOTES:
     dance-single:
     :
     Hard:
     13:
     :
0000
0000
0000
0000
,
0000
0000
0000
0000
,
0000
0000
0000
0000
,
0000
0000
0000
0000
,
0000
0000
0000
0000
,
1000
0000
0000
1000
0001
0000
0000
0000
1000
0000
0000
1000
0001
0000
0000
0000
,
0100
0000
0000
0100
0010
0000
0000
0000
0100
0000
0000
0100
0010
0000
0000
0000
,
0001
0000
0000
0001
1000
0000
0000
0000
0001
0000
0000
0001
1000
0000
0000
0000
,
0010
0000
1000
0001
1000
0000
0010
0000
0000
0000
1001
0000
1001
0000
0000
0000
,
1100
1100
0000
0000
0101
0101
0000
0000
,
0020
0000
0000
0000
0030
0000
0010
0100
0010
0000
0010
0000
1000
0000
0100
0000
,
0020
0000
0032
0000
0203
0000
0310
1000
,
0200
0302
0203
0000
,
0320
0032
2003
3020
,
0130
0001
1000
0001
0200
0000
0310
1000
,
0100
0000
0000
0100
1010
0000
0000
0000
,
0011
0000
1100
0000
1001
0000
0100
0010
,
0011
0011
0000
1000
1010
1010
0000
0110
,
0210
1000
0001
0310
,
1000
0000
0100
0000
1000
0000
0010
0100
0010
0000
0100
0000
0001
0000
0010
0000
,
0001
0000
1000
0000
0001
0000
0100
0010
0100
0000
0001
0000
0010
0000
0100
0000
,
1100
1000
0010
0110
0000
0011
0010
0001
,
0101
0000
1010
1000
0010
0101
0001
0200
,
0000
0000
0300
0000
0010
1000
0020
0000
0000
0000
0030
0000
0100
0001
0100
0000
,
0001
1000
0001
1000
0001
1000
0001
0000
1001
0000
0000
0000
0000
0000
1000
0000
,
0001
0000
0010
0000
0001
0000
1001
0000
0010
0100
0010
0000
0010
0000
1000
0000
,
0100
0000
0010
0000
0100
0000
0110
0000
0001
1000
0001
0000
0001
0000
0110
0000
,
0110
1010
0000
0110
0110
0011
0000
0001
,
1000
0100
0010
0000
0001
0000
1002
0000
0000
0000
0103
0000
0100
0000
0010
0000
,
0100
0000
0001
0000
0100
0000
0101
0000
1000
0010
1000
0000
1000
0000
0100
0000
,
0010
0000
0001
0000
0100
0000
0110
0000
1000
0001
1000
0000
1000
0000
1010
0000
,
1010
0110
0000
0011
0011
0110
0000
1100
,
0001
0101
0010
0110
0000
1001
0000
1000
,
0100
0000
0100
0000
1100
0000
0010
1000
0010
0000
0100
0000
0001
0000
0001
0000
,
0101
0000
0010
0001
0010
0000
0100
0000
1000
0001
1000
0000
0010
0000
1000
0001
,
1000
0000
0200
0000
0000
0000
0310
0001
0020
0000
0100
0000
0130
0000
1000
0000
,
0010
0010
0110
0001
0001
2000
0100
3100
,
0010
0000
0001
0100
0001
0000
0101
0000
0000
0000
0000
0000
1100
0000
0000
0000
,
0000
1001
0000
1000
0001
0000
0000
1000
,
0000
0100
0001
0000
0001
0000
0010
1000
,
0000
1000
0000
0010
0001
0100
1000
0000
,
0000
0100
0010
1000
0000
0001
0100
0000
,
0001
0000
0010
0100
0000
1000
0000
1000
,
0010
0100
0010
1000
0010
1000
0100
0010
,
0001
0001
0100
0010
1000
0010
0010
0100
,
0001
0010
0100
1000
0010
0100
1000
0100
,
0001
1000
1000
0010
0100
0100
0001
0010
,
1000
0010
0010
0001
0100
0010
1000
0100
,
1000
0000
0001
0000
1001
0000
0100
0000
0010
0100
0010
0000
1001
0000
0100
0000
,
0010
0100
0010
0000
1000
0001
1000
0000
0001
1000
0001
0000
1001
0000
1001
0000
,
0000
0000
0000
0000
1000
0000
0001
0100
0010
0000
1000
0000
0100
0000
0010
0001
,
0010
0000
0001
0000
0100
0000
0010
1000
0001
0000
0100
0010
0100
0000
0001
0000
,
1000
0001
1000
0000
0010
0000
0100
0001
1000
0000
0100
0000
1000
0000
0010
0100
,
0001
0000
1000
0000
0001
0000
0100
0010
1000
0000
0100
0010
0001
0000
0011
0000
,
0011
0000
0000
0000
1000
0000
0010
1000
0100
0000
0010
0000
0001
0000
0100
0001
,
0010
0000
0100
0000
1000
0000
0010
0100
0010
0000
1000
0010
0100
0000
0001
0010
,
0100
1000
0100
0000
1000
0000
0001
0100
0010
0000
0100
0000
0001
0000
0010
0100
,
1000
0000
0001
0000
1000
0000
0010
0100
0010
0000
0010
0000
0000
0000
0110
0000
,
0110
0000
1100
1100
0010
0001
0101
0101
,
0010
0000
1000
0000
0100
0010
0100
0000
0100
0000
0100
0000
0110
0000
0110
0000
,
0001
1000
0001
1000
0001
0000
0000
0000
0001
0010
0100
1000
0001
0000
1001
0000
,
0000
0000
0000
0000
;
#NOTES:
     dance-double:
     :
     Easy:
     6:
     :
00000000
00000000
00000000
00000000
,
00000000
00000000
00000000
00000000
,
00000000
00000000
00000000
00000000
,
00000000
00000000
00000000
00000000
,
00000000
00000000
00000000
00000000
,
00000001
00000010
00000001
00001000
,
00000100
00000010
00000100
00000000
,
00010000
00001000
00010000
00000010
,
00010000
00001000
00010000
00000000
,
00011000
00000000
00011000
00000000
,
00100000
00000000
01000000
00000000
10000000
10000000
00000000
00000000
,
02000000
00000000
03000000
00000000
,
00020000
00000000
00030000
00000000
,
00002000
00000000
00003000
00000000
,
00020000
00000000
00030000
00000000
,
00001000
00000010
00001000
00000000
,
00000010
00000001
00000010
00000000
00000001
00000000
00000000
00000000
,
00001001
00000000
00000110
00000000
,
00000100
00001000
00010000
00000000
,
00001000
00010000
00001000
00000000
00100000
00000000
00010000
00000000
,
01000000
00100000
10000000
00000000
,
01000000
00000000
00000000
01000000
00000000
00100000
00000000
00000000
,
00100000
00000000
00001000
00000000
00000000
00001000
00000000
00020000
,
00000000
00000000
00000000
00000000
00000000
00030000
00000000
00001000
,
00000000
00001000
00000000
00011000
00000000
00000000
00000000
00000100
,
00000000
00001000
00000000
00000001
00001000
00000001
00000000
00000100
,
00000000
00000010
00000000
00001000
00000000
00000100
00000000
00010000
,
00000000
00010000
00000000
00001000
00000000
00001000
00000000
00010000
,
00001000
00010000
00001000
00010000
00000000
00000000
00000000
00100000
,
00000000
10000000
00000000
00010000
10000000
00010000
00000000
01000000
,
00000000
00100000
00000000
00001000
00000000
00010000
00000000
00001000
,
00000000
00001000
00000000
00010000
00000000
00010000
00000000
00001000
,
00000000
00010000
00000000
00011000
00000000
00000000
00000000
00000100
,
00000000
00000000
00000010
00000000
00000000
00000010
00000000
00000000
,
00000001
00000000
00000000
00000001
00000000
00000000
00000100
00000000
,
00000000
00001000
00000000
00000000
00001000
00000000
00000000
00010000
,
00000000
00000000
00100000
00000000
00000000
00100000
00000000
00000000
,
10000000
00000000
00000000
10000000
00000000
00000000
01000000
00000000
,
00000000
00010000
00000000
00000000
00000000
00000000
00000000
00002000
,
00000000
00000000
00003000
00000000
,
00000000
00000200
00000000
00000000
00000000
00000000
00000300
00000000
,
00000000
00000000
00000000
00020000
00000000
00000000
00000000
00000000
,
00030000
00000000
00000000
00000000
00000000
02000000
00000000
00000000
,
00000000
00000000
03000000
00000000
00000000
00000000
00000000
00001000
,
00000000
00000000
00001000
00000000
00000100
00000000
00000000
00000100
,
00000000
00000001
00000000
00000000
00000001
00000000
00000010
00000000
,
00000000
00000010
00000000
00001000
00000000
00000000
00001000
00000000
,
00010000
00000000
00000000
00010000
00000000
01000000
00000000
00000000
,
01000000
10000000
10000000
01000000
,
01000000
00010000
00001000
00011000
,
00000000
00000000
00000010
00000100
00000010
00000000
00000100
00000000
,
00000001
00001000
00000100
00010000
,
00001000
00000000
00010000
00001000
00010000
00000000
00100000
00000000
,
01000000
00100000
10000000
01000000
,
00000000
00000000
10000000
00010000
10000000
00000000
01000000
00000000
,
00100000
00001000
00010000
00000010
,
00010000
00000000
00001000
00010000
00001000
00000000
00000010
00000000
,
00000001
00000100
00001000
00000100
,
00000000
00001001
00000000
00000110
,
00000000
00000001
00000100
00001000
,
00010000
00000000
00011000
00000000
00010000
00000000
01000000
01000000
,
00000000
00000000
00000000
00000000
;
#NOTES:
     dance-double:
     :
     Medium:
     10:
     :
00000000
00000000
00000000
00000000
,
00000000
00000000
00000000
00000000
,
00000000
00000000
00000000
00000000
,
00000000
00000000
00000000
00000000
,
00000000
00000000
00000000
00000000
,
00000001
00000000
00000100
00000000
00000010
00000100
00000010
00000000
,
00001000
00000100
00001000
00000000
00000100
00010000
00000100
00000000
,
00010000
00000000
00001000
00000000
00100000
00010000
00100000
00000000
,
01000000
00000000
10000000
10000000
00000000
00010000
00010000
00000000
,
10010000
00000000
01100000
00000000
,
02000000
00000000
03002000
00000000
00013000
00010000
00000000
00000000
,
00000100
00000010
00000002
00000003
,
00000100
00000010
00002000
00003000
,
00000200
00000300
00020000
00030000
,
00001000
01000000
00001000
00010000
00001000
00000000
00000000
00000000
,
00100000
00000000
01010000
00000000
,
10000000
10000000
10010000
00000000
,
01010000
00000000
00101000
00000000
,
00020000
00030200
00002300
00003002
,
00000103
00000001
00000100
00000001
00000100
00000010
00001000
00000100
,
00010000
00001000
00010000
00001000
01000000
00010000
01000000
00010000
,
00100000
00000000
00100000
01000000
00000000
10000000
00000000
10000000
,
00010000
00000000
00100000
00000000
00100000
00001000
00000000
00011000
,
00000000
00000000
00000000
00011000
00000000
00000000
00000000
00001000
,
00010000
00001000
00010000
00001000
00000000
00010000
00010000
00001000
,
00010000
00001000
00000100
00000010
00000100
00000001
00000000
00000010
,
00000001
00000010
00000100
00001000
00000100
00010000
00000000
00001000
,
00001000
00001000
00000000
00010000
00010000
00010000
00000000
00001000
,
00100000
00010000
00100000
02000000
00000000
03100000
00100000
00010000
,
10000000
00010000
01000000
00100000
01000000
00001000
00000000
00010000
,
00001000
00010000
00000010
00001000
00000100
00000010
00000000
00000001
,
00000001
00000001
00000000
00001000
00001000
00001000
00000000
00000010
,
00001000
00000010
00010000
00011000
00000000
00000000
00000000
00100000
,
00000000
00100000
00010000
00000000
00000000
10000000
00000000
10000000
,
01000000
00000000
00000000
00010000
00000000
00010000
00001000
00000000
,
00000000
00000000
00010000
00000000
00000000
00000000
00000010
00000100
00000010
00000000
00000000
00000000
00000000
00000000
00000100
00000000
,
00000000
00000100
00000001
00000000
00000001
00001000
00000000
00001000
,
00000100
00000000
00000100
00010000
00000000
00010000
00001000
00000000
,
00001000
00100000
00000000
00100000
00010000
00000000
00000000
20000000
,
00000000
00000000
30000000
00000000
02000000
00000000
00000000
03000000
,
00000000
00020000
00000000
00000000
00030000
00000000
00002000
00000000
,
00000000
00003000
00000000
00000020
00000000
00000000
00000030
00000000
,
00000002
00000000
00000000
00000003
00000000
00000200
00000000
00000000
,
00000300
00000000
00002000
00000000
00000000
00003000
00000000
00010000
,
00100000
00010000
00100000
00000000
10000000
00100000
10000000
00100000
,
00000000
10000000
01000000
10000000
01000000
00000000
00100000
00001000
,
00010000
00001000
00000000
00001000
00000010
00001000
00000010
00000000
,
00000001
00000010
00000001
00000010
00000000
00000001
00000100
00000001
,
00001000
00000000
00000001
00000010
00000100
00000000
00001000
00000010
,
00000100
00000000
00001000
00010000
00001000
00010000
00001000
00000000
,
00000000
00000000
00100000
00010000
00100000
00010000
01000000
00100000
,
01000000
00100000
10000000
01000000
00010000
01000000
10000000
00010000
,
01000000
00000000
00010000
00100000
00010000
00100000
00001000
00010000
,
00001000
00010000
00000100
00001000
00000010
00001000
00000100
00000001
,
00000100
00000000
00001000
00000001
00001000
00000001
00000100
00000010
,
00000100
00000010
00001000
00000100
00010000
00000100
00010000
00001000
,
00010000
00000000
00001000
00100000
00001000
00100000
00010000
01000000
,
00010000
01000000
10000000
01000000
00010000
10000000
00000000
01000000
,
01000000
00000000
00100000
00100000
00000000
00000000
01000000
01000000
,
00000000
00000000
00010000
00001000
00010000
00001000
00010000
00010000
,
00010000
00000000
00011000
00000000
00000100
00000010
00000001
00000001
,
00000000
00000000
00000000
00000000
;
#NOTES:
     dance-double:
     :
     Hard:
     13:
     :
00000000
00000000
00000000
00000000
,
00000000
00000000
00000000
00000000
,
00000000
00000000
00000000
00000000
,
00000000
00000000
00000000
00000000
,
00000000
00000000
00000000
00000000
,
00000001
00000000
00000000
00000001
00001000
00000000
00000000
00000000
00000001
00000000
00000000
00000001
00001000
00000000
00000000
00000000
,
00000010
00000100
00001000
00010000
00100000
01000000
00010000
00000000
,
10000000
00000000
00000000
10000000
00010000
00000000
00000000
00000000
10000000
00000000
00000000
10000000
00010000
00000000
00000000
00000000
,
00100000
01000000
00010000
00001000
00000000
00011000
00011000
00000000
,
00000110
00000110
00000000
00000000
00001001
00001001
00000000
00000000
,
00000001
00000100
00001000
00010000
00001000
00001000
01000000
00100000
,
20000000
00000000
32000000
00000000
03200000
00000000
00310000
01000000
,
00020000
00230000
00302000
00000000
,
00023000
00032000
00003020
00002030
,
00013000
00001000
00000100
00000001
00002000
00000000
00003001
00000010
,
00000001
00000000
00000000
00000001
00000101
00000000
00000000
00000000
,
00001010
00000000
00011000
00000000
00110000
00000000
00100000
01000000
,
01100000
01100000
00000000
10000000
10010000
10010000
00000000
01000000
,
00002000
00100000
00010000
00003010
,
00000001
00000000
00001000
00000000
00000001
00000000
00000100
00000010
00000100
00000000
00000010
00000000
00001000
00000000
00000100
00000000
,
00010000
00000000
00001000
00000000
00010000
00000000
00001000
00100000
00001000
00000000
00010000
00000000
00100000
00000000
10000000
00000000
,
21000000
00000000
30010000
00110000
00000000
00210000
00000000
00301000
,
00011000
00000000
00021000
00000000
00030010
00001010
00000000
00000002
,
00000000
00000000
00000003
00000000
00001000
00000100
00002000
00000000
00000000
00000000
00003000
00000000
00000010
00010000
00000010
00000000
,
00010000
00001000
00010000
00001000
00010000
00001000
00010000
00000000
00011000
00000000
00000000
00000000
00000000
00000000
00010000
00000000
,
00100000
00000000
10000000
00000000
00100000
00000000
00010000
00000000
00001000
00010000
00001000
00010000
00001000
00000000
00010000
00000000
,
01000000
00000000
10000000
00000000
01000000
00000000
00010000
00000000
00001000
00010000
00001000
00010000
00001000
00000000
00000100
00000000
,
00000010
00000110
00000000
00000010
00010000
00011000
00000000
01000000
,
00010000
00100000
01000000
00000000
00010000
00000000
00022000
00000000
00000000
00000000
00033000
00000000
00000000
00000000
00001000
00000000
,
00000010
00000000
00000001
00000000
00000010
00000000
00001000
00000000
00010000
00001000
00010000
00001000
00010000
00000000
00001000
00000000
,
00000100
00000000
00000001
00000000
00000100
00000000
00001000
00000000
00010000
00001000
00010000
00001000
00010000
00000000
01000000
00000000
,
00100000
01100000
00000000
00100000
00001000
00011000
00000000
00000100
,
00001000
00000010
00000100
00002000
00000000
00013000
00000000
00100000
,
10000000
00000000
10000000
00000000
01000000
00000000
00010000
00001000
00010000
00000000
00001000
00000000
00010000
00000000
00010000
00000000
,
00100000
00010000
00010000
00001000
00000100
00000001
00000001
00001000
,
00000100
00000000
00000002
00000000
00000000
00000000
00000103
00001000
00000200
00000000
00000010
00000000
00000310
00000000
00000001
00000000
,
00000100
00000100
00000110
00001000
00001000
00000100
00010000
00010000
,
00011000
00000000
00100000
00010000
00100000
00000000
00110000
00000000
00000000
00000000
00000000
00000000
11000000
00000000
00000000
00000000
,
00000000
10010000
00000000
01000000
00100000
00000000
00000000
10000000
,
00000000
01000000
00010000
00000000
00001000
00000000
00000010
00000001
,
00000000
00000001
00000000
00000100
00001000
00010000
00100000
00000000
,
00000000
10000000
00100000
00010000
00000000
00001000
00000100
00000000
,
00000001
00000000
00000010
00001000
00000000
00010000
00000000
00010000
,
01000000
10000000
00100000
00010000
00001000
00010000
00000000
00001000
,
00010000
00000010
00001000
00001000
00000001
00000100
00000010
00001000
,
00001000
00000100
00010000
00001000
00100000
00010000
01000000
10000000
,
01000000
00010000
10000000
00010000
00100000
00100000
00001000
00010000
,
00000100
00001000
00001000
00000010
00000100
00001000
00010000
00001000
,
00000010
00000000
00000001
00000000
00001001
00000000
00000001
00000000
00001000
00000100
00001000
00000000
00001100
00000000
00000100
00000000
,
00010000
00000100
00010000
00000000
00001000
00010000
00001000
00000000
00010000
00001000
00010000
00000000
00011000
00000000
00011000
00000000
,
00000000
00000000
00000000
00000000
01000000
00000000
00100000
10000000
00100000
00000000
01000000
00000000
00010000
00000000
00100000
00001000
,
00100000
00000000
00001000
00000000
00010000
00000000
00000100
00001000
00000001
00000000
00000100
00000001
00001000
00000000
00000010
00000000
,
00000100
00000010
00000100
00000000
00000010
00000000
00001000
00000100
00001000
00000000
00000010
00000000
00010000
00000000
00001000
00010000
,
00001000
00000000
01000000
00000000
00010000
00000000
10000000
00010000
10000000
00000000
00100000
01000000
00010000
00000000
10010000
00000000
,
10010000
00000000
00000000
00000000
10000000
00000000
01000000
00100000
00010000
00000000
10000000
00000000
00100000
00000000
01000000
00010000
,
00100000
00000000
00001000
00000000
00010000
00000000
00000100
00001000
00000100
00000000
00001000
00000000
00000010
00000000
00000100
00000001
,
00000010
00000100
00001000
00000000
00000001
00000000
00000100
00000010
00001000
00000000
00000010
00000000
00010000
00000000
00001000
00010000
,
01000000
00000000
00100000
00000000
00010000
00000000
10000000
01000000
10000000
00000000
00100000
00000000
00000000
00000000
01100000
00000000
,
01100000
00000000
10010000
10010000
01000000
00001000
00011000
00011000
,
00000100
00000000
00001000
00000000
00000010
00000000
00000010
00000100
00000010
00000000
00000010
00000000
00000110
00000000
00000110
00000000
,
00000001
00000100
00000010
00001000
00000010
00000000
00000000
00000000
00010000
00001000
00010000
00001000
00010000
00000000
00011000
00000000
,
00000000
00000000
00000000
00000000
;
