
//----- song ID: shda -----//
#TITLE:SHINY DAYS;
#ARTIST:亜咲花;
#ARTISTTRANSLIT:Asaka;
#BANNER:SHINY DAYS.png;
#BACKGROUND:SHINY DAYS-bg.png;
#CDTITLE:./CDTitles/GITADORA NEX_AGE.png;
#MUSIC:SHINY DAYS.ogg;
#SAMPLESTART:60.976;
#SAMPLELENGTH:15;
#BPMS:0=110;
#NOTES:
     dance-single:
     :
     Beginner:
     1:
     :
0000
0000
0000
0000
,
0000
0000
0000
0000
,
0000
0000
0000
0000
,
0000
0000
0000
0000
,
0000
0000
0000
0000
,
0001
0000
0000
0000
,
1000
0000
0000
0000
,
0010
0000
0000
0000
,
0100
0000
0000
0000
,
0001
0000
0001
0000
,
0001
0000
0000
0000
,
1000
0000
1000
0000
,
1000
0000
0000
0000
,
1001
0000
0000
0000
,
0010
0000
0000
0000
,
0001
0000
0001
0000
,
0100
0000
0000
0000
,
1001
0000
0000
0000
,
0010
0000
0000
0000
,
1000
0000
1000
0000
,
0100
0000
0000
0000
,
0020
0000
0000
0000
,
0030
0000
0000
0000
,
0200
0000
0000
0000
,
0300
0000
0000
0000
,
0001
0000
0010
0000
,
0100
0000
0100
0000
,
1000
0000
1000
0000
,
1001
0000
0000
0000
,
1001
0000
0000
0000
,
1000
0000
0100
0000
,
0010
0010
0010
0000
,
1001
0000
0000
0000
,
1001
0000
0000
0000
,
0001
0000
0100
0000
,
0010
0010
0010
0000
,
1000
0000
1000
0000
,
0001
0000
0001
0000
,
0010
0000
0010
0000
,
0100
0000
0000
0000
,
1001
0000
0000
0000
,
1000
0000
1000
0000
,
0001
0000
0001
0000
,
1000
0000
1000
0000
,
0001
0000
0001
0000
,
1001
0000
0000
0000
,
0000
0000
0000
0000
;
#NOTES:
     dance-single:
     :
     Easy:
     4:
     :
0000
0000
0000
0000
,
0000
0000
0000
0000
,
0000
0000
0000
0000
,
0000
0000
0000
0000
,
0000
0000
0000
0000
,
0001
0100
0001
0000
,
1000
0100
1000
0000
,
0001
0100
0001
0000
,
0010
0010
0010
0000
,
1000
0010
1000
0000
,
0001
0010
0001
0000
,
1000
0010
1000
0000
,
0010
0010
0010
0000
,
1001
0000
0010
0100
,
0010
0000
1000
0001
,
1000
1000
0100
0000
,
0001
0001
0100
0000
,
1001
0000
0100
0010
,
0100
0000
0001
1000
,
0001
0001
0010
0000
,
1000
1000
0010
0000
,
0002
0000
0003
0000
,
2000
0000
3000
0000
,
0020
0000
0030
0000
,
0200
0000
0300
0000
,
0001
0001
1000
1000
,
0010
0100
0010
0100
,
0010
0010
0010
0000
,
0001
0010
1000
0000
,
1000
0010
0001
0000
,
1001
0000
0110
0000
,
2002
0000
3003
0000
,
1000
0010
0001
0000
,
0001
0010
1000
0000
,
1001
0000
0110
0000
,
2002
0000
3003
0000
,
0010
0000
0110
0000
,
0100
0000
0110
0000
,
1000
0000
1001
0000
,
0001
0000
1000
0000
,
2002
0000
3003
0000
,
0010
0010
1000
0000
,
0100
0100
0001
0000
,
0010
0010
0001
0000
,
0100
0100
1000
1000
,
1001
0000
0000
0000
,
0000
0000
0000
0000
;
#NOTES:
     dance-single:
     :
     Medium:
     8:
     :
0000
0000
0000
0000
,
0000
0000
0000
0000
,
0000
0000
0000
0000
,
0000
0000
0000
0000
,
0000
0000
0000
0000
,
0001
0000
0001
0000
0100
0010
0100
0000
,
0001
0000
0001
0000
0010
0100
0010
0000
,
1000
0000
1000
0000
0010
0100
0010
0000
,
1000
0100
1000
0000
0001
0010
0001
0000
,
0100
0000
0100
0000
0010
1000
0001
0000
,
0100
0000
0100
0000
0001
0010
0100
0000
,
0010
0000
0010
0000
0001
1000
0100
0000
,
1000
0010
1000
0010
0100
0001
0100
0000
,
0001
0000
0000
0000
0000
0000
0000
0000
1000
0000
0000
1000
0000
0000
1000
0000
,
0000
0000
0000
0000
0000
0000
0000
0000
0001
0000
0000
0001
0000
0000
0001
0000
,
0100
0010
0100
0000
0010
0100
0010
0000
,
1000
0001
1000
0000
2002
0000
3003
0000
,
0110
0000
0000
0000
0000
0000
0000
0000
0010
0000
0000
0010
0000
0000
0010
0000
,
0000
0000
0000
0000
0000
0000
0000
0000
0100
0000
0000
0100
0000
0000
0100
0000
,
0010
1000
0010
0000
0100
0001
0100
0000
,
0010
0100
0010
0000
0220
0000
0330
0000
,
1000
0100
0010
0000
0100
0010
0001
0000
,
0100
0001
1001
0000
,
0001
0100
0010
0000
0100
0010
1000
0000
,
0002
0000
0003
1001
,
1000
0000
0100
0100
0000
0010
0001
0010
,
0000
0001
1000
0000
1000
0010
0100
0000
,
0100
0001
1000
0000
1001
0000
0000
0000
,
1000
0000
0010
0000
0100
0001
0100
0000
,
0001
0000
0010
0000
0100
1000
0100
0000
,
1010
0000
0011
0000
,
1010
0011
1001
0000
,
0001
0000
0100
0000
0010
1000
0010
0000
,
1000
0000
0100
0000
0010
0001
0010
0000
,
0101
0000
1100
0000
,
0101
1100
1001
0000
,
0010
0000
0000
0000
0000
0000
0000
0000
0100
0000
0000
0100
0000
0000
0000
0000
,
0001
0000
0000
0000
0000
0000
0000
0000
1000
0000
0000
1000
0000
0000
0000
0000
,
0100
0000
0000
0000
0000
0000
0000
0000
0010
0000
0000
0010
0000
0000
0000
0000
,
0001
1000
0001
0000
1000
0001
1000
0000
,
2002
0000
0000
3003
,
0010
0000
0010
0000
1000
0100
0001
0000
,
0100
0000
0100
0000
1000
0010
0100
0000
,
0010
0000
0010
0000
0001
0100
1000
0000
,
0100
0010
1000
0000
0100
0010
0001
0000
,
1001
0000
0000
0000
,
0000
0000
0000
0000
;
#NOTES:
     dance-single:
     :
     Hard:
     10:
     :
0000
0000
0000
0000
,
0000
0000
0000
0000
,
0000
0000
0000
0000
,
0000
0000
0000
0000
,
0000
0000
0000
0000
,
0000
0000
0010
0000
0000
0010
0000
0010
0000
0000
1000
0000
0100
0000
0010
0000
,
0000
0000
0010
0000
0000
0010
0000
0010
0000
0000
0001
0000
0100
0000
1000
0000
,
0000
0000
0010
0000
0000
0010
0000
0010
0000
0000
1000
0000
0010
0000
0100
0000
,
0001
0100
0001
0100
0010
1000
0010
1000
,
0000
0000
0100
0000
0000
0100
0000
0100
0000
0000
0001
0000
0010
0000
0100
0000
,
0000
0000
0100
0000
0000
0100
0000
0100
0000
0000
1000
0000
0010
0000
0001
0000
,
0000
0000
0100
0000
0000
0100
0000
0100
0000
0000
0001
0000
0100
0000
0010
0000
,
1000
0100
0010
0001
0100
0001
0010
0100
,
1000
0000
0000
0000
0001
0000
0000
0000
0010
0000
0000
0011
0000
0000
1001
0000
,
0000
0000
0000
0000
0010
0000
1000
0000
1010
0000
0000
1100
0000
0000
1001
0000
,
0100
0000
0100
0010
1000
0000
0100
0010
,
0001
0000
0100
0000
1000
0000
0100
0000
0001
1000
0000
2002
0000
0000
3003
0000
,
0001
0000
0000
0000
1000
0000
0000
0000
0100
0000
0000
1100
0000
0000
1001
0000
,
0000
0000
0000
0000
0100
0000
0001
0000
0101
0000
0000
0011
0000
0000
1001
0000
,
0010
0000
0010
0100
0001
0000
0010
0100
,
1000
0000
0010
0000
0001
0000
0010
0000
1000
0001
0000
2002
0000
0000
3003
0000
,
1000
0000
0100
0000
1000
0000
0010
0000
0100
0000
0001
1000
0000
0000
1000
0000
,
0010
0000
0001
0000
0010
0000
1000
0002
0000
0000
0100
0000
0103
0000
0000
0000
,
0010
0000
1000
0000
0010
0000
1000
0000
0100
0000
0000
0010
0000
0000
0001
0000
,
2000
0000
0000
0000
0000
0000
0000
0000
3000
0000
0000
0000
0001
1000
0001
0000
,
0010
0001
0100
0101
0000
0010
1000
1100
,
0000
0010
0100
0010
0100
1000
0001
1000
,
0001
0100
0010
0100
0010
0000
1001
0000
,
0010
0000
0000
0000
1000
0000
0000
1001
0000
0000
0000
0000
0100
0010
0100
0010
,
0100
0000
0000
0000
0001
0000
0000
2002
0000
0000
0000
0000
3003
0000
0100
0000
,
1000
0010
0001
0010
1000
0100
0001
0100
,
1000
0000
0000
0000
0001
0000
0000
2002
0000
0000
0000
0000
3003
0000
0000
0000
,
0100
0000
0000
0000
1000
0000
0000
1001
0000
0000
0000
0000
0010
0100
0010
0100
,
0010
0000
0000
0000
0001
0000
0000
2002
0000
0000
0000
0000
3003
0000
0010
0000
,
0001
0100
1000
0100
0001
0010
1000
0010
,
0001
0000
0000
0000
1000
0000
0000
2002
0000
0000
0000
0000
3003
0000
0000
0000
,
0011
0000
0000
0000
0000
0000
0000
0000
0101
0000
0000
1001
0000
0000
0000
0000
,
1010
0000
0000
0000
0000
0000
0000
0000
1100
0000
0000
1001
0000
0000
0000
0000
,
0110
0000
0000
0000
0000
0000
0000
0000
0011
0000
0000
1010
0000
0000
0000
0000
,
0100
0001
0100
0001
0010
0100
1000
0001
,
2000
0000
0000
0000
0000
0001
3001
0000
,
0000
0000
1000
0000
0000
1000
0000
1000
0000
0000
0001
0000
0010
0000
0100
0000
,
0000
0000
1000
0000
0000
1000
0000
1000
0000
0000
0010
0000
0100
0000
0001
0000
,
0000
0000
0001
0000
0000
0001
0000
0001
0000
0000
1000
0000
0100
0000
0010
0000
,
0001
0100
0010
0000
1000
0100
0010
0000
,
1001
0000
0000
0000
,
0000
0000
0000
0000
;
#NOTES:
     dance-single:
     :
     Challenge:
     14:
     :
0000
0000
0000
0000
,
0000
0000
0000
0000
,
0000
0000
0000
0000
,
0000
0000
0000
0000
,
0000
0000
0000
0000
,
0000
0000
0011
0000
0000
1001
0000
1001
0000
1000
0100
0010
0001
0100
0010
0100
,
0000
0000
1010
0000
0000
1001
0000
1001
0000
0001
0010
0100
1000
0010
0100
0010
,
0000
0000
0011
0000
0000
1001
0000
1001
0000
0100
0001
0010
0100
1000
0010
0100
,
0000
0001
0100
0010
0000
1000
0100
0010
0000
0001
0010
0100
0000
1000
0010
0100
,
0000
0000
0101
0000
0000
0110
0000
1001
0000
1000
0100
0001
0100
1000
0100
1000
,
0000
0000
1100
0000
0000
0110
0000
1001
0000
0001
0100
1000
0100
0001
0100
0001
,
0000
0000
0101
0000
0000
0110
0000
1001
0000
1000
0010
0001
0010
1000
0010
1000
,
0100
0000
0001
0100
0010
0000
0001
0100
0020
0000
0031
0000
0020
0000
1030
0000
,
1001
0000
0000
0000
0000
0000
0000
0000
0101
0000
0000
1010
0000
0000
1001
0000
,
0000
0000
0000
0000
0000
0000
1000
0000
1001
0000
0000
0110
0000
0000
1001
0000
,
0100
0000
0100
0010
1000
0000
1000
0100
0010
0000
0010
0001
0100
0000
0100
0001
,
0010
0000
0100
0001
0100
0000
1000
0000
0001
1000
0000
2002
0000
0000
3003
0000
,
1001
0000
0100
0010
0001
0000
1000
0000
1100
0000
0000
0011
0000
0000
1001
0000
,
1000
0001
1000
0000
1001
0000
0001
0000
1001
0000
0000
0110
0000
0000
1001
0000
,
0100
0000
0100
0010
0001
0000
0001
0100
0010
0000
0010
1000
0100
0000
0100
1000
,
0010
0000
0100
1000
0100
0000
0001
0000
1000
0001
0000
2002
0000
3003
0000
0010
,
2000
0000
3200
0000
0302
0000
0203
0000
2300
0000
3001
0100
0000
0000
0100
0000
,
0020
0000
2030
0000
3200
0000
0320
0002
0000
0000
0000
0000
0033
0000
0000
0000
,
0001
0000
1000
0010
1000
0000
0001
0010
0002
0000
0000
0203
0000
0000
0310
0000
,
2002
0000
0000
0000
0000
0000
0000
0000
3003
0000
0000
0000
0001
1000
0001
0000
,
0010
0001
0100
0001
0010
0000
1100
0000
0010
0100
0101
0000
0011
0000
1001
0000
,
0000
0000
0000
0000
0000
0000
0001
0000
0100
0000
0001
0000
0100
0000
0000
0000
0000
0000
0010
0000
1000
0000
0010
0000
1000
0000
0000
0000
0000
0000
0001
0000
1000
0000
0001
0000
1000
0000
0000
0000
0000
0000
0100
0000
0000
0010
0000
0000
,
0001
0000
1000
0100
0010
0000
0001
0000
1001
0000
0000
0000
0110
0000
0000
0000
,
0010
0000
0000
0000
0100
0000
0000
1001
0000
0000
0000
0000
0001
0010
1000
0010
,
0001
0000
0000
0000
1000
0000
0000
0220
0000
0000
0000
0000
0330
0000
0100
0010
,
0001
0000
0100
0010
1000
0000
0100
0010
0001
0000
0100
1000
0000
0100
0001
0000
,
1100
0000
0000
0000
0110
0000
0000
0012
0000
0000
0100
0000
1003
0000
1001
0000
,
0100
0000
0000
0000
0010
0000
0000
1001
0000
0000
0000
0000
1000
0010
0001
0010
,
1000
0000
0000
0000
0100
0000
0000
0220
0000
0000
0000
0000
0330
0000
0001
0010
,
0100
0000
1000
0000
0010
0000
0001
0000
0100
1000
0000
0010
0000
0000
0001
0000
,
0100
0000
0000
0000
1000
0000
0000
2002
0000
0000
0000
0000
3003
0000
0000
0000
,
1001
0000
0100
0001
0010
0000
0100
1000
0010
1000
0000
1010
0000
0000
1001
0000
,
0110
0000
0002
0000
0023
0000
0230
0000
1300
0010
1000
0200
0000
0000
0310
0000
,
0110
0000
0001
1000
0010
0000
1000
0001
0010
0001
0000
0101
0000
0000
0110
0000
,
1001
0000
1000
0010
0100
0001
0100
0010
1000
0100
0010
0001
0100
0010
0000
0010
,
0200
0000
0000
0000
0000
0010
0310
0000
,
1000
0100
0010
0000
0001
0010
0000
0011
0000
0001
0100
1000
0100
0001
1000
0000
,
0001
0010
0100
0000
1000
0010
0000
1010
0000
1000
0100
0001
0100
1000
0001
0000
,
0100
0010
1000
0000
0100
0010
0000
0110
0000
0100
0001
0100
1000
0100
0010
0000
,
0001
0000
1000
0010
0100
0000
0001
0010
0100
0000
1000
0000
0010
0000
0100
0000
,
1001
0000
0000
0000
,
0000
0000
0000
0000
;
#NOTES:
     dance-double:
     :
     Easy:
     4:
     :
00000000
00000000
00000000
00000000
,
00000000
00000000
00000000
00000000
,
00000000
00000000
00000000
00000000
,
00000000
00000000
00000000
00000000
,
00000000
00000000
00000000
00000000
,
00000010
00000100
00000010
00000000
,
00010000
00001000
00010000
00000000
,
00001000
00010000
00001000
00000000
,
00100000
01000000
00100000
00000000
,
00100000
01000000
00100000
00000000
,
00001000
00010000
00001000
00000000
,
00010000
00001000
00010000
00000000
,
00000010
00000100
00000010
00000000
,
00001001
00000000
00000001
00000001
,
00000100
00000000
00001000
00010000
,
00001000
00000000
00011000
00000000
,
01000000
00100000
01000000
00000000
,
10010000
00000000
10000000
10000000
,
01000000
00000000
00010000
00001000
,
00010000
00000000
00011000
00000000
,
00000100
00000010
00000100
00000000
,
00000002
00000000
00000003
00000000
,
00002000
00000000
00003000
00000000
,
00020000
00000000
00030000
00000000
,
00002000
00000000
00003000
00000000
,
00010000
00010000
00100000
01000000
,
10000000
00010000
10000000
00010000
,
00100000
00100000
00100000
00000000
,
00001000
00010000
00001000
00000000
,
00001000
00000010
00000001
00000000
,
00000100
00000000
00000010
00000000
,
00002002
00000000
00003003
00000000
,
00000001
00000100
00001000
00000000
,
00010000
00001000
00010000
00000000
,
00100000
00000000
01000000
00000000
,
20020000
00000000
30030000
00000000
,
00100000
00000000
00011000
00000000
,
01000000
00000000
00011000
00000000
,
00000010
00000000
00011000
00000000
,
00000100
00000100
00000010
00000000
,
00002002
00000000
00003003
00000000
,
00000001
00000001
00000100
00000000
,
00000010
00000010
00010000
00000000
,
00001000
00001000
01000000
00000000
,
00100000
00100000
10000000
10000000
,
10010000
00000000
00000000
00000000
,
00000000
00000000
00000000
00000000
;
#NOTES:
     dance-double:
     :
     Medium:
     8:
     :
00000000
00000000
00000000
00000000
,
00000000
00000000
00000000
00000000
,
00000000
00000000
00000000
00000000
,
00000000
00000000
00000000
00000000
,
00000000
00000000
00000000
00000000
,
00000010
00000000
00000001
00000000
00001000
00000100
00001000
00000000
,
00000010
00010000
00001000
01000000
,
00010000
00000000
00100000
00000000
01000000
10000000
01000000
00000000
,
00100000
01000000
00100000
00000000
00010000
10000000
00010000
00000000
,
01000000
00000000
00001000
00000000
00100000
00001000
00010000
00000000
,
00000100
00000000
00001000
00000000
00000010
00000100
00000001
00000000
,
00000010
00000000
00000100
00000000
00001000
00000010
00000100
00000000
,
00001000
00010000
00001000
00100000
00010000
00100000
00010000
00000000
,
10000000
00000000
00000000
00000000
00000000
00000000
00000000
00000000
00010000
00000000
00000000
00010000
00000000
00000000
00010000
00000000
,
00000000
00000000
00000000
00000000
00000000
00000000
00000000
00000000
00001000
00000000
00000000
00001000
00000000
00000000
00001000
00000000
,
00010000
00010000
00000100
00000100
,
00000010
00000001
00000010
00000001
00000200
00000000
00000300
00000000
,
00000110
00000000
00000000
00000000
00000000
00000000
00000000
00000000
00001000
00000000
00000000
00001000
00000000
00000000
00001000
00000000
,
00000000
00000000
00000000
00000000
00000000
00000000
00000000
00000000
00010000
00000000
00000000
00010000
00000000
00000000
00010000
00000000
,
00001000
00001000
01000000
01000000
,
00100000
10000000
00100000
10000000
02000000
00000000
03000000
00000000
,
10000000
00000000
00100000
00000000
01000000
00001000
00010000
00000000
,
00000100
00001000
00000100
00001000
00000010
00000000
00000000
00000000
,
00000100
00000001
00000010
00000000
00000100
00001000
00000010
00000000
,
00000200
00000000
00000000
00000000
00000300
00000000
00001000
00010000
,
00001000
00000000
00001000
01000000
00000000
01000000
00010000
00100000
,
00000000
01000000
10000000
00000000
10000000
01000000
00010000
00000000
,
00001000
00000010
00000001
00000000
00001001
00000000
00000000
00000000
,
00001000
00000000
00000100
00000000
00000001
00000100
00001000
00000000
,
00000001
00000000
00000100
00000000
00001000
00010000
00001000
00000000
,
00100000
00010000
00100000
00000000
01000000
10000000
01000000
00000000
,
10100000
00110000
10010000
00000000
,
00010000
00000000
01000000
00000000
10000000
01000000
00010000
00000000
,
10000000
00000000
01000000
00000000
00010000
00001000
00010000
00000000
,
00000010
00001000
00000010
00000000
00000100
00000001
00000100
00000000
,
00000011
00001010
00001001
00000000
,
00000010
00000000
00000000
00000000
00000000
00000000
00000000
00000000
00001000
00000000
00000000
00001000
00000000
00000000
00000000
00000000
,
00010000
00000000
00000000
00000000
00000000
00000000
00000000
00000000
01000000
00000000
00000000
01000000
00000000
00000000
00000000
00000000
,
00100000
00000000
00000000
00000000
00000000
00000000
00000000
00000000
10000000
00000000
00000000
10000000
00000000
00000000
00000000
00000000
,
01000000
00100000
01000000
00100000
00001000
00010000
00001000
00000000
,
00022000
00000000
00000000
00033000
,
00000100
00000000
00000100
00000000
00001000
00000010
00000001
00000000
,
00000010
00000000
00000010
00000000
00001000
00000100
00010000
00000000
,
00001000
00000000
00001000
00000000
00010000
00100000
10000000
00000000
,
01000000
00100000
00010000
10000000
00100000
01000000
00010000
00000000
,
10010000
00000000
00000000
00000000
,
00000000
00000000
00000000
00000000
;
#NOTES:
     dance-double:
     :
     Hard:
     10:
     :
00000000
00000000
00000000
00000000
,
00000000
00000000
00000000
00000000
,
00000000
00000000
00000000
00000000
,
00000000
00000000
00000000
00000000
,
00000000
00000000
00000000
00000000
,
00000000
00000000
00000010
00000000
00000000
00000010
00000000
00000010
00000000
00000000
00000001
00000000
00000100
00000000
00000010
00000000
,
00000000
00000000
00000010
00000000
00000000
00000010
00000000
00000010
00000000
00000000
00000100
00000000
00001000
00000000
00010000
00000000
,
00000000
00000000
00001000
00000000
00000000
00001000
00000000
00001000
00000000
00000000
00100000
00000000
00010000
00000000
01000000
00000000
,
00100000
10000000
00100000
10000000
01000000
10000000
01000000
10000000
,
00000000
00000000
00100000
00000000
00000000
00100000
00000000
00100000
00000000
00000000
10000000
00000000
01000000
00000000
00100000
00000000
,
00000000
00000000
00100000
00000000
00000000
00100000
00000000
00100000
00000000
00000000
01000000
00000000
00010000
00000000
00001000
00000000
,
00000000
00000000
00010000
00000000
00000000
00010000
00000000
00010000
00000000
00000000
00000010
00000000
00001000
00000000
00000100
00000000
,
00000010
00000001
00000100
00001000
00000100
00000001
00000010
00000001
,
00001000
00000000
00000000
00000000
00000001
00000000
00000000
00000000
00000100
00000000
00000000
00000110
00000000
00000000
00001010
00000000
,
00000000
00000000
00000000
00000000
00000100
00000000
00010000
00000000
00010100
00000000
00000000
00011000
00000000
00000000
01001000
00000000
,
00010000
00000000
00010000
00100000
01000000
00000000
10000000
00100000
,
01000000
00000000
10000000
00000000
01000000
00000000
00010000
00000000
00100000
01000000
00000000
02200000
00000000
00000000
03300000
00000000
,
00010000
00000000
00000000
00000000
10000000
00000000
00000000
00000000
00100000
00000000
00000000
01100000
00000000
00000000
01010000
00000000
,
00000000
00000000
00000000
00000000
00100000
00000000
00001000
00000000
00101000
00000000
00000000
00011000
00000000
00000000
00010010
00000000
,
00001000
00000000
00001000
00000100
00000010
00000000
00000001
00000100
,
00000010
00000000
00000001
00000000
00000010
00000000
00001000
00000000
00000100
00000010
00000000
00000220
00000000
00000000
00000330
00000000
,
00000001
00000000
00000010
00000000
00000001
00000000
00000100
00000000
00000010
00000000
00001000
00000001
00000000
00000000
00000001
00000000
,
00000100
00000000
00000100
00000000
00001000
00000000
00010000
00002000
00000000
00000000
00010000
00000000
00013000
00000000
00000000
00000000
,
00010000
00000000
01000000
00000000
00010000
00000000
01000000
00000000
10000000
00000000
00000000
00010000
00000000
00000000
01000000
00000000
,
00200000
00000000
00000000
00000000
00000000
00000000
00000000
00000000
00300000
00000000
00000000
00000000
10000000
00010000
10000000
00000000
,
01000000
00100000
00001000
00011000
00000000
00001000
00010000
00010010
,
00000000
00000100
00000010
00000100
00000010
00001000
00000001
00001000
,
00000001
00000010
00000100
00000010
00000100
00000000
00001001
00000000
,
00000100
00000000
00000000
00000000
00010000
00000000
00000000
00011000
00000000
00000000
00000000
00000000
00001000
00010000
00001000
00010000
,
00001000
00000000
00000000
00000000
01000000
00000000
00000000
02200000
00000000
00000000
00000000
00000000
03300000
00000000
01000000
00000000
,
00010000
00100000
00001000
00010000
01000000
00100000
00001000
00010000
,
01000000
00000000
00000000
00000000
10000000
00000000
00000000
20020000
00000000
00000000
00000000
00000000
30030000
00000000
00000000
00000000
,
01000000
00000000
00000000
00000000
00001000
00000000
00000000
00011000
00000000
00000000
00000000
00000000
00010000
00001000
00010000
00001000
,
00010000
00000000
00000000
00000000
00000100
00000000
00000000
00000220
00000000
00000000
00000000
00000000
00000330
00000000
00000100
00000000
,
00001000
00000010
00010000
00001000
00000100
00000010
00010000
00001000
,
00000100
00000000
00000000
00000000
00000001
00000000
00000000
00002002
00000000
00000000
00000000
00000000
00003003
00000000
00000000
00000000
,
00000011
00000000
00000000
00000000
00000000
00000000
00000000
00000000
00000101
00000000
00000000
00001100
00000000
00000000
00000000
00000000
,
00010010
00000000
00000000
00000000
00000000
00000000
00000000
00000000
00011000
00000000
00000000
00110000
00000000
00000000
00000000
00000000
,
01100000
00000000
00000000
00000000
00000000
00000000
00000000
00000000
01010000
00000000
00000000
11000000
00000000
00000000
00000000
00000000
,
00100000
10000000
00100000
10000000
01000000
00100000
00010000
00100000
,
00002000
00000000
00000000
00000000
00000000
00010000
00013000
00000000
,
00000000
00000000
00000100
00000000
00000000
00000100
00000000
00000100
00000000
00000000
00000010
00000000
00000001
00000000
00000100
00000000
,
00000000
00000000
00001000
00000000
00000000
00001000
00000000
00001000
00000000
00000000
00010000
00000000
01000000
00000000
10000000
00000000
,
00000000
00000000
00010000
00000000
00000000
00010000
00000000
00010000
00000000
00000000
01000000
00000000
00100000
00000000
00000000
00000000
,
10000000
01000000
00100000
00010000
00001000
00000100
00000010
00000000
,
00001001
00000000
00000000
00000000
,
00000000
00000000
00000000
00000000
;
#NOTES:
     dance-double:
     :
     Challenge:
     14:
     :
00000000
00000000
00000000
00000000
,
00000000
00000000
00000000
00000000
,
00000000
00000000
00000000
00000000
,
00000000
00000000
00000000
00000000
,
00000000
00000000
00000000
00000000
,
00000000
00000000
00000110
00000000
00000000
00001001
00000000
00001001
00000000
00000010
00000001
00001000
00000010
00000100
00001000
00010000
,
00000000
00000000
00101000
00000000
00000000
00110000
00000000
00110000
00000000
00010000
01000000
00100000
10000000
00100000
01000000
00010000
,
00000000
00000000
11000000
00000000
00000000
10010000
00000000
10010000
00000000
10000000
01000000
00100000
00001000
00100000
00010000
01000000
,
00000000
00100000
01000000
00010000
00000000
00100000
00001000
00010000
00000000
00000100
00001000
00000010
00000000
00000100
00000001
00001000
,
00000000
00000000
00001010
00000000
00000000
00000110
00000000
00001001
00000000
00001000
00000100
00000001
00000100
00001000
00000100
00001000
,
00000000
00000000
00001010
00000000
00000000
00010010
00000000
00011000
00000000
00010000
01000000
10000000
01000000
10000000
00010000
01000000
,
00000000
00000000
10100000
00000000
00000000
01100000
00000000
10010000
00000000
00100000
10000000
01000000
00100000
00010000
01000000
00001000
,
00010000
00000000
00001000
00000100
00000010
00000000
00001000
00000100
00000020
00000000
00000031
00000000
00000020
00000000
00000130
00000000
,
00001001
00000000
00000000
00000000
00000000
00000000
00000000
00000000
00000101
00000000
00000000
00001010
00000000
00000000
00011000
00000000
,
00000000
00000000
00000000
00000000
00000000
00000000
00010000
00000000
01010000
00000000
00000000
10100000
00000000
00000000
10010000
00000000
,
00100000
00000000
00100000
10000000
01000000
00000000
01000000
00100000
00010000
00000000
00010000
00100000
00001000
00000000
00001000
00010000
,
00100000
00000000
10000000
00010000
01000000
00000000
00001000
00000000
00010000
00001000
00000000
00022000
00000000
00000000
00033000
00000000
,
00001010
00000000
00000100
00000010
00001000
00000000
00000100
00000000
00000011
00000000
00000000
00000101
00000000
00000000
00001001
00000000
,
00000010
00000100
00000010
00000000
00001001
00000000
00000001
00000000
00001001
00000000
00000000
00001100
00000000
00000000
00010100
00000000
,
00000100
00000000
00000100
00010000
00001000
00000000
00001000
01000000
00010000
00000000
00010000
00100000
01000000
00000000
01000000
10000000
,
00100000
00000000
01000000
10000000
01000000
00000000
00010000
00000000
00100000
01000000
00000000
02200000
00000000
03300000
00000000
00010000
,
20000000
00000000
32000000
00000000
03020000
00000000
00032000
00000000
00003020
00000000
00000031
00001000
00000000
00000000
00001000
00000000
,
00000002
00000000
00000203
00000000
00001300
00000000
00002000
00020000
00000000
00000000
00000000
00000000
00033000
00000000
00000000
00000000
,
00100000
00000000
10000000
01000000
00100000
00000000
00010000
01000000
00200000
00000000
00000000
00320000
00000000
00000000
00031000
00000000
,
00022000
00000000
00000000
00000000
00000000
00000000
00000000
00000000
00033000
00000000
00000000
00000000
00000010
00001000
00000100
00000000
,
00000010
00000001
00000100
00000001
00000010
00000000
00001100
00000000
00001000
00000100
00010000
00000000
00011000
00000000
00011000
00000000
,
00000000
00000000
00000000
00000000
00000000
00000000
01000000
00000000
00010000
00000000
01000000
00000000
00010000
00000000
00000000
00000000
00000000
00000000
00100000
00000000
01000000
00000000
00100000
00000000
01000000
00000000
00000000
00000000
00000000
00000000
10000000
00000000
00010000
00000000
10000000
00000000
00010000
00000000
00000000
00000000
00000000
00000000
00100000
00000000
00000000
01000000
00000000
00000000
,
00010000
00000000
00001000
00000010
00000100
00000000
00001000
00000000
00001001
00000000
00000000
00000000
00000110
00000000
00000000
00000000
,
00000001
00000000
00000000
00000000
00001000
00000000
00000000
00000110
00000000
00000000
00000000
00000000
00001000
00010000
00100000
00010000
,
00001000
00000000
00000000
00000000
00010000
00000000
00000000
02200000
00000000
00000000
00000000
00000000
03300000
00000000
10000000
01000000
,
00010000
00000000
00010000
00001000
00000010
00000000
00000010
00000001
00000100
00000000
00001000
00010000
00000000
00100000
01000000
00000000
,
10100000
00000000
00000000
00000000
01010000
00000000
00000000
20010000
00000000
00000000
01000000
00000000
31000000
00000000
00000000
00000000
,
10000000
00000000
00000000
00000000
00010000
00000000
00000000
01100000
00000000
00000000
00000000
00000000
00010000
00001000
00000010
00001000
,
00010000
00000000
00000000
00000000
00001000
00000000
00000000
00000220
00000000
00000000
00000000
00000000
00000330
00000000
00000001
00000100
,
00001000
00000000
00001000
00010000
00100000
00000000
00100000
10000000
01000000
00010000
00000000
00001000
00000000
00000010
00000001
00000000
,
00000011
00000000
00000000
00000000
00001100
00000000
00000000
00002002
00000000
00000000
00000000
00000000
00003003
00000000
00000000
00000000
,
00001001
00000000
00000100
00000001
00000010
00000000
00000100
00001000
00000010
00010000
00000000
00010010
00000000
00000000
00001000
00000000
,
00011000
00000000
02000000
00000000
03020000
00000000
00230000
00000000
01300000
00010000
01000000
20000000
00000000
00000000
30100000
00000000
,
01100000
00000000
10000000
00010000
01000000
00000000
00010000
00100000
00001000
00010000
00000000
00011000
00000000
00000000
00010100
00000000
,
00001100
00000000
00000010
00000001
00000100
00000010
00000100
00000001
00001000
00000100
00010000
00001000
00100000
00010000
00000000
00010000
,
02000000
00000000
00000000
00000000
00000000
00100000
03100000
00000000
,
00010000
10000000
00100000
00000000
10000000
01000000
00000000
11000000
00000000
01000000
00100000
00001000
00010000
00000100
00001000
00000000
,
00000010
00000100
00000001
00000000
00000010
00000100
00000000
00001100
00000000
00000001
00000100
00000010
00010000
00001000
00010000
00000000
,
00001000
00010000
01000000
00000000
10000000
00010000
00000000
10010000
00000000
00100000
01000000
00010000
01000000
00001000
00010000
00000000
,
00001000
00000000
00000010
00000001
00000100
00000000
00000001
00000010
00001000
00000000
00010000
00000000
01000000
00000000
10000000
00000000
,
10010000
00000000
00000000
00000000
,
00000000
00000000
00000000
00000000
;
