
//----- song ID: schw -----//
#TITLE:SCHWARZSCHILD FIELD;
#ARTIST:L.E.D.;
#BANNER:SCHWARZSCHILD FIELD.png;
#BACKGROUND:SCHWARZSCHILD FIELD-bg.png;
#CDTITLE:./CDTitles/RB groovin'!!.png;
#MUSIC:SCHWARZSCHILD FIELD.ogg;
#SAMPLESTART:23.968;
#SAMPLELENGTH:15;
#BPMS:0=150;
#STOPS:20=1,20.5=0.2,21=0.4,21.5=0.2,22=0.1,22.25=0.1,22.5=0.1,22.75=1.5,27=1.2,36=0.2,36.25=0.2,36.5=0.2,36.75=0.2,74=0.2,74.25=0.2,74.5=0.2,74.75=0.2,84=0.2,84.25=0.2,84.5=0.2,84.75=0.2,90=0.2,90.25=0.2,90.5=0.2,90.75=0.2;
#NOTES:
     dance-single:
     :
     Beginner:
     5:
     :
0000
0000
0000
0000
,
0000
0000
0000
0000
,
0000
0000
0000
0000
,
0000
0000
0000
0000
,
0000
0000
0000
0000
,
0001
0000
0000
0000
1000
0000
0000
0000
0000
0000
0000
0010
0000
0000
0000
0000
,
0000
0000
0000
1001
,
1000
0000
0000
0000
,
0100
0000
0000
0000
,
0020
0000
0030
0000
,
0000
0000
0010
0000
,
0000
0000
0001
0000
,
0100
0000
0001
0001
,
0010
0000
0100
0000
,
0001
0000
0100
0100
,
1000
0000
0010
0000
,
1000
0000
0100
0100
,
1000
0000
0010
0000
,
0001
0000
0020
0030
,
0100
0000
0100
0000
,
0001
0010
0001
0000
,
0002
0003
0001
0000
,
0001
0000
2000
3000
,
1000
0000
0000
0000
,
0100
0000
0000
0000
,
0010
0010
0010
0000
,
0001
0001
0001
0000
,
0001
0100
0001
0100
,
0010
1000
0010
0000
,
2002
0000
0000
0000
,
3003
0000
0000
0000
,
1000
0100
1000
0100
,
0010
0001
0010
0000
,
2002
0000
0000
0000
,
3003
0000
0000
0000
,
0001
0000
0100
0000
,
0010
1000
0010
0000
,
2000
0000
0000
0000
,
3000
0000
0000
0000
,
1000
0000
0100
0000
,
0010
0001
0010
0000
,
0002
0000
0000
0000
,
0003
0000
0000
0000
,
1001
0000
0000
0000
,
0000
0000
0000
0000
,
0000
0000
0000
0000
,
0000
0000
0000
0000
,
0110
0000
0000
0000
,
0110
0000
0000
0000
,
1000
0001
1000
0000
,
0001
1000
0001
0000
,
1000
0010
0100
0001
,
0010
0001
0100
0000
,
0001
0000
0001
0000
,
1000
1000
1000
0000
,
0001
0010
0100
1000
,
0010
1000
0100
0000
,
1000
0000
1000
0000
,
0001
0001
0001
0000
,
1001
0000
0000
0000
,
0000
0000
0000
0000
;
#NOTES:
     dance-single:
     :
     Easy:
     10:
     :
0000
0000
0000
0000
,
0000
0000
0000
0000
,
0000
0000
0000
0000
,
0000
0000
0000
0000
,
0000
0000
0000
0000
0000
0000
1000
0001
,
1000
0000
0000
0000
1010
0000
0011
0000
0000
0000
0000
1001
0100
0000
0000
0000
,
0100
0000
0001
1000
0001
0000
1001
0000
,
1000
0000
0100
0000
1000
0100
1000
0000
,
0001
0000
0100
0000
0001
0100
0001
0000
,
2002
0000
3003
0000
0100
1000
0001
0000
,
0100
0001
0010
0000
2002
0000
3003
0000
,
0001
1000
0001
0000
0100
0001
0010
0001
,
1000
0100
1000
0000
0010
0100
0001
0000
,
0010
0100
1000
0000
0001
0100
0001
1000
,
0010
1000
0100
0000
0010
0001
1000
0000
,
1010
0000
0101
0000
1000
0010
0100
0001
,
0100
0010
1000
0000
0010
0100
0001
0000
,
0010
0100
1000
0000
0100
0010
0001
0010
,
0100
1000
0001
0000
0220
0000
0330
0000
,
1000
0010
0001
0010
1000
0001
1000
0000
,
0100
1100
0010
0011
,
0220
0000
0330
0000
0001
0100
1000
0000
,
1000
0100
0001
0000
0020
0000
0030
0000
,
0001
0100
0001
0000
0001
0010
0001
0000
,
1000
0100
1000
0000
1000
0010
1000
0000
,
0100
1000
0010
0100
0001
0010
0100
1000
,
2002
0000
0000
3003
,
1000
0000
0100
0010
0200
0000
0300
0000
,
0001
0000
0100
0010
0200
0000
0300
0000
,
1000
0010
0100
0000
0001
0010
0100
0000
,
1000
0010
1000
0010
0001
0010
1000
0000
,
0001
0000
0100
0010
0200
0000
0300
0000
,
1000
0000
0100
0010
0200
0000
0300
0000
,
0001
0010
0100
0000
1000
0010
0100
0000
,
0001
0010
0001
0010
1000
0010
0001
0000
,
1000
0010
0100
0001
0010
0000
1001
0000
,
0001
0100
0010
1000
0100
0000
1001
0000
,
1000
0010
0100
0000
0001
1000
0100
0000
,
0010
0000
0000
0010
0000
0000
0010
0000
0001
0000
1000
0000
0001
0000
0000
0000
,
0100
0010
1000
0100
0010
0000
0110
0000
,
0100
1000
0001
0010
0100
0000
0110
0000
,
0001
1000
0100
0000
1000
0001
0100
0000
,
0010
0000
0000
0010
0000
0000
0010
0000
1000
0000
0001
0000
1000
0000
0001
0000
,
2000
0000
0000
0000
,
0000
0000
0000
0000
,
0000
0000
0000
0000
,
0000
0000
0000
3000
,
1100
0000
1100
0000
0010
0001
0100
0000
,
0101
0000
0101
0000
0010
1000
0100
0000
,
1000
0010
0100
0001
1000
0100
0010
0001
,
2000
0000
0000
0000
0001
0001
3001
0000
,
0001
0010
0001
0010
0100
1000
0010
0000
,
0100
0001
1000
0000
0100
1000
0001
0000
,
1000
0100
1000
0100
0010
0001
0100
0000
,
0010
0000
0100
0000
0010
0000
0100
0000
0010
0000
0000
0010
0000
0000
0010
0000
,
1000
0010
1000
0010
0100
0001
0010
0000
,
0001
1000
0010
0000
1000
0001
0010
0000
,
0001
0100
0101
0000
1000
0010
1010
0000
,
1000
0010
0001
0010
1000
0100
1000
0000
,
1001
0000
0000
0000
,
0000
0000
0000
0000
;
#NOTES:
     dance-single:
     :
     Medium:
     13:
     :
0000
0000
0000
0000
,
0000
0000
0000
0000
,
0000
0000
0000
0000
,
0000
0000
0000
0000
,
0000
0000
0000
0000
0000
0000
0000
0000
0000
0000
0000
0000
1000
0100
1000
0000
,
0001
0000
0001
0000
0001
0000
0001
0000
1000
0001
1000
0001
0220
0000
0000
0000
,
0000
0000
0000
0330
,
1000
0100
0010
0100
1000
0010
0100
0001
,
0010
0000
0100
0000
0010
0000
0001
0000
1000
0000
0001
1000
0000
0000
0000
0000
,
0010
0010
0010
0010
0010
0000
0000
0000
1000
0000
0100
0000
1000
0100
0000
0010
,
0000
0001
0000
0010
0000
0001
0010
0000
0002
0000
0000
0000
0003
0000
0000
0000
,
0100
0001
1001
0000
0010
1000
0100
0001
,
0100
1000
0010
0100
0001
0100
1000
0100
,
0001
0010
0100
1000
0010
0100
1000
0100
,
0010
1000
0100
0010
0001
0010
0100
0001
,
0100
0000
0010
0000
0001
1000
0001
0000
0100
0000
0010
0000
1000
0000
0010
0000
,
0100
0001
1000
0100
0010
0001
1000
0001
,
0010
0100
1000
0010
0001
0010
1000
0001
,
0100
0000
0100
0000
0010
1000
0010
0000
1000
1000
0001
0001
1001
0000
0000
0000
,
0010
0000
1000
0100
0000
1000
0100
0000
0010
0000
0001
0000
1000
0000
0000
0000
,
0010
0000
0100
0001
0000
0100
0001
0000
0010
0000
0100
0000
1000
0000
0000
0000
,
0100
0100
0100
0100
1000
0001
1000
0000
0100
0010
0000
0100
0010
0000
0001
1000
,
0000
0001
1000
0000
0010
0100
0010
0000
1000
1000
0100
0100
0001
0000
0000
0000
,
0010
0001
0100
0001
0010
0001
0100
0000
,
0010
1000
0100
1000
0010
1000
0100
0000
,
0010
0100
1000
0010
0100
0100
0110
0000
,
0101
0000
0000
0011
0000
0000
1100
0000
0000
1010
0000
0000
1001
0000
0000
0000
,
1000
0010
0100
0001
0020
0000
0030
0110
,
0000
0100
0010
0001
2000
0000
3100
0000
,
1000
0100
0001
0100
1000
0010
0001
0010
,
0000
0010
1000
0010
0100
0001
0100
0010
,
1000
0100
1100
0010
0001
0100
0101
0001
,
1000
0010
1010
0100
0001
0010
0011
0001
,
1000
0010
1000
0010
0001
0010
0001
0010
,
1000
0010
1000
0000
0001
0100
0001
0100
0000
0000
0010
0000
0100
0000
0010
0000
,
1000
0000
0100
0000
0010
0000
0001
0000
0100
0000
0010
0100
0000
0010
0100
0000
,
0010
0000
1000
0000
0001
0000
0010
0000
0001
0000
1000
0001
0000
1000
0001
0000
,
1000
0000
0000
1000
0100
0000
1000
0000
0001
0000
0000
0001
0100
0000
0001
0000
,
0010
0000
0100
0010
0000
0100
0010
0000
0001
0100
0010
0000
1000
0100
0010
0000
,
0001
0000
0100
0001
0000
0010
0001
0000
1000
0000
0100
1000
0000
0010
1000
0000
,
0010
0000
0100
0000
0001
0000
0010
0000
0100
0000
1000
0100
0000
0001
0100
0000
,
1000
0000
0010
0000
0100
0001
0100
0000
0001
0000
1000
0000
0100
0010
0001
0000
,
0000
1000
0001
0000
0100
0010
0100
0000
0001
0010
0001
0000
1000
0000
0100
0000
,
2000
0000
0000
0000
,
0000
0000
0000
0000
,
0000
0000
0000
0000
,
0000
0000
0000
3000
,
1000
0000
0000
1000
0100
0000
0000
0000
1000
0000
0000
1000
0010
0000
0100
0000
,
0001
0000
0000
0001
0100
0000
0000
0000
0001
0000
0000
0001
0010
0000
0000
0000
,
0001
0100
0010
0000
1000
0000
0010
0000
1000
0100
0010
0000
0001
0000
0010
0000
,
2002
0000
0000
0000
3003
0000
0000
0000
1000
0001
1000
0001
1000
0000
0000
0000
,
0001
0000
0100
0010
0000
0100
0010
0000
1000
0000
0100
0000
0001
0000
0000
0000
,
0100
0000
1000
0000
0001
0010
0001
0000
0100
0010
0100
0000
0010
0000
1000
0000
,
0100
0000
1000
0001
0000
1000
0001
0000
1000
0000
0010
0000
0001
0000
0000
0000
,
0010
0000
1000
0000
0001
0100
0010
0000
0100
0000
0001
1000
0000
1000
0001
0000
,
1000
0000
0010
0100
0000
0010
0100
0000
0001
0000
0010
0000
1000
0000
0000
0000
,
0010
0000
0001
0000
1000
0100
1000
0000
0010
0100
0010
0000
0100
0000
0001
0000
,
0010
0000
0001
1000
0000
0001
1000
0000
0001
0000
0100
0000
1000
0000
0000
0000
,
0100
0000
0001
0000
1000
0010
0100
0000
0010
0000
1000
0001
0000
0001
1000
0000
,
1001
0000
0000
0000
,
0000
0000
0000
0000
;
#NOTES:
     dance-single:
     :
     Hard:
     16:
     :
0000
0000
0000
0000
,
0000
0000
0000
0000
,
0000
0000
0000
0000
,
0000
0000
0000
0000
,
0000
0000
0000
0000
0000
0000
0000
0000
0000
0000
0000
0000
0001
1000
0001
1000
,
0001
0000
0101
0000
1010
0000
1001
0000
0100
0010
0100
0110
1000
0100
1000
0000
,
0001
0100
0000
0001
0000
0010
0000
0001
0000
1000
0001
1000
0001
0000
0000
0000
,
1000
0010
1000
0000
0001
0100
0001
0000
1000
0100
1000
0000
0001
0010
0001
0000
,
1000
0100
0010
0000
0100
0010
0001
0000
0100
0010
1000
0010
0000
0000
0000
0000
,
1010
1100
0101
0011
0010
0001
0010
0100
1000
0010
1000
0000
0001
0100
0000
0001
,
0000
0010
0000
0100
0000
1000
0010
0100
0020
0000
0000
0000
0000
0000
0000
0000
,
1030
0100
0010
0001
1000
0100
0010
0001
1000
0100
1000
0100
1000
0010
1000
0010
,
0100
0001
1000
0010
0100
0001
1000
0010
0100
0001
0100
0001
0010
0001
0010
0001
,
0010
0100
1000
0001
1000
0100
0010
0001
0100
0010
0100
0010
1000
0001
1000
0001
,
1000
0010
0100
0001
1000
0001
0100
0010
1000
0010
0000
1000
0010
0000
0100
0001
,
0000
0100
0001
0000
0010
0001
1000
0000
0001
0010
0100
0010
0001
1000
0001
0100
,
0010
1000
0001
0100
0001
1000
0010
0100
0010
1000
0001
1000
0100
0010
0001
1000
,
0100
1000
0001
0010
0001
1000
0010
0100
0001
0010
0001
0010
0100
1000
0100
1000
,
0001
0000
1000
0000
0010
0100
0010
0100
0010
1010
0101
0110
1001
0000
0000
0000
,
1000
0010
1000
0010
0100
0001
0010
0001
1000
0100
1000
0100
0010
0001
0100
0010
,
1000
0100
1000
0100
0010
0001
0100
0001
1000
0000
0010
0000
1000
0100
0010
0001
,
1000
1100
1010
0011
0001
1000
0001
1000
0001
0100
0000
0001
0100
0000
1000
0100
,
0000
1000
0100
0000
0001
1000
0001
0000
0020
0100
0100
0100
0130
0000
0000
0000
,
0100
1000
0010
0100
0000
0000
0110
0000
0100
0001
0010
0100
0000
0000
0110
0000
,
0001
0100
0010
1000
0000
0000
1001
0000
1000
0100
0010
0001
0000
0000
1001
0000
,
1000
0100
0010
0001
0100
0010
1000
0100
0010
0001
0100
0010
1000
0100
0010
0001
,
1000
0100
0000
1000
0100
0000
0001
0100
0000
0001
0100
1000
0001
0010
0100
0000
,
2000
3020
0230
0302
0023
0100
0000
0031
,
0000
0002
0203
2300
3200
0010
0310
0000
,
2000
3020
0230
0302
2003
3200
0320
0032
,
0000
0203
0320
0230
0302
2003
3002
1003
,
0010
1000
0010
0000
0100
0000
0010
0000
0001
0010
0001
0000
0010
0000
0100
0000
,
0001
0010
0001
0000
0010
0000
0100
0000
0010
1000
0010
0000
0100
0000
0010
0000
,
0001
0100
0001
0100
0010
1000
0010
1000
,
0100
1000
0010
0100
0001
0010
0100
1000
0000
0000
1001
0000
1000
0001
1000
0001
,
1000
0000
0010
1000
0100
0000
0010
0001
0100
0000
0001
1000
0000
0001
1000
0000
,
0010
1000
0010
1000
0001
0100
0001
0100
0010
0000
1000
0010
0000
1000
0001
0000
,
1000
0000
0100
0010
0000
0100
0010
0000
0001
0000
0100
0010
0000
0100
0010
0000
,
1000
0100
1000
0001
0100
0001
1000
0100
1000
0010
0100
0001
1000
0010
0100
0001
,
1000
0000
0100
1000
0010
0000
0100
0001
0010
0000
0100
0010
0000
0100
0010
0000
,
0100
1000
0100
1000
0001
0010
0001
0010
0001
0000
1000
0100
0000
1000
0010
0000
,
0100
0000
0001
1000
0000
0001
1000
0000
0100
0000
1000
0001
0000
1000
0001
0000
,
0000
0100
0001
0010
0100
1000
0010
1000
0100
0010
0001
0100
0001
0010
0100
1000
,
0002
0000
0000
0000
,
0000
0000
0000
0000
,
0000
0000
0000
0000
,
0000
0000
0000
0003
,
0001
0000
0000
0001
0100
0000
0010
0000
1000
0000
0000
1000
0100
0000
0010
0000
,
0001
0100
0001
0000
1000
0100
1000
0000
0010
0000
0010
0000
0100
0010
0100
0000
,
0001
0010
0001
0010
0001
0010
0001
0010
0001
0100
0001
0100
0001
0100
0001
0100
,
0010
1000
0010
1000
0010
0100
0010
0100
0010
1000
0010
0100
0010
0000
0000
0000
,
1000
0000
0100
1000
0001
0000
0100
0000
0001
0000
0010
0000
0001
1000
0001
0000
,
0100
0010
1000
0010
0100
0010
1000
0010
0100
0000
0001
0000
0010
0100
1000
0000
,
0010
0000
0100
0010
0000
1000
0001
0000
0010
0000
0100
0000
1000
0000
0001
0000
,
1000
0000
0010
0000
0001
0010
1000
0000
0001
0100
1000
0100
0001
1000
0010
0100
,
0001
0000
0100
0001
1000
0000
0100
0000
1000
0000
0010
0000
1000
0001
1000
0000
,
0100
0010
0001
0010
0100
0010
0001
0010
0100
0000
1000
0000
0010
0100
0001
0000
,
0100
0010
1000
0010
0100
0001
0010
0001
1000
0100
0010
0001
0100
0010
1000
0100
,
0001
0100
1000
0001
0010
0100
1000
0001
0010
1000
0010
0001
1000
0100
0010
0001
,
2000
0000
0000
0000
,
3000
0000
0000
0000
,
0000
0000
0000
0000
;
#NOTES:
     dance-double:
     :
     Easy:
     10:
     :
00000000
00000000
00000000
00000000
,
00000000
00000000
00000000
00000000
,
00000000
00000000
00000000
00000000
,
00000000
00000000
00000000
00000000
,
00000000
00000000
00000000
00000000
00000000
00000000
00001000
00010000
,
00001000
00000000
00000000
00000000
01100000
00000000
00000000
00000000
00000000
00000000
00000000
00000110
00000001
00000000
00000000
00000000
,
00000001
00000000
00001000
00000001
00001000
00000000
00001001
00000000
,
00000010
00000000
00000001
00000000
00001000
00000100
00001000
00000000
,
00000100
00000000
00010000
00000000
00001000
00010000
00001000
00000000
,
00022000
00000000
00033000
00000000
01000000
00010000
01000000
00000000
,
00100000
10000000
00100000
00000000
02200000
00000000
03300000
00000000
,
01000000
00100000
01000000
00000000
00100000
10000000
01000000
00100000
,
00010000
00100000
00001000
00000000
00010000
00000010
00001000
00000000
,
00000010
00000100
00000001
00000000
00001000
00000100
00001000
00000001
,
00000010
00000001
00000100
00000000
00000010
00001000
00000010
00000000
,
00001010
00000000
00000101
00000000
00000100
00000010
00001000
00000010
,
00010000
00000100
00010000
00000000
00001000
00100000
00010000
00000000
,
00100000
00010000
01000000
00000000
00100000
10000000
00100000
10000000
,
01000000
00100000
01000000
00000000
02200000
00000000
03300000
00000000
,
10000000
01000000
00010000
00000000
00001000
00000010
00000001
00000000
,
00000010
00000011
00000100
00001100
,
00000220
00000000
00000330
00000000
00000001
00000100
00001000
00000000
,
00010000
00100000
10000000
00000000
02200000
00000000
03300000
00000000
,
10000000
00000000
10000000
00000000
01000000
00100000
01000000
00000000
,
00010000
00000000
00010000
00000000
00001000
00000010
00000001
00000000
,
00000100
00000010
00001000
00000100
00010000
00001000
00100000
00010000
,
02000000
00000000
00000000
03000000
,
00010000
00000000
10000000
01000000
20000000
00000000
30000000
00000000
,
00010000
00000000
00100000
00001000
00020000
00000000
00030000
00000000
,
00000100
00001000
00000010
00000000
00000100
00000001
00000010
00000000
,
00000001
00000010
00000001
00000010
00001000
00010000
00001000
00000000
,
00100000
00000000
00010000
10000000
00020000
00000000
00030000
00000000
,
10000000
00000000
00100000
01000000
00200000
00000000
00300000
00000000
,
10000000
01000000
10000000
00000000
00010000
00100000
00010000
00000000
,
10000000
01000000
10000000
01000000
00010000
00001000
00010000
00000000
,
00001000
00100000
00010000
00100000
00001000
00000000
00011000
00000000
,
00000010
00001000
00000100
00000010
00000001
00000000
00001001
00000000
,
00000010
00001000
00000001
00000000
00000010
00000100
00001000
00000000
,
00000100
00000000
00000000
00010000
00000000
00000000
00000100
00000000
00010000
00000000
00001000
00000000
00010000
00000000
00000000
00000000
,
00000010
00010000
00001000
00010000
00001000
00000000
00011000
00000000
,
00100000
00010000
01000000
00100000
10000000
00000000
10010000
00000000
,
10000000
01000000
10000000
00000000
00100000
01000000
00010000
00000000
,
01000000
00000000
00000000
00001000
00000000
00000000
00100000
00000000
00001000
00000000
00010000
00000000
00001000
00000000
00000000
00000000
,
00022000
00000000
00000000
00000000
,
00000000
00000000
00000000
00000000
,
00000000
00000000
00000000
00000000
,
00000000
00000000
00000000
00033000
,
00011000
00000000
00011000
00000000
00000100
00001000
00000010
00000000
,
00000101
00000000
00000101
00000000
00000010
00001000
00000100
00000000
,
00001000
00000010
00010000
00001000
01000000
00010000
10000000
00100000
,
20000000
00000000
00000000
00000000
00010000
00010000
30010000
00000000
,
10000000
00100000
10000000
00100000
01000000
00010000
00100000
00000000
,
00001000
00010000
00000010
00000000
00001000
00000100
00010000
00000000
,
00001000
00010000
00001000
00000010
00000001
00000100
00000010
00000000
,
00001000
00000000
00000010
00000000
00000100
00000000
00000001
00000000
00000100
00000000
00000000
00000010
00000000
00000000
00000100
00000000
,
00000010
00001000
00000010
00010000
00001000
00010000
00001000
00000000
,
01000000
00010000
00100000
00000000
01000000
10000000
00100000
00000000
,
10000000
01000000
10000000
01000000
00100000
00010000
00100000
00001000
,
00010000
00000100
00001000
00000100
00000010
00000000
00000001
00000000
,
00001001
00000000
00000000
00000000
,
00000000
00000000
00000000
00000000
;
#NOTES:
     dance-double:
     :
     Medium:
     13:
     :
00000000
00000000
00000000
00000000
,
00000000
00000000
00000000
00000000
,
00000000
00000000
00000000
00000000
,
00000000
00000000
00000000
00000000
,
00000000
00000000
00000000
00000000
00000000
00000000
00000000
00000000
00000000
00000000
00000000
00000000
00001000
00010000
00001000
00000000
,
00010000
00000000
00010000
00000000
00010000
00000000
00010000
00000000
00001000
00010000
00001000
00010000
00022000
00000000
00000000
00000000
,
00000000
00000000
00000000
00033000
,
00010000
00001000
00010000
00001000
01000000
00010000
00100000
01000000
,
10000000
00000000
00100000
00000000
10000000
00000000
00100000
00000000
01000000
00000000
00010000
10000000
00000000
00000000
00000000
00000000
,
01000000
01000000
01000000
01000000
01000000
00000000
00000000
00000000
00100000
00000000
00010000
00000000
00100000
00001000
00000000
00010000
,
00000000
00001000
00000000
00010000
00000000
00000100
00001000
00000000
00000020
00000000
00000000
00000000
00000030
00000000
00000000
00000000
,
00000100
00000001
00001001
00000000
00000010
00001000
00000100
00001000
,
00000001
00000100
00001000
00010000
00100000
01000000
00010000
00100000
,
00001000
00010000
00000100
00010000
00001000
01000000
00010000
00100000
,
01000000
10000000
00100000
01000000
00010000
00100000
00001000
00010000
,
00000010
00000000
00010000
00000000
00001000
00010000
00001000
00000000
00000010
00000000
00000100
00000000
00001000
00000000
00000010
00000000
,
00000100
00000010
00001000
00000001
00000010
00000100
00010000
00001000
,
01000000
00001000
00010000
00000010
00000100
00001000
00010000
00100000
,
01000000
00000000
01000000
00000000
00100000
10000000
00010000
00000000
01000000
01000000
00001000
00001000
00011000
00000000
00000000
00000000
,
00010000
00000000
00000010
00001000
00000000
00000010
00001000
00000000
00000100
00000000
00000010
00000000
00000001
00000000
00000000
00000000
,
00000100
00000000
00000010
00010000
00000000
00000010
00010000
00000000
00001000
00000000
00010000
00000000
00001000
00000000
00000000
00000000
,
01000000
01000000
01000000
01000000
00100000
01000000
00100000
00000000
10000000
01000000
00000000
10000000
01000000
00000000
00100000
00010000
,
00000000
00100000
00010000
00000000
00100000
00000000
00001000
00000000
00010000
00010000
00010000
00010000
00010000
00000000
00000000
00000000
,
00000100
00001000
00000010
00001000
00000100
00000010
00000001
00000000
,
00000100
00000001
00000100
00001000
00010000
00001000
00010000
00000000
,
00001000
00100000
00010000
01000000
00001000
00100000
00010000
01000000
,
00100000
00000000
00000000
10100000
00000000
00000000
01000000
00000000
00000000
01010000
00000000
00000000
10010000
00000000
00000000
00000000
,
10000000
01000000
00100000
00010000
00200000
00000000
01300000
00100000
,
00000000
00100000
00001000
00010000
00000200
00000000
00001300
00000000
,
00000001
00000100
00001000
00000100
00000001
00000010
00001000
00000010
,
00000001
00000100
00000010
00010000
00001000
01000000
00010000
00100000
,
01000000
10000000
11000000
00100000
00001000
00010000
00011000
00001000
,
00010000
00000100
00001100
00000010
00000001
00000100
00000101
00000001
,
00001000
00000100
00010000
00001000
00100000
00010000
01000000
00100000
,
00010000
00001000
00010000
00000000
00001000
00010000
00001000
00010000
00000000
00000000
00001000
00000000
00010000
00000000
00001000
00000000
,
00000010
00000000
00000100
00000000
00000010
00000000
00000001
00000000
00000100
00000000
00000010
00001000
00000000
00000010
00001000
00000000
,
00000100
00010000
00000100
00000000
00010000
00000000
00001000
00000000
00010000
00000000
00001000
01000000
00000000
00001000
01000000
00000000
,
00010000
00000000
00100000
00000000
01000000
00000000
10000000
00000000
00010000
00000000
01000000
00100000
00000000
01000000
00100000
00000000
,
10000000
00000000
00010000
00100000
00000000
00010000
00100000
00000000
00001000
00010000
00000100
00000000
00001000
00000100
00001000
00000000
,
00000010
00000000
00000100
00000001
00000000
00000010
00000001
00000000
00001000
00000000
00000010
00000100
00000000
00000010
00001000
00000000
,
00000100
00000000
00010000
00000000
00001000
00000000
01000000
00000000
00010000
00000000
00100000
01000000
00000000
10000000
01000000
00000000
,
10000000
00000000
00100000
00000000
01000000
00100000
01000000
00000000
00100000
00000000
00010000
00000000
00001000
00010000
00001000
00000000
,
00000000
00010000
00001000
00000000
00000010
00000100
00000010
00000000
00000001
00001000
00000001
00000000
00000100
00000000
00000010
00000000
,
00000200
00000000
00000000
00000000
,
00000000
00000000
00000000
00000000
,
00000000
00000000
00000000
00000000
,
00000000
00000000
00000000
00000300
,
00000001
00000000
00000000
00000001
00000010
00000000
00000000
00000000
00000100
00000000
00000000
00000100
00001000
00000000
00000100
00000000
,
00010000
00000000
00000000
00010000
00001000
00000000
00000000
00000000
01000000
00000000
00000000
01000000
00010000
00000000
00100000
00000000
,
01000000
10000000
01000000
00000000
00100000
00000000
00010000
00000000
00100000
00001000
00100000
00000000
00001000
00000000
00010000
00000000
,
00022000
00000000
00000000
00000000
00033000
00000000
00000000
00000000
00010000
00001000
00010000
00001000
00010000
00000000
00000000
00000000
,
00000100
00000000
00001000
00000010
00000000
00001000
00000010
00000000
00000100
00000000
00000001
00000000
00000100
00000000
00001000
00000000
,
00010000
00000000
00100000
00000000
01000000
00100000
01000000
00000000
00010000
00000000
10000000
00000000
01000000
00000000
00100000
00000000
,
00010000
00000000
10000000
01000000
00000000
10000000
01000000
00000000
00100000
00000000
00010000
00000000
00100000
00000000
00001000
00000000
,
00010000
00000000
00000100
00000000
00001000
00000100
00001000
00000000
00000010
00000000
00000100
00000001
00000000
00000001
00001000
00000000
,
00000001
00000000
00000010
00000001
00000000
00000010
00000001
00000000
00000100
00000000
00000001
00000000
00000010
00000000
00001000
00000000
,
00010000
00000000
01000000
00000000
00100000
00010000
00100000
00000000
00010000
00000000
10000000
00000000
01000000
00000000
00010000
00000000
,
01000000
00000000
00100000
00010000
00000000
00100000
00001000
00000000
00010000
00000000
00000100
00001000
00000000
00000010
00001000
00000000
,
00000100
00000000
00000010
00000000
00000001
00000100
00000010
00000000
00001000
00000000
00000010
00010000
00000000
00010000
00001000
00000000
,
00011000
00000000
00000000
00000000
,
00000000
00000000
00000000
00000000
;
#NOTES:
     dance-double:
     :
     Hard:
     16:
     :
00000000
00000000
00000000
00000000
,
00000000
00000000
00000000
00000000
,
00000000
00000000
00000000
00000000
,
00000000
00000000
00000000
00000000
,
00000000
00000000
00000000
00000000
00000000
00000000
00000000
00000000
00000000
00000000
00000000
00000000
00000001
00001000
00000001
00001000
,
00000001
00000000
00011000
00000000
00011000
00000000
01100000
00000000
01000000
00100000
01000000
01100000
10000000
01000000
10000000
00000000
,
00010000
00100000
00000000
00001000
00000000
00010000
00000000
00001000
00000000
00000010
00000100
00000010
00000100
00000000
00000000
00000000
,
00000001
00000010
00000001
00000000
00000100
00000010
00000100
00000000
00000010
00001000
00000010
00000000
00010000
00000100
00010000
00000000
,
00001000
00010000
00001000
00000000
00100000
00010000
00100000
00000000
00010000
01000000
00010000
01000000
00000000
00000000
00000000
00000000
,
10100000
10100000
01010000
01010000
00011000
00000000
00000000
00000000
00001000
00010000
00000010
00000000
00001000
00000100
00000000
00000010
,
00000000
00000001
00000000
00001000
00000000
00000001
00000100
00000010
00000200
00000000
00000000
00000000
00000000
00000000
00000000
00000000
,
00000301
00000100
00000001
00000100
00000010
00001000
00000010
00001000
00000100
00000010
00000100
00001000
00000100
00010000
00001000
00010000
,
00001000
00100000
00010000
00100000
01000000
10000000
00010000
01000000
00100000
10000000
00100000
01000000
00010000
10000000
00010000
00100000
,
01000000
00100000
00001000
00010000
00001000
00010000
00000010
00001000
00000100
00000010
00000001
00001000
00000001
00000010
00000100
00001000
,
00000010
00000100
00000010
00001000
00000100
00010000
00001000
00010000
00001000
00100000
00000000
00010000
00100000
00000000
00010000
01000000
,
00000000
00100000
01000000
00000000
00100000
10000000
00010000
00000000
10000000
01000000
00100000
01000000
10000000
00010000
01000000
00100000
,
01000000
00010000
00100000
00001000
00010000
00000100
00001000
00000010
00001000
00000100
00000010
00000001
00001000
00000001
00000100
00000010
,
00001000
00000010
00000100
00000001
00000010
00000100
00001000
00000100
00010000
00001000
00100000
00001000
00010000
00001000
01000000
00010000
,
00100000
00000000
01000000
00000000
00100000
01000000
00100000
01000000
00100000
00110000
11000000
01100000
10010000
00000000
00000000
00000000
,
10000000
00010000
10000000
00010000
01000000
00010000
00100000
00010000
01000000
00001000
00010000
00001000
00010000
00000010
00001000
00000100
,
00000010
00000001
00000010
00000001
00000100
00000010
00001000
00000010
00000100
00000000
00000001
00000000
00001000
00000001
00000100
00000010
,
00001000
00001100
00010100
00011000
00001000
00010000
00001000
00010000
00001000
01000000
00000000
00001000
01000000
00000000
00010000
00100000
,
00000000
00010000
00100000
00000000
01000000
10000000
01000000
00000000
00200000
01000000
01000000
01000000
01300000
00000000
00000000
00000000
,
10000000
01000000
00100000
00010000
00000000
00000000
01100000
00000000
00100000
00001000
00010000
00001000
00000000
00000000
00011000
00000000
,
00000010
00001000
00000100
00000010
00000000
00000000
00000110
00000000
00000010
00000001
00001000
00000100
00000000
00000000
00001100
00000000
,
00000010
00001000
00000100
00010000
00001000
00100000
00010000
01000000
00100000
00010000
00001000
00000100
00000010
00001000
00000010
00010000
,
00001000
00100000
00000000
00001000
00100000
00000000
01000000
00100000
00000000
00001000
00010000
00001000
00000100
00000010
00000100
00000000
,
00000002
00000203
00000320
00002030
00023000
00000000
10030000
00000000
,
10000000
00100000
00010000
00100000
20000000
00010000
30010000
00000000
,
20000000
32000000
03200000
00320000
00032000
00003200
00000320
00000032
,
00000000
00000103
00001000
00000100
00000002
00000023
00000230
00000300
,
00001000
00000010
00001000
00000000
00000001
00000000
00000100
00000000
00000010
00001000
00000010
00000000
00010000
00000000
00001000
00000000
,
01000000
00010000
01000000
00000000
00010000
00000000
00100000
00000000
01000000
10000000
01000000
00000000
00100000
00000000
00010000
00000000
,
10000000
01000000
00100000
00001000
00010000
00000100
00000010
00000001
,
00001000
00000010
00001000
00000010
00000100
00000001
00000100
00000001
00000000
00000000
00001001
00000000
00000001
00001000
00000001
00001000
,
00000001
00000000
00000100
00000010
00001000
00000000
00000100
00010000
00001000
00000000
01000000
00010000
00000000
01000000
00010000
00000000
,
00100000
01000000
00100000
01000000
10000000
00010000
10000000
00010000
01000000
00000000
00010000
00100000
00000000
00010000
00100000
00000000
,
00001000
00000000
00010000
00001000
00000000
00010000
00001000
00000000
01000000
00000000
00001000
00010000
00000000
00001000
00010000
00000000
,
00000010
00001000
00000010
00000100
00000001
00001000
00000100
00010000
00001000
00010000
00000100
00001000
00000001
00000010
00000100
00001000
,
00000001
00000000
00000100
00000010
00001000
00000000
00000010
00010000
00001000
00000000
00010000
00001000
00000000
00010000
00001000
00000000
,
01000000
00010000
01000000
00010000
10000000
00100000
10000000
00100000
10000000
00000000
01000000
00100000
00000000
00010000
10000000
00000000
,
00010000
01000000
00001000
00010000
00001000
00010000
00000010
00001000
,
00000000
00000010
00001000
00000100
00000010
00000001
00000100
00000010
00001000
00000100
00010000
00001000
00100000
00010000
01000000
00100000
,
20000000
00000000
00000000
00000000
,
00000000
00000000
00000000
00000000
,
00000000
00000000
00000000
00000000
,
00000000
00000000
00000000
30000000
,
10000000
01000000
00100000
01000000
00100000
00001000
00010000
00000000
,
00001000
00010000
00000100
00001000
00000100
00000010
00000001
00000000
,
00000010
00000001
00000010
00000001
00000010
00000001
00000010
00000001
00001000
00000100
00001000
00000100
00001000
00000100
00001000
00000100
,
00010000
00001000
00010000
00001000
00100000
00001000
00100000
00001000
00100000
00010000
01000000
00010000
00100000
00000000
00000000
00000000
,
00010000
00000000
10000000
00100000
01000000
00000000
00010000
00000000
01000000
00000000
00010000
00000000
00100000
00001000
00100000
00000000
,
00001000
00010000
00001000
01000000
00001000
00010000
00000100
00010000
00001000
00000000
00000010
00000000
00000001
00001000
00000001
00000000
,
00000100
00000000
00000010
00001000
00000000
00000010
00001000
00000000
00000100
00000000
00010000
00000000
00001000
00000000
00010000
00000000
,
00100000
00000000
10000000
00000000
00010000
01000000
10000000
00000000
01000000
00100000
01000000
00100000
10000000
01000000
00100000
00001000
,
00010000
00000000
00000010
00001000
00000100
00000000
00000010
00000000
00000001
00000000
00000100
00000010
00000100
00000000
00000001
00000000
,
00000010
00000100
00001000
00000100
00010000
00001000
00010000
00000010
00010000
00000000
00001000
00000000
01000000
00010000
01000000
00000000
,
00100000
10000000
00010000
01000000
00010000
10000000
00100000
10000000
01000000
00100000
00010000
10000000
01000000
00010000
00001000
00000010
,
00000001
00000010
00000100
00001000
00000010
00000100
00000001
00001000
00000001
00000010
00000100
00001000
00000010
00010000
00000100
00010000
,
00002000
00000000
00000000
00000000
,
00003000
00000000
00000000
00000000
,
00000000
00000000
00000000
00000000
;
