
//----- song ID: siru -----//
#TITLE:シル・ヴ・プレジデント;
#ARTIST:P丸様。;
#TITLETRANSLIT:S'il vous president;
#ARTISTTRANSLIT:Pmarusama;
#BANNER:S'il vous president.png;
#BACKGROUND:S'il vous president-bg.png;
#CDTITLE:./CDTitles/DDR A20 PLUS.png;
#MUSIC:S'il vous president.ogg;
#SAMPLESTART:51.305;
#SAMPLELENGTH:15;
#BPMS:0=176;
#NOTES:
     dance-single:
     :
     Beginner:
     2:
     :
0000
0000
0000
0000
,
0000
0000
0000
0000
,
0000
0000
0000
0000
,
0000
0000
0000
0000
,
0000
0000
0000
0000
,
0001
0000
0000
0000
,
0001
0000
0000
0000
,
0200
0000
0000
0000
,
0300
0000
0000
0000
,
1000
0000
0000
0000
,
1000
0000
0000
0000
,
0200
0000
0000
0000
,
0300
0000
0000
0000
,
0010
0000
0000
0000
,
0010
0000
0000
0000
,
1000
0000
0000
0000
,
1000
0000
0000
0000
,
0100
0000
0000
0000
,
0100
0000
0000
0000
,
0001
0000
0000
0000
,
0001
0000
0000
0000
,
0010
0000
0000
0000
,
0010
0000
0000
0000
,
0001
0000
0000
0000
,
0200
0000
0000
0000
,
0300
0000
0000
0000
,
0010
0000
0000
0000
,
1000
0000
0000
0000
,
0200
0000
0000
0000
,
0300
0000
0000
0000
,
1000
0000
0000
0000
,
0010
0000
0000
0000
,
2000
0000
0000
0000
,
3000
0000
0000
0000
,
0001
0000
0000
0000
,
0100
0000
0000
0000
,
0002
0000
0000
0000
,
0003
0000
0000
0000
,
0100
0000
0000
0000
,
0001
0000
0000
0000
,
0010
0000
0000
0000
,
0010
0000
0000
0000
,
0100
0000
0000
0000
,
1000
0000
0000
0000
,
0020
0000
0000
0000
,
0030
0000
0000
0000
,
2000
0000
0000
0000
,
3000
0000
0000
0000
,
0020
0000
0000
0000
,
0030
0000
0000
0000
,
0200
0000
0000
0000
,
0300
0000
0000
0000
,
0002
0000
0000
0000
,
0003
0000
0000
0000
,
0001
0000
0000
0000
,
1000
0000
0000
0000
,
0010
0000
0000
0000
,
0010
0000
0000
0000
,
0020
0000
0000
0000
,
0030
0000
0000
0000
,
0100
0000
0000
0000
,
0100
0000
0000
0000
,
0200
0000
0000
0000
,
0300
0000
0000
0000
,
0001
0000
0000
0000
,
0010
0000
0000
0000
,
1000
0000
0000
0000
,
0000
0000
0000
0000
;
#NOTES:
     dance-single:
     :
     Easy:
     4:
     :
0000
0000
0000
0000
,
0000
0000
0000
0000
,
0000
0000
0000
0000
,
0000
0000
0000
0000
,
0000
0000
0000
0000
,
0001
0000
0100
0000
,
0010
0000
1000
0000
,
0010
0000
0100
0000
,
0001
0000
0000
0000
,
1000
0000
0100
0000
,
0010
0000
0001
0000
,
0010
0000
0100
0000
,
1000
0000
0000
0000
,
0010
0010
0010
0000
,
1000
0000
0100
0000
,
1000
0000
0100
0000
,
0010
0000
0001
0000
,
0010
0000
0010
0000
,
0001
0000
0100
0000
,
0001
0000
0100
0000
,
0010
0000
1000
0000
,
0010
0000
0010
0000
,
1000
2000
0000
3000
,
0010
0000
0010
0000
,
0100
0000
0100
0000
,
0001
0000
1000
0000
,
0001
0002
0000
0003
,
0010
0000
0010
0000
,
0100
0000
0100
0000
,
1000
0000
0001
0000
,
2000
0000
0000
3000
,
0020
0000
0000
0030
,
0200
0000
0000
0300
,
0002
0000
0000
0003
,
0010
0000
0001
0000
,
0100
0000
0010
0000
,
1000
0000
0100
0000
,
2000
0000
0000
3000
,
1001
0000
1001
0000
,
1001
0000
0000
0000
,
0010
0000
0100
0000
,
0001
1000
0001
0000
,
0110
0000
0110
0000
,
0110
0000
0000
0000
,
1000
0000
0001
0000
,
0100
0100
0100
0000
,
0001
0000
0010
0000
,
1000
0000
0010
0000
,
0001
0000
0100
0000
,
1000
0000
0100
0000
,
0002
0000
0000
0003
,
0020
0000
0000
0030
,
0200
0000
0000
0300
,
1000
1000
1000
0000
,
1001
0000
0000
0000
,
0100
0100
0100
0000
,
0010
0000
0100
0000
,
0001
0000
1000
0000
,
0100
0000
0010
0000
,
0001
0000
0000
0000
,
0010
0000
0100
0000
,
1000
0000
0001
0000
,
0100
0000
0010
0000
,
1000
0000
0000
0000
,
0010
0000
1000
0000
,
0001
0000
0000
0000
0100
0000
0000
1001
,
0000
0000
0000
0000
;
#NOTES:
     dance-single:
     :
     Medium:
     8:
     :
0000
0000
0000
0000
,
0000
0000
0000
0000
,
0000
0000
0000
0000
,
0000
0000
0000
0000
,
0000
0000
0000
0000
,
0001
0100
0001
0100
,
1000
0000
0100
0000
1000
0100
1000
0000
,
0001
0010
0001
0010
,
1000
0010
1000
0000
,
1000
0100
1000
0100
,
0001
0000
0100
0000
0001
0100
0001
0000
,
1000
0010
1000
0010
,
0001
0010
0001
0000
,
0010
0010
0100
0100
,
1000
0000
0000
1000
0001
0000
0000
0000
,
0100
0100
0100
0000
,
0001
0000
0000
0001
1000
0000
0000
0000
,
0100
0100
0100
0000
,
1000
0000
0000
1000
0001
0000
0000
0000
,
0010
0010
0010
0000
,
0001
0000
0000
0001
1000
0000
0000
0000
,
0010
0010
0010
0000
,
1000
0100
1000
0010
,
1000
0100
1000
0000
,
0001
0100
0001
0010
,
0001
0100
0001
0000
,
1000
0010
0100
0001
,
0100
0010
1000
0000
,
0001
0010
0100
1000
,
0100
0010
0001
0000
,
1000
0000
0001
0010
0001
0000
0000
0000
,
1000
0000
0001
0100
0001
0000
0000
0000
,
1000
0010
0001
0000
,
0001
0010
1000
0000
,
0001
1000
0001
1000
0002
0000
0003
0000
,
1000
0001
1000
0001
2000
0000
3000
0000
,
0010
1000
0010
0000
0100
0001
0100
0000
,
0010
0010
0010
0000
,
1000
0100
0010
0001
,
1000
0000
0100
0000
0010
0001
0010
0000
,
0001
0100
0001
0100
,
1000
0100
0001
0000
,
0001
0100
0010
1000
,
0001
0000
0100
0000
0010
1000
0010
0000
,
1000
0100
1000
0100
,
0001
0100
1000
0000
,
0010
0100
0010
0100
,
0001
1000
0001
0000
0002
0000
0003
0000
,
0010
0100
0010
0100
,
1000
0001
1000
0000
2000
0000
3000
0000
,
0001
0001
0010
0000
,
1000
1000
0010
0000
,
0001
0100
1000
0100
,
0001
0001
1000
1000
,
2002
0000
0000
3003
,
0010
0010
0010
0000
,
0010
0001
0010
0001
,
0100
0000
0001
0000
0100
0001
0100
0000
,
0010
0010
1000
0001
,
0100
0100
0100
0000
,
0010
1000
0010
1000
,
0100
0000
1000
0000
0100
1000
0100
0000
,
0010
0010
0001
1000
,
0100
0100
0100
0000
,
1000
0100
0010
0001
,
1000
0000
0100
0000
0010
0000
0000
2002
,
0000
0000
0000
0000
,
3003
0000
0000
0000
,
0000
0000
0000
0000
;
#NOTES:
     dance-single:
     :
     Hard:
     12:
     :
0000
0000
0000
0000
,
0000
0000
0000
0000
,
0000
0000
0000
0000
,
0000
0000
0000
0000
,
0000
0000
0000
0000
,
1000
0100
0010
0001
0000
0001
1000
0000
,
0010
0100
1000
0100
0001
0000
1001
0000
,
0001
0100
0010
1000
0000
1000
0001
0000
,
0010
0100
0001
0100
0010
0100
1000
0000
,
0010
1000
0001
0100
0000
0100
0010
0000
,
0100
0010
0001
0010
1000
0000
1001
0000
,
0010
0001
1000
0100
0000
0100
0010
0000
,
1000
0010
0100
0010
0001
1000
0001
0000
,
0011
1010
1100
0101
,
0001
0000
0000
0001
0010
0000
0000
0000
,
0010
0000
0000
0010
1000
0100
1000
0000
,
0001
0000
0000
0001
0100
0000
0000
0000
,
0100
0000
0000
0100
1000
0010
1000
0000
,
0010
1000
0010
1000
,
0001
0100
0001
0100
,
0001
0010
0001
0010
,
0100
0000
1000
0000
0100
1000
0001
1000
,
0001
0100
0010
0000
1000
0100
0010
0000
,
0001
0010
0001
0100
0001
0010
0001
0000
,
1000
0010
0100
0000
0001
0010
0100
0000
,
1000
0010
1000
0100
1000
0010
1000
0000
,
0001
0100
1000
0000
1000
0100
0001
0000
,
1000
0100
0010
0001
0100
0010
1000
0000
,
0001
0010
1000
0000
1000
0010
0001
0000
,
1000
0010
0100
0001
0010
0100
1000
0000
,
0001
0000
0000
0001
0100
0000
0000
0100
,
0010
0000
0000
0010
1000
0000
0000
0000
,
0000
0001
1000
0001
0100
0010
0100
0010
,
1000
0000
0000
0001
0000
0000
1001
0000
0000
0000
0100
0000
0100
0000
0000
0000
,
1000
0100
1000
0100
0001
0100
0001
0100
,
1000
0010
1000
0010
0001
0010
0001
0010
,
1000
0100
0010
0001
1000
0100
0010
0001
,
1000
0000
1100
0000
1001
0010
0010
0010
,
0001
0100
0010
0100
1000
0100
0010
0100
,
0001
0010
0100
1000
0100
0010
0001
1000
,
0010
0100
1000
0100
0010
1000
0100
0010
,
1000
0010
1000
0010
0001
0010
0001
0000
,
1000
0010
0100
0010
0001
0010
0100
0010
,
1000
0100
0010
0001
0010
0100
1000
0001
,
0100
0010
0001
0010
0100
0001
0010
0100
,
0001
0100
0001
0100
1000
0100
0100
0100
,
1000
0000
1000
0010
0110
0000
1001
0000
,
0010
0001
0100
1000
0002
0000
0023
0000
,
1030
0000
0001
0010
0110
0000
1001
0000
,
0100
0001
0010
1000
0001
0100
1000
0000
,
0010
1000
0020
0000
0230
0000
0301
1000
,
0100
1100
0000
0011
0000
0001
0010
0001
,
0200
1000
0001
1300
,
0001
0100
0010
1000
0001
0000
1000
0000
,
1001
0000
0100
0100
1000
0010
0100
0010
,
0001
0010
1000
0100
0001
0000
0110
0000
,
1000
0100
1000
0010
0000
0010
0100
0001
,
1000
0100
0001
0100
1000
0000
1001
0000
,
0001
0100
0001
0010
0000
0010
0100
1000
,
0010
0001
0010
0001
0010
1000
0001
0000
,
1000
0100
0010
0001
0000
0001
0010
1000
,
0010
0100
0001
0100
1000
0001
1000
0000
,
0001
0100
0010
1000
0000
1000
0010
0001
,
0010
0100
1000
0100
0001
1000
0001
0000
,
0011
0101
1100
1010
,
0011
0000
0101
0100
1000
0000
0010
2020
,
0000
0000
0000
0000
,
3030
0000
0000
0000
,
0000
0000
0000
0000
;
#NOTES:
     dance-single:
     :
     Challenge:
     14:
     :
0000
0000
0000
0000
,
0000
0000
0000
0000
,
0000
0000
0000
0000
,
0000
0000
0000
0000
,
0000
0000
0000
0000
,
1000
0010
0100
0001
0000
0001
0010
0100
,
1000
0000
0010
0100
0010
0000
1000
0000
0001
0000
0001
0000
0001
0000
0000
0000
,
0100
0010
1000
0100
0000
0100
0001
0100
,
1000
0000
0010
0100
0001
0000
0010
0000
1000
0000
0010
0000
0001
0000
0000
0000
,
0001
0100
0010
1000
0000
1000
0100
0010
,
0001
0000
0100
0010
0100
0000
0001
0000
1000
0000
1000
0000
1000
0000
0000
0000
,
0010
0100
0001
0010
0000
0010
1000
0010
,
0001
0000
0100
0010
1000
0000
0100
0000
0001
0000
0100
0000
1000
0000
0000
0000
,
1010
0000
0000
0000
0101
0000
0000
0000
1001
0000
0000
0000
1000
0001
1000
0000
,
0100
0000
0010
0001
0010
0000
0001
0000
0100
0000
0010
0000
1000
0000
0000
0000
,
0001
0000
0100
0010
0100
0000
0001
0000
1000
0000
0100
0000
0001
0000
0100
0000
,
1000
0000
0010
1000
0010
0000
0100
0000
0001
0000
1000
0000
0100
0000
0000
0000
,
0010
0000
0001
0100
0001
0000
1000
0000
0100
0000
1000
0000
0010
0000
0000
0000
,
0100
0000
0001
0100
0010
0000
1000
0000
0001
0000
1000
0100
0010
0000
0001
0000
,
0100
0000
0010
1000
0100
0000
0010
0000
0100
0000
0010
0001
0100
0000
0010
0000
,
1000
0000
0100
0010
0001
0000
1000
0000
0001
0000
0100
0010
1000
0000
0001
0000
,
0100
0000
0001
1000
0010
0000
1000
0000
0100
0000
0010
0000
0010
0000
0010
0000
,
0001
0100
1001
0000
0010
0001
1000
0001
,
1000
1100
0010
0001
0011
1000
0010
1000
,
0100
0001
0100
1000
0001
0100
1000
0100
,
0001
0000
1000
0000
0010
0000
0100
0001
1000
0000
0001
0000
0001
0000
0001
0000
,
1000
0100
1001
0000
0010
1000
0001
1000
,
0001
0101
0010
1000
1010
0001
0010
0001
,
0100
1000
0100
0001
1000
0100
0001
0100
,
1000
0100
0010
0000
0001
0010
0100
0000
1000
0000
0010
0000
0100
0000
0010
0000
,
1000
0000
0000
0000
0000
0000
0001
0100
0001
0000
0000
0000
0000
0000
1000
0010
,
1000
0000
0000
0000
0000
0000
0001
0010
0001
0000
0000
0000
0000
0000
0000
0000
,
0000
0001
0100
0100
0010
0010
1000
1000
,
0001
1000
0000
0001
1000
0000
0001
0000
0000
0000
0100
0000
0100
0000
0000
0000
,
0010
0000
0100
0010
1000
0000
0100
0010
0001
0000
1000
0000
1000
0000
0000
0000
,
0001
0000
0010
0100
1000
0000
0010
0100
0001
0000
0010
0000
0100
0000
1000
0000
,
0001
0010
0001
0000
0100
0001
0100
0000
0010
1000
0010
0000
1000
0100
1000
0000
,
0010
0000
0100
0000
0110
1000
1000
1000
,
0001
0000
0100
0010
1000
0000
0100
1000
0010
0000
0100
0000
0001
0000
0010
0000
,
0000
0010
0001
0100
0010
1000
0001
1001
,
0000
0100
0010
0110
0000
0000
0001
1001
,
0000
0010
0011
0010
1010
0010
0011
0000
,
2000
0000
0000
0000
3001
0000
1000
0100
0002
0000
0000
0000
0103
0000
0001
0100
,
1000
0001
1000
0001
0000
1001
1001
0000
,
0010
0010
0100
0010
0000
0010
0100
0020
,
0000
1030
0001
1000
0001
0100
0100
0100
,
1000
0000
1000
0100
0001
0000
1001
0000
,
1000
0010
0001
0100
2000
0000
3100
0000
,
0001
0000
0001
0010
1000
0000
1001
0000
,
1000
0100
0001
0010
1000
0001
0100
0000
,
1000
0000
0001
0100
0010
0000
1000
0000
0001
0000
0010
0100
1000
0000
0001
0000
,
0100
1010
0000
1001
0000
0100
0010
0001
,
0100
0000
0010
1000
0010
0000
0100
0001
0100
0000
0001
1000
0001
0000
1000
0100
,
1000
0010
0100
0001
0011
0000
1001
0000
,
0101
0000
0010
1000
0100
0001
0100
1000
,
1010
0010
0011
0010
1010
0000
1001
0000
,
1000
0100
0010
0100
0001
0100
0010
0100
,
1000
0000
0010
0100
0010
0000
0001
0000
0010
0000
1000
0000
1000
0000
0000
0000
,
0001
0100
0010
0100
1000
0100
0010
0100
,
0001
0000
0010
0100
0010
0000
1000
0000
0010
0000
0001
0000
1000
0000
0000
0000
,
0010
0100
0001
0010
0100
0001
0100
0010
,
0001
0000
1000
0100
0010
0000
0001
0010
0100
0000
1000
0000
0001
0000
0000
0000
,
0100
0010
1000
0100
0010
1000
0010
0100
,
1000
0000
0001
0010
0100
0000
1000
0100
0010
0000
0001
0000
1000
0000
0000
0000
,
1010
0001
0101
0000
0011
1000
1100
0000
,
0101
0000
1000
0000
1010
0000
0001
0100
0010
0000
0000
1000
0100
0010
0002
0000
,
0000
0000
0000
0000
,
0003
0000
0000
0000
,
0000
0000
0000
0000
;
#NOTES:
     dance-double:
     :
     Easy:
     4:
     :
00000000
00000000
00000000
00000000
,
00000000
00000000
00000000
00000000
,
00000000
00000000
00000000
00000000
,
00000000
00000000
00000000
00000000
,
00000000
00000000
00000000
00000000
,
00000010
00000000
00001000
00000000
,
00000100
00000000
00000100
00000000
,
00010000
00000000
00001000
00000000
,
00001000
00000000
00000000
00000000
,
00100000
00000000
00010000
00000000
,
01000000
00000000
01000000
00000000
,
00001000
00000000
00010000
00000000
,
00001000
00000000
00000000
00000000
,
00010000
00010000
00010000
00000000
,
00001000
00000000
00010000
00000000
,
00000010
00000000
00001000
00000000
,
00000100
00000000
00010000
00000000
,
00001000
00000000
00000000
00000000
,
00010000
00000000
00001000
00000000
,
00100000
00000000
00010000
00000000
,
01000000
00000000
00001000
00000000
,
00010000
00000000
00000000
00000000
,
00001000
00002000
00000000
00003000
,
00010000
00000000
00000100
00000000
,
00000010
00000000
00000001
00000000
,
00000010
00000000
00000100
00000000
,
00010000
00020000
00000000
00030000
,
00001000
00000000
01000000
00000000
,
00100000
00000000
10000000
00000000
,
00100000
00000000
01000000
00000000
,
00002000
00000000
00000000
00003000
,
00020000
00000000
00000000
00030000
,
00000200
00000000
00000000
00000300
,
00002000
00000000
00000000
00003000
,
00000010
00000000
00010000
00000000
,
00001000
00000000
00010000
00000000
,
00001000
00000000
00001000
00000000
,
00022000
00000000
00000000
00033000
,
00010000
00010000
00010000
00000000
,
00001000
00001000
00001000
00000000
,
00100000
00000000
01000000
00000000
,
00010000
00000000
00010000
00000000
,
00011000
00000000
00000000
00000000
,
00011000
00000000
00000000
00000000
,
00000100
00000000
00001000
00000000
,
00000010
00000010
00000010
00000000
,
00001000
00000000
00000100
00000000
,
00010000
00000000
00010000
00000000
,
00001000
00000000
01000000
00000000
,
00010000
00000000
00010000
00000000
,
00200000
00000000
00000000
00300000
,
00002000
00000000
00000000
00003000
,
00020000
00000000
00000000
00030000
,
00000100
00000000
00000100
00000000
,
00000110
00000000
00000000
00000000
,
00001000
00001000
00001000
00000000
,
00000010
00000000
00010000
00000000
,
00001000
00000000
00010000
00000000
,
00001000
00000000
00100000
00000000
,
00010000
00000000
00000000
00000000
,
01000000
00000000
00001000
00000000
,
00010000
00000000
00001000
00000000
,
00010000
00000000
00000100
00000000
,
00001000
00000000
00000000
00000000
,
00000001
00000000
00000010
00000000
,
00000100
00000000
00000000
00000000
00010000
00000000
00000000
00011000
,
00000000
00000000
00000000
00000000
;
#NOTES:
     dance-double:
     :
     Medium:
     8:
     :
00000000
00000000
00000000
00000000
,
00000000
00000000
00000000
00000000
,
00000000
00000000
00000000
00000000
,
00000000
00000000
00000000
00000000
,
00000000
00000000
00000000
00000000
,
00010000
00000010
00000100
00000010
,
00010000
00000000
00001000
00000000
00010000
00001000
00010000
00000000
,
00001000
01000000
00100000
01000000
,
00100000
10000000
01000000
00010000
,
00001000
00100000
01000000
00100000
,
00001000
00000000
00010000
00000000
00001000
00010000
00001000
00000000
,
00010000
00000100
00000010
00000100
,
00000010
00000001
00000100
00001000
,
00000100
00000100
00000010
00000110
,
00001000
00000000
00000000
00001000
00000100
00000000
00000000
00000000
,
00010000
00000000
00000000
00010000
00001000
00000000
00000000
00000000
,
01000000
00000000
00000000
01000000
00010000
00000000
00000000
00000000
,
10000000
10000000
10000000
00000000
,
00010000
00000000
00000000
00010000
01000000
00000000
00000000
00000000
,
00001000
00000000
00000000
00001000
00010000
00000000
00000000
00000000
,
00000100
00000000
00000000
00000100
00001000
00000000
00000000
00000000
,
00000001
00000001
00000001
00000000
,
00000001
00000010
00000001
00000100
,
00000010
00001000
00000100
00010000
,
00001000
01000000
00010000
00100000
,
00001000
01000000
00010000
00000000
,
10000000
00100000
10000000
01000000
,
00100000
00010000
01000000
00001000
,
00010000
00000100
00001000
00000010
,
00010000
00000100
00001000
00000000
,
00000001
00000000
00000000
00000001
00000100
00000000
00000000
00000100
,
00001000
00000000
00000000
00001000
00010000
00000000
00000000
00000000
,
00100000
10000000
00100000
00010000
,
00100000
00100000
00100000
00000000
,
10000000
01000000
10000000
01000000
20000000
00000000
30000000
00000000
,
00010000
00100000
00010000
00100000
00020000
00000000
00030000
00000000
,
01000000
00010000
01000000
00000000
00001000
00010000
00001000
00000000
,
00022000
00000000
00000000
00033000
,
00001000
00000010
00000001
00000010
,
00000100
00000000
00001000
00000000
00000100
00010000
00001000
00000000
,
00100000
00010000
01000000
10000000
,
01000000
00010000
00100000
00000000
,
00001000
00001000
00000100
00000000
,
00010000
00010000
01000000
00000000
,
00001000
00010000
00001000
00000010
,
00000100
00001000
00000001
00000000
,
00000001
00000100
00000001
00000100
,
00001000
00010000
00001000
00000000
00010000
00000000
00000000
00000000
,
00010000
01000000
00010000
01000000
,
00010000
00001000
00010000
00000000
00001000
00000000
00000000
00000000
,
00000010
00001000
00010000
00010000
,
00100000
00010000
00001000
00001000
,
00000100
00001000
00010000
01000000
,
00010000
00010000
00001000
00001000
,
00022000
00000000
00000000
00033000
,
00010000
00001000
00011000
00000000
,
00000010
00000001
00000010
00000100
,
00010000
00000000
00001000
00000000
00010000
00001000
00010000
00000000
,
01000000
10000000
00010000
00100000
,
01000000
10000000
00100000
00010000
,
00100000
01000000
00010000
01000000
,
00001000
00000000
00010000
00000000
00001000
00010000
00001000
00000000
,
00000100
00000001
00000100
00001000
,
00000100
00000001
00000010
00001000
,
00000010
00000010
00000100
00000110
,
00001000
00000000
00000100
00000000
00010000
00000000
00000000
00022000
,
00000000
00000000
00000000
00000000
,
00033000
00000000
00000000
00000000
,
00000000
00000000
00000000
00000000
;
#NOTES:
     dance-double:
     :
     Hard:
     12:
     :
00000000
00000000
00000000
00000000
,
00000000
00000000
00000000
00000000
,
00000000
00000000
00000000
00000000
,
00000000
00000000
00000000
00000000
,
00000000
00000000
00000000
00000000
,
00000001
00000000
00000100
00000010
00000000
00000100
00000010
00000000
,
00000100
00001000
00010000
00100000
10000000
00000000
10010000
00000000
,
10000000
00000000
01000000
00100000
00000000
01000000
00100000
00000000
,
00001000
00010000
00100000
01000000
00010000
00100000
01000000
00000000
,
10000000
00000000
01000000
00100000
00000000
01000000
00100000
00000000
,
01000000
00010000
00001000
00000010
00000001
00000000
00001001
00000000
,
00000001
00000000
00000100
00000010
00000000
00000100
00000010
00000000
,
00010000
00001000
00000010
00000100
00001000
00000010
00000100
00000000
,
00000101
00000001
00000011
00001000
,
00000010
00000000
00000000
00000010
00001000
00000000
00000000
00000000
,
00010000
00000000
00000000
00010000
01000000
00100000
10000000
00000000
,
00010000
00000000
00000000
00100000
00010000
00000000
00000000
00000000
,
00001000
00000000
00000000
00001000
00000100
00001000
00000010
00000000
,
00000100
00000001
00000100
00000001
,
00001000
00000010
00001000
00000010
,
00010000
00001000
00010000
00001000
,
01000000
00000000
00010000
00000000
01000000
00100000
10000000
00010000
,
10000000
00000000
10010000
00000000
10000000
01000000
00010000
00000000
,
01000000
00010000
00001000
00000000
00010000
00100000
00010000
00000000
,
00001000
00010000
00001000
00010000
00000010
00001000
00000010
00001000
,
00000100
00001000
00000100
00000010
00000001
00000000
00001000
00000000
,
00000001
00000000
00001001
00000000
00000001
00000010
00001000
00000000
,
00000010
00001000
00010000
00000000
00001000
00000100
00001000
00000000
,
00010000
00001000
00010000
00001000
01000000
00010000
01000000
00010000
,
00100000
00010000
00100000
01000000
10000000
00000000
00010000
00000000
,
10000000
00000000
00000000
10000000
00010000
00000000
00000000
00000000
,
00001000
00000000
00000000
00001000
00000001
00000000
00000000
00000000
,
00000001
00000010
00001000
00010000
,
01000000
00000000
00000000
01000000
00000000
00000000
01000000
00000000
00000000
00000000
00100000
00000000
00100000
00000000
00000000
00000000
,
00010000
01000000
00100000
00010000
00001000
00000100
00000010
00001000
,
00000100
00000010
00001000
00010000
01000000
00100000
00010000
01000000
,
00100000
00010000
00100000
00010000
00001000
00010000
00001000
00010000
,
00001000
00000000
00011000
00000000
00010000
00000100
00000100
00000100
,
00001000
00000010
00000100
00000010
00000001
00000010
00000100
00000010
,
00001000
00000100
00010000
00001000
00100000
00010000
01000000
00000000
,
00100000
00010000
00100000
10000000
01000000
00010000
01000000
10000000
,
00100000
00100000
00010000
00010000
00001000
00000000
00011000
00000000
,
00010000
00000000
00010000
00000100
00000001
00000000
00000001
00000100
,
00010000
00001000
00000010
00000100
00001000
00000010
00000100
00000000
,
00000010
00000100
00000100
00001000
00010000
00010000
00001000
01000000
,
00010000
00100000
00010000
01000000
00100000
10000000
10000000
00000000
,
10000000
00000000
01000000
00010000
00001000
00000000
00000110
00000000
,
00000001
00000100
00001000
00010000
00200000
00000000
01300000
00000000
,
10000000
00000000
00100000
00010000
00001000
00000000
00000110
00000000
,
00000001
00000010
00001000
00010000
01000000
10000000
01000000
00000000
,
20000000
00000000
30020000
00000000
00230000
00000000
00310000
00001000
,
00000100
00000010
00000000
00000110
00000000
00000001
00001000
00000001
,
00000200
00000001
00000010
00001300
,
00010000
01000000
00100000
10000000
00100000
00000000
00010000
00000000
,
01100000
00000000
10000000
10000000
00010000
00010000
00100000
00000000
,
00110000
00011000
00002200
00003300
,
00000001
00000000
00000010
00001000
00000000
00000010
00000001
00000000
,
00000100
00000010
00001000
00000100
00010000
00000000
00011000
00000000
,
00100000
00000000
00001000
00010000
00000000
00100000
00010000
00000000
,
00001000
00100000
00010000
01000000
00010000
00100000
01000000
00000000
,
10000000
00000000
00100000
00010000
00000000
00100000
10000000
00000000
,
01000000
00100000
00010000
01000000
00001000
00000000
00011000
00000000
,
00000010
00000000
00010000
00001000
00000000
00000010
00001000
00000000
,
00010000
00000010
00001000
00000100
00001000
00000010
00000100
00000000
,
00000101
00001000
00010100
00001000
,
01001000
00000000
00010000
00000000
01100000
00000000
00010000
20020000
,
00000000
00000000
00000000
00000000
,
30030000
00000000
00000000
00000000
,
00000000
00000000
00000000
00000000
;
#NOTES:
     dance-double:
     :
     Challenge:
     14:
     :
00000000
00000000
00000000
00000000
,
00000000
00000000
00000000
00000000
,
00000000
00000000
00000000
00000000
,
00000000
00000000
00000000
00000000
,
00000000
00000000
00000000
00000000
,
00100000
10000000
01000000
10000000
00000000
10000000
00100000
01000000
,
00010000
00100000
00001000
00010000
00000100
00001000
00000010
00000000
,
00000010
00000001
00000100
00000001
00000000
00000001
00000100
00000010
,
00001000
00000100
00010000
00001000
00100000
00010000
01000000
00000000
,
01000000
10000000
00100000
00010000
00000000
00010000
00100000
01000000
,
00010000
00100000
00010000
00001000
00000100
00001000
00000010
00000000
,
00000010
00000001
00000100
00001000
00000000
00001000
00000100
00000010
,
00001000
00000100
00001000
00010000
00100000
00010000
01000000
00000000
,
10100000
00000000
00000000
00000000
11000000
00000000
00000000
00000000
01010000
00000000
00000000
00000000
00001000
00010000
00001000
00000000
,
00010000
00000000
00000100
00001000
00000100
00000000
00000010
00000000
00000001
00000000
00001000
00000000
00000001
00000000
00000000
00000000
,
00000100
00000000
00000010
00001000
00000010
00000000
00001000
00000000
00000100
00000000
00010000
00000000
00001000
00000000
00000000
00000000
,
01000000
00000000
00010000
00100000
00010000
00000000
01000000
00000000
00100000
00000000
10000000
00000000
00010000
00000000
00000000
00000000
,
00100000
00000000
01000000
10000000
01000000
00000000
00100000
00000000
00010000
00000000
00100000
00000000
00001000
00000000
00000000
00000000
,
00010000
00000000
00000100
00001000
00000010
00000000
00000100
00000000
00000001
00000000
00000010
00000000
00001000
00000000
00000010
00000000
,
00000001
00000000
00000010
00000100
00001000
00000000
00000010
00000000
00010000
00000000
00001000
00000000
00100000
00000000
00010000
00000000
,
01000000
00000000
00010000
00100000
01000000
00000000
10000000
00000000
00010000
00000000
01000000
00000000
10000000
00000000
01000000
00000000
,
00010000
00000000
00100000
00001000
00010000
00000000
00000010
00000000
00001000
00000000
00000100
00000000
00000100
00000000
00000100
00000000
,
00000010
00000000
00001001
00000000
00000100
00000001
00000010
00001000
,
00010000
00001000
00000010
00001000
00100000
00010000
01000000
00000000
,
00100000
00010000
00100000
00010000
00001000
00000100
00001000
00000100
,
00000010
00000000
00000100
00000000
00001000
00000000
00010000
00000000
01000000
00000000
10000000
00010000
10000000
00000000
00000000
00000000
,
00100000
00000000
10010000
00000000
01000000
10000000
00100000
00010000
,
00001000
00010000
00100000
00010000
00000010
00001000
00000100
00000000
,
00000010
00001000
00000010
00001000
00010000
01000000
00010000
01000000
,
00100000
00000000
01000000
00000000
00010000
00000000
00001000
00000000
00000100
00000000
00000001
00001000
00000001
00000000
00000000
00000000
,
00001001
00000000
00000000
00000000
00000000
00000000
00000010
00000100
00000010
00000000
00000000
00000000
00000000
00000000
00000000
00000000
,
00011000
00000000
00000000
00000000
00000000
00000000
01000000
00100000
01000000
00000000
00000000
00000000
00000000
00000000
00000000
00000000
,
00000000
00010000
00100000
00100000
10000000
00100000
00100000
00010000
,
01000000
00001000
00000000
01000000
00001000
00000000
00020000
00000000
00000000
00000000
00001000
00000000
00031000
00000000
00000000
00000000
,
00010000
00000000
00000010
00001000
00000010
00000000
00000100
00000001
00000100
00000000
00000001
00000000
00000001
00000000
00000000
00000000
,
00000100
00000000
00001000
00010000
00001000
00000000
01000000
00010000
01000000
00000000
00010000
00000000
00100000
00000000
00000000
00000000
,
01000000
10000000
00010000
00000000
00100000
00000000
00001000
00000000
00010000
00000010
00001000
00000000
00000100
00000000
00000010
00000000
,
00000001
00000000
00001001
00000000
00000110
00000001
00000001
00000001
,
00000100
00001000
00010000
00000010
00000100
00001000
00010000
00100000
,
01000000
00010000
00100000
01000000
00010000
01000000
00100000
00001000
,
00010000
01000000
10000000
01000000
00100000
00001000
00010000
00001000
,
00000010
00000100
00010000
00001000
00000010
00000100
00010000
00001000
,
00000010
00000000
00000010
00000001
00000101
00000000
00000100
00001000
,
00011000
00010000
00100000
10000000
00000000
10000000
10010000
00000000
,
00100000
00010000
00010000
00001000
00010000
00010000
01000000
00020000
,
00000000
00130000
00001000
00010000
00001000
00010000
00010000
00010000
,
00001000
00000000
00001000
00000010
00000001
00000000
00000110
00000000
,
00000001
00000100
00001000
00000000
00020000
00000000
00031000
00000000
,
00010000
00000000
00010000
00100000
10000000
00000000
01100000
00000000
,
10000000
01000000
00010000
00001000
00020000
00001000
00031000
00000000
,
00000100
00000000
00001000
00000010
00001000
00000000
00000001
00000000
00000010
00000000
00000100
00001000
00000100
00000000
00010000
00000000
,
00001000
01000000
00010000
00110000
00000000
01000000
10000000
01000000
,
00100000
00010000
00100000
00000000
00001000
00010000
00001000
00000000
00010000
00000100
00010000
00000000
00000100
00001000
00000100
00000000
,
00000010
00000001
00000100
00001000
00000100
00000000
00000010
00000000
,
00000110
00000000
00000001
00000100
00001000
00001000
00010000
00010000
,
00100000
10000000
00100000
00010000
00100000
00000000
01100000
00000000
,
10000000
00100000
10000000
01000000
00000000
01000000
00100000
00001000
,
00010000
00000000
00001000
00010000
00001000
00000000
00010000
00000000
00000100
00000000
00001000
00000000
00000010
00000000
00000000
00000000
,
00000100
00000001
00000100
00001000
00000000
00001000
00000100
00000010
,
00001000
00000000
00000100
00010000
00001000
00000000
01000000
00000000
00010000
00000000
00100000
00000000
01000000
00000000
00000000
00000000
,
10000000
00100000
00010000
00100000
00000000
00100000
01000000
00010000
,
00100000
00000000
00001000
00010000
00001000
00000000
00000010
00000000
00000100
00000000
00000001
00000000
00000100
00000000
00000000
00000000
,
00001000
00000001
00000100
00000010
00000000
00000010
00000001
00000010
,
00001000
00000000
00000010
00010000
00001000
00000000
00010000
00000000
00100000
00000000
01000000
00000000
00010000
00000000
00000000
00000000
,
10100000
00100000
01100000
00000000
00110000
00100000
01100000
00000000
,
01010000
00000000
00010000
00000000
00001000
00000000
00000010
00000001
00001000
00000000
00000000
00000001
00000100
00000010
00002000
00000000
,
00000000
00000000
00000000
00000000
,
00003000
00000000
00000000
00000000
,
00000000
00000000
00000000
00000000
;
