
//----- song ID: runs -----//
#TITLE:Run The Show;
#ARTIST:fazerock;
#BANNER:Run The Show.png;
#BACKGROUND:Run The Show-bg.png;
#CDTITLE:./CDTitles/DDR A20 PLUS.png;
#MUSIC:Run The Show.ogg;
#SAMPLESTART:38.328;
#SAMPLELENGTH:15;
#BPMS:0=150;
#BGSTAGE:15;
#NOTES:
     dance-single:
     :
     Beginner:
     4:
     :
0000
0000
0000
0000
,
0000
0000
0000
0000
,
0000
0000
0000
0000
,
0000
0000
0000
0000
,
0000
0000
0000
0000
,
0000
0000
0000
0000
,
1001
0000
0000
0000
,
0010
0000
0100
0000
,
1001
0000
0000
0000
,
0100
0000
0010
0000
,
1000
0000
0100
0000
,
0010
0000
0010
0000
,
0001
0000
0100
0000
,
0010
0000
0010
0000
,
1000
0000
0100
0000
,
0010
0000
0001
0000
,
0001
0000
0100
0000
,
0010
0000
1000
0000
,
1000
1000
1000
0000
,
0010
0000
0100
0000
,
0001
0001
0001
0000
,
0010
0000
0100
0000
,
1000
1000
0100
0000
,
0010
0010
0001
0000
,
2002
0000
0000
0000
,
3003
0000
0000
0000
,
1001
0000
0000
0000
,
0010
0010
0010
0000
,
0001
0000
0100
0000
,
0001
0100
0001
0000
,
0010
0000
1000
0000
,
1001
0000
0000
0000
,
1000
0000
0100
0000
,
1000
0100
1000
0000
,
0010
0000
0001
0000
,
1001
0000
0000
0000
,
0001
0000
0100
0000
,
1000
1000
1000
0000
,
1000
0000
0100
0000
,
0001
0001
0001
0000
,
1000
0000
0010
0000
,
0001
0001
0001
0000
,
0001
0000
0010
0000
,
1000
1000
1000
0000
,
1000
0010
0100
0000
,
0001
0000
0001
0000
,
0100
0100
0100
0000
,
0010
0000
0100
0000
,
0001
0010
0100
0000
,
1000
0000
1000
0000
,
0100
0100
0100
0000
,
1001
0000
0000
0000
,
0010
0010
0010
0000
,
0100
0100
0100
0000
,
0001
0001
0001
0000
,
1000
1000
1000
0000
,
0100
0010
0100
0000
,
0010
0100
0010
0000
,
0001
1000
0001
0000
,
1000
0001
1000
0000
,
1001
0000
0000
0000
,
0000
0000
0000
0000
;
#NOTES:
     dance-single:
     :
     Easy:
     7:
     :
0000
0000
0000
0000
,
0000
0000
0000
0000
,
0000
0000
0000
0000
,
0000
0000
0000
0000
,
0000
0000
0000
0000
,
0000
0000
0000
0000
,
1001
0000
0010
0010
,
1000
0001
1000
0000
0001
0000
0000
0000
,
1001
0000
0010
0010
,
0001
1000
0001
0000
1000
0000
0000
0000
,
0010
0010
1000
0000
,
1000
1000
0100
0000
,
0010
0010
0001
0000
,
0001
0001
0100
0000
,
0100
0100
1000
0000
,
1000
1000
0010
0000
,
0100
0100
0001
0000
,
0001
0001
0010
0000
,
0001
0100
0001
0100
,
0010
1000
0010
0010
,
1000
0100
1000
0100
,
0010
0001
0010
0010
,
0001
1000
0001
0000
0100
0000
0010
0000
,
1000
0001
1000
0000
0100
0000
0010
0000
,
2002
0000
0000
0000
,
3003
0000
0000
0000
,
0010
0100
0010
0100
,
0001
1000
0001
1000
,
0010
0000
0010
0000
1000
0100
1000
0000
,
0001
0100
0010
1000
,
0100
0000
0100
0000
0010
0001
0010
0000
,
0001
1000
1001
0000
,
0100
0000
0100
0000
0001
0010
0001
0000
,
1000
0010
0100
0001
,
0010
0000
0010
0000
0100
1000
0100
0000
,
1000
0001
1001
0000
,
0010
0000
0010
0000
1000
0100
1000
0000
,
0010
0100
0001
0010
,
0100
0000
0100
0000
0001
0100
0001
0000
,
0010
0100
1000
0010
,
1000
0100
0001
0100
,
1000
0010
0001
0010
,
1000
0001
0100
0010
,
2002
0000
3003
0000
,
1000
0001
1000
0001
,
0100
0001
0100
0100
,
0001
1000
0001
1000
,
0100
1000
0100
0100
,
1000
0010
0100
0001
,
1000
0100
0010
0001
,
1000
1000
0001
0001
,
2002
0000
0000
3003
,
0010
1000
0001
0100
,
0010
0010
0010
0000
,
1000
1000
0101
0000
,
0001
0001
1100
0000
,
0010
0001
1000
0100
,
0010
0010
0010
0000
,
0001
0001
1010
0000
,
1000
1000
0011
0000
,
1001
0000
0000
0000
,
0000
0000
0000
0000
;
#NOTES:
     dance-single:
     :
     Medium:
     11:
     :
0000
0000
0000
0000
,
0000
0000
0000
0000
,
0000
0000
0000
0000
,
0000
0000
0000
0000
,
0000
0000
0000
0000
,
0000
0000
0000
0000
,
1001
0000
0000
0000
0001
1000
0001
0000
,
1000
0100
0001
0100
1000
0001
0001
0000
,
1001
0000
0000
0000
0010
0100
0010
0000
,
1000
0001
0000
0000
0200
0000
0000
0000
,
0310
0000
1000
0000
0001
0010
1000
0000
,
0010
0000
0001
0000
1000
0100
0010
0000
,
0001
0000
1000
0000
0001
0100
1000
0000
,
0100
0001
0000
0000
2000
0000
3000
0000
,
0100
0000
0001
0000
1000
0010
0001
0000
,
0010
0000
1000
0000
0001
0010
0100
0000
,
1000
0000
0001
0000
1000
0100
0001
0000
,
0100
1000
0000
0000
0002
0000
0003
0000
,
1000
0100
1000
0000
0010
0100
0010
0000
,
0001
0010
0001
0000
0100
0010
0100
0000
,
0001
0100
0001
0100
0010
0100
0010
0000
,
1000
0100
1000
0100
0010
0100
0010
0000
,
0001
0010
0001
1000
0010
1000
0001
0100
,
0001
0000
1000
0000
0100
0000
1000
0000
0001
1000
0001
1000
0001
0000
0000
0000
,
2002
0003
0200
3300
,
2002
3000
0200
0303
,
1001
0010
0010
0010
,
1000
0001
2002
3003
,
0010
0100
0001
0100
0010
1000
0100
0010
,
0001
1000
0001
0010
0200
0000
1300
0000
,
0001
1000
0010
1000
0100
0010
0100
1000
,
0001
0100
0010
1000
0002
0000
0103
0000
,
0010
0100
1000
0001
0100
0010
0100
1000
,
0100
0001
1000
0100
0020
0000
0031
0000
,
0100
0010
1000
0010
0100
0001
0010
1000
,
0010
0000
0000
0010
0000
0000
0010
0000
0200
0000
0000
0000
0300
0000
0000
0000
,
1001
0000
0100
0000
0010
1000
0100
0000
,
1001
0000
0100
0000
0010
0001
0100
0000
,
0010
0100
1000
0000
0001
0010
0100
0000
,
0001
0010
0100
0000
1000
0100
0010
0000
,
1001
0000
1000
0010
1000
0010
0001
0010
,
0001
0010
1000
0010
1000
0000
1010
0000
,
1001
0200
0320
0230
,
0310
0000
0000
0010
0000
0000
0010
0000
1000
0000
0001
0000
1000
0000
0000
0000
,
0001
0010
0001
0010
1000
0010
1000
0010
,
0001
1000
0100
0010
0100
1000
0010
0100
,
1000
0100
1000
0100
0001
0100
0001
0100
,
0010
1000
0100
1000
0010
0100
0001
0000
,
1000
0100
0010
0001
1000
0100
0010
0001
,
0100
0010
1000
0001
0100
0010
1000
0001
,
1000
0000
1000
0001
0000
0001
1000
0000
1000
0001
0000
0000
,
0220
0000
0000
0330
,
1001
0000
0000
0010
0000
0001
0010
0000
0001
0010
0000
0000
,
1001
0000
0000
0010
0000
1000
0010
0000
1000
0010
0000
0000
,
1001
0000
0000
0100
0000
1000
0100
0000
1000
0100
0000
0000
,
1001
0000
0000
0100
0000
0001
0100
0000
0001
0100
0000
0000
,
0001
0000
0010
0100
0000
0000
1000
0000
0010
0100
0000
0000
,
0001
0000
1000
0001
0000
1000
0002
0000
0000
0013
0000
0000
,
0110
0000
0000
1000
0000
0000
1000
0000
0000
0010
0000
0010
,
1000
0000
1000
0100
0000
0100
0010
0000
0000
0001
0000
0000
,
1001
0000
0000
0000
,
0000
0000
0000
0000
;
#NOTES:
     dance-single:
     :
     Hard:
     15:
     :
0000
0000
0000
0000
,
0000
0000
0000
0000
,
0000
0000
0000
0000
,
0000
0000
0000
0000
,
0000
0000
0000
0000
,
0000
0000
0000
0000
,
1001
0000
0000
0000
0010
0100
0010
0000
,
1000
0100
1000
0100
0010
0000
0001
0000
0100
0000
0001
0000
1000
0000
0000
0000
,
1001
0000
0000
0000
1000
0001
1000
0000
,
1001
1001
0000
0000
0020
0000
0000
0000
,
0130
0000
0001
0010
0100
0000
0000
0000
0100
0000
1000
0010
0100
0000
0000
0000
,
0001
0000
0100
0010
1000
0000
0001
0000
1000
0000
0100
0010
0001
0000
0000
0000
,
1001
0000
0000
0000
0000
0000
0000
0000
0001
1000
0010
1000
0100
0000
0000
0000
,
0110
0000
0110
0000
0000
0000
0000
0000
1000
0100
0001
0100
1000
0000
0000
0000
,
0110
0000
0000
0000
0000
0000
0000
0000
0001
0000
1000
0010
0100
0000
0000
0000
,
0001
0000
0010
0100
1000
0000
0010
0000
0001
0000
0010
1000
0100
0000
0000
0000
,
1001
0000
0000
0000
0000
0000
0000
0000
0010
0001
0100
1000
0100
0000
0000
0000
,
0110
0000
0110
0000
0000
0000
0000
0000
0001
0000
1000
0100
0010
0000
0000
0000
,
0001
0100
0001
0100
0001
0000
0100
0000
0001
0000
0010
0000
0100
0000
1000
0000
,
0010
1000
0010
1000
0010
0000
1000
0000
0100
0000
0010
0000
0001
0000
0100
0000
,
0010
0100
0010
0100
0010
0000
1000
0000
0100
0000
0010
0000
0001
0000
1000
0000
,
0010
0000
0100
0010
1000
0000
0001
0010
0100
0000
1000
0000
1001
0000
0000
0000
,
0001
1000
0100
0000
1000
0001
0100
0000
0001
1000
0010
0000
1000
0001
0010
0000
,
0100
1000
0100
1000
0010
1000
0010
0000
0100
0001
0100
0001
0010
0001
0010
0000
,
0012
0000
0000
0000
0010
0000
0000
0000
0100
0000
0000
0100
0000
0000
0103
0010
,
0000
0000
0000
0010
0000
0000
0010
1000
0001
0000
1000
0000
0100
0000
0100
0000
,
0110
0001
0001
0001
,
1000
0000
0000
0000
1000
0000
0000
0000
0001
0000
0100
0010
1000
0001
1000
0000
,
1001
0000
0000
0000
1000
0010
0100
0000
0001
0000
0010
0001
0010
0001
1000
0001
,
0000
0001
0100
0000
0010
1000
0010
0000
2000
0000
0100
0000
3001
0000
0000
0000
,
1001
0000
0000
0000
0010
0100
0010
0000
1000
0000
0100
0010
0100
0010
0001
0010
,
0001
0001
1000
1000
0020
0100
1030
0000
,
1001
0000
0000
0000
0001
0010
0100
1000
0100
0000
1000
0001
1000
0001
1000
0000
,
0001
0010
0001
0000
0100
0000
0010
0000
0200
0000
0010
0000
0301
0000
1000
0000
,
0001
0010
0100
0000
1000
0010
0100
0000
0001
0010
0100
0000
1000
0010
0100
0000
,
0010
0000
0000
0010
0000
0000
0010
0100
0010
0000
1000
0000
0001
0000
0100
0000
,
0110
0000
0000
0000
0000
0010
1000
0000
0001
0000
1000
0100
0000
0100
0010
0100
,
0000
0010
0001
0000
1000
0000
0001
0000
0200
0000
0010
0000
0301
0000
1000
0000
,
1001
0000
0000
0000
0000
1000
0100
0000
0010
0000
0001
0010
0000
0010
0100
0010
,
0200
0000
1000
0000
0320
0000
0001
0000
0130
0000
1000
0001
1000
0000
0001
0000
,
1001
0000
1000
0000
0001
0100
0010
0000
1000
0100
0010
0000
0001
0100
0010
0000
,
1000
0100
0010
0000
0001
0100
0010
0000
2000
0000
0010
0000
3100
0000
0010
0000
,
0011
0002
2003
3020
,
0130
0000
0000
0100
0000
0000
0100
0010
0100
0000
0001
0000
1000
0000
0001
0000
,
1001
0000
0100
0000
0010
1000
0010
0000
1000
0000
0001
0000
0010
0100
1000
0000
,
0100
0000
0001
0000
0100
1000
0100
0000
0010
0000
0001
0000
1000
0010
0100
0000
,
0110
0000
0001
0000
1000
0100
1000
0000
0010
0000
0100
0000
0001
0010
0100
0000
,
1000
0000
0010
0000
0100
1000
0100
0000
0010
0000
1000
0000
1001
0000
0000
0000
,
0010
1000
0001
0000
0010
0100
1000
0000
0010
0100
0001
0000
1000
0001
0010
0000
,
0100
1000
0100
1000
0010
0100
0010
0100
0001
0010
0001
0010
0001
1000
0001
0000
,
1000
0010
0100
0010
0100
0001
1000
0100
0010
0100
0010
0001
,
1000
0001
1000
0001
1000
0001
1000
0000
1000
0001
0000
0000
,
1001
0000
0000
0010
1000
0100
0010
0001
0100
0010
1000
0010
,
0100
0001
0100
0010
1000
0010
0100
0001
0010
0100
0000
0000
,
1001
0000
0000
0010
0000
0000
0110
0000
0000
0010
0000
0010
,
1001
0000
1000
0100
0000
0010
0001
0100
0010
0100
0000
0000
,
1001
0000
0000
1000
0001
0100
0010
1000
0001
0010
0100
0001
,
0100
1000
0001
0010
0100
1000
0010
0100
0001
0100
0000
0000
,
1001
0000
0000
1000
0000
0000
0110
0000
0000
0010
0000
0010
,
1001
0000
1000
0010
0001
0010
1000
0100
0010
0001
0000
0000
,
1001
0000
0000
0000
,
0000
0000
0000
0000
;
#NOTES:
     dance-single:
     :
     Challenge:
     16:
     :
0000
0000
0000
0000
,
0000
0000
0000
0000
,
0000
0000
0000
0000
,
0000
0000
0000
0000
,
0000
0000
0000
0000
,
0000
0000
0000
0000
,
1001
0000
MMMM
0000
0001
0010
0100
0000
,
1000
0100
0001
0100
1000
0000
0001
0000
1000
0000
MMMM
0000
1001
0000
0000
0000
,
0110
0000
MMMM
0000
0110
0100
0110
0000
,
1001
1001
MMMM
0000
2002
0000
3003
0000
,
0011
MMMM
0011
MMMM
0101
MMMM
0101
MMMM
,
1010
MMMM
1010
MMMM
1100
MMMM
1100
MMMM
,
1001
MMMM
1001
MMMM
0110
MMMM
0110
MMMM
,
1000
0010
MMMM
0000
0001
1000
1001
0000
,
0011
MMMM
0101
MMMM
0011
MMMM
0101
MMMM
,
1010
MMMM
1100
MMMM
1010
MMMM
1100
MMMM
,
1001
MMMM
0110
MMMM
1001
MMMM
0110
MMMM
,
0001
0010
MMMM
0000
0001
1000
1001
0000
,
0001
0000
1000
0010
1000
0000
0001
0100
0001
0000
0010
0001
0010
0000
0100
1000
,
0100
0000
1000
0010
1000
0000
0001
0100
0001
0000
0010
0001
0010
0000
0100
1000
,
0100
0000
1000
0001
0010
0000
0001
1000
0010
0000
1000
0001
0100
0000
0001
1000
,
0100
0000
1000
0100
0010
0000
0100
0010
0001
0000
1000
0000
1001
0000
0000
0000
,
0001
0010
0001
0010
0100
1000
0100
1000
0010
0100
0010
0100
0001
1000
0001
1000
,
0001
0010
0100
1000
0001
0100
0010
1000
0001
0010
0100
1000
0001
0100
0010
1000
,
0001
0000
0000
0000
0001
0000
0000
0000
0100
0000
0000
0100
0000
0000
0100
0010
,
0000
0000
0000
0010
0000
0000
0010
0100
0010
0000
0010
0000
0010
0000
0010
0000
,
1001
2000
3002
2003
,
3002
0000
0000
0000
2003
0000
0000
0000
3001
0000
0001
0010
0100
1000
0100
0000
,
1001
0000
0000
0000
0001
0010
1000
0000
0010
0000
0010
0001
1000
0100
1000
0010
,
0000
0100
0010
0000
1000
0100
0010
0000
MMMM
0000
0110
0000
1001
0000
0000
0000
,
1001
0000
0000
0000
1000
0010
0001
0000
0010
0000
0010
1000
0001
0100
0001
0010
,
0000
0100
0010
0000
0001
0100
0010
0000
MMMM
0000
0110
0000
1001
0000
0000
0000
,
1001
0000
0000
0000
0001
0100
0001
0100
0010
0000
1000
0100
1000
0100
0010
0100
,
0010
0001
0010
0000
0100
1000
0100
0000
MMMM
0000
0110
0000
1001
0000
0000
0000
,
MMMM
0000
0000
0000
0010
1000
0100
0000
0010
0001
0100
0000
0010
1000
0100
0000
,
0001
0000
0000
0001
0000
0000
0001
0100
1000
0000
1000
0000
1000
0000
0000
0000
,
1001
0000
0000
0000
0000
0001
0010
0000
0001
0000
0100
0100
0000
0010
1000
0010
,
0000
1000
1000
0000
0001
1000
0001
0000
MMMM
0000
0110
0000
1001
0000
0000
0000
,
1001
0000
0000
0000
0000
1000
0010
0000
1000
0000
0100
0100
0000
0010
0001
0010
,
0000
0001
0001
0000
1000
0001
1000
0000
MMMM
0000
0110
0000
1001
0000
0000
0000
,
1001
0000
0000
0000
0100
1000
0010
0000
0100
0001
0010
0000
0100
1000
0010
0000
,
0100
0001
0010
0000
0100
1000
0010
0000
MMMM
0000
0110
0000
1001
0000
0000
0000
,
0002
2003
3002
2003
,
3100
0000
0000
0100
0000
0000
0100
0010
0100
0000
0100
0000
0100
0000
0000
0000
,
1000
0100
1000
0000
MMMM
0000
0010
0000
0001
1000
0001
0000
MMMM
0000
0001
0000
,
0010
0100
0010
0000
MMMM
0000
1000
0000
0010
1000
0010
0000
MMMM
0000
0001
0000
,
1000
0100
0010
0000
MMMM
0000
1000
0000
0010
0100
0001
0000
MMMM
0000
0010
0000
,
1000
0001
0100
0000
MMMM
0000
1000
0000
0001
0010
0001
1000
0010
0000
0000
0000
,
1000
0100
1000
MMMM
1000
0100
1000
MMMM
1000
0100
1000
MMMM
1000
0100
1000
0000
,
0001
0100
0001
MMMM
0001
0100
0001
MMMM
0001
0100
0001
MMMM
0001
0100
0001
0000
,
1000
1000
1000
0100
0100
0100
0010
0010
0010
0001
0001
0001
,
0100
0100
0100
0100
0100
0100
0100
0000
0100
0100
0000
0000
,
1001
0000
0000
0001
0010
MMMM
1000
0010
MMMM
0001
0010
MMMM
,
1000
0100
MMMM
0010
0100
MMMM
0100
0001
MMMM
0001
0000
0000
,
1001
0000
0000
0000
0000
0000
1000
0000
0000
0000
0001
0100
0010
0000
0000
0000
0000
0000
0100
0000
0000
0000
0010
0000
,
MMMM
0000
0000
0000
0001
0000
0100
0000
0010
0000
1000
0001
1000
0000
0000
0000
0001
0000
1000
0000
0001
0000
1000
0000
,
1001
0000
0000
1000
0100
MMMM
0001
0100
MMMM
1000
0100
MMMM
,
0001
0010
MMMM
0100
0010
MMMM
0010
1000
MMMM
1000
0000
0000
,
1001
0000
0000
0000
0000
0000
0010
0000
0000
0000
1000
0010
0100
0000
0000
0000
0000
0000
0010
0000
0000
0000
0100
0000
,
MMMM
0000
0000
0000
1000
0000
0010
0000
0100
0000
0001
1000
0001
0000
0000
0000
1000
0000
0001
0000
0000
0000
0001
0000
,
1001
0000
0000
0000
,
0000
0000
0000
0000
;
#NOTES:
     dance-double:
     :
     Easy:
     7:
     :
00000000
00000000
00000000
00000000
,
00000000
00000000
00000000
00000000
,
00000000
00000000
00000000
00000000
,
00000000
00000000
00000000
00000000
,
00000000
00000000
00000000
00000000
,
00000000
00000000
00000000
00000000
,
00001001
00000000
00000010
00000100
,
00001000
00010000
00001000
00000000
01000000
00000000
00000000
00000000
,
10010000
00000000
00100000
01000000
,
00010000
00001000
00010000
00000000
00000100
00000000
00000000
00000000
,
00000010
00000001
00000100
00000000
,
00000010
00001000
00000100
00000000
,
00010000
00001000
01000000
00000000
,
00010000
00100000
01000000
00000000
,
10000000
00100000
01000000
00000000
,
00010000
00100000
01000000
00000000
,
00010000
00001000
00010000
00000000
,
00000010
00001000
00000100
00000000
,
00000010
00000001
00000010
00000001
,
00000100
00000001
00000100
00000000
,
00000010
00010000
00000010
00010000
,
00001000
00010000
00001000
00000000
,
00100000
00010000
00100000
00000000
01000000
00000000
10000000
00000000
,
00100000
10000000
00100000
00000000
01000000
00000000
00010000
00000000
,
20020000
00000000
00000000
00000000
,
30030000
00000000
00000000
00000000
,
00100000
00100000
01000000
01000000
,
00010000
10000000
00010000
00000000
,
10010000
00000000
00000000
00000000
01000000
00100000
01000000
00000000
,
00010000
00001000
00000010
00000000
,
00001001
00000000
00000000
00000000
00000100
00000010
00000100
00000000
,
00001000
00010000
00100000
00000000
,
01100000
00000000
00000000
00000000
00010000
10000000
00010000
00000000
,
00100000
00001000
00000010
00000000
,
00000110
00000000
00000000
00000000
00001000
00000001
00001000
00000000
,
00000010
00010000
00100000
00000000
,
10000000
00000000
10000000
00000000
00010000
01000000
00010000
00000000
,
00100000
00001000
00010000
00000100
,
00001000
00000000
00001000
00000000
00000001
00000100
00000001
00000000
,
00000010
00000100
00010000
00001000
,
00010000
00100000
10000000
01000000
,
00010000
00001000
00000010
00000001
,
00000100
00001000
00000100
00000001
,
00002002
00000000
00003003
00000000
,
00000010
00000001
00000100
00000001
,
00001000
00000100
00010000
00010000
,
00001000
00100000
00010000
00100000
,
01000000
10000000
00010000
00010000
,
10000000
00100000
01000000
00010000
,
00100000
00001000
00010000
00000100
,
00001000
00001000
00000001
00000001
,
00002002
00000000
00000000
00003003
,
00000010
00001000
00010000
00001000
,
00010000
00010000
00011000
00000000
,
00001000
00001000
01010000
00000000
,
00100000
00100000
11000000
00000000
,
01000000
00010000
00001000
00010000
,
00001000
00001000
00011000
00000000
,
00010000
00010000
00001100
00000000
,
00000010
00000010
00000101
00000000
,
00001001
00000000
00000000
00000000
,
00000000
00000000
00000000
00000000
;
#NOTES:
     dance-double:
     :
     Medium:
     11:
     :
00000000
00000000
00000000
00000000
,
00000000
00000000
00000000
00000000
,
00000000
00000000
00000000
00000000
,
00000000
00000000
00000000
00000000
,
00000000
00000000
00000000
00000000
,
00000000
00000000
00000000
00000000
,
00000110
00000000
00000000
00000000
00001000
00000001
00001000
00000000
,
00000001
00001000
00000100
00000100
00010000
00001000
00010000
00000000
,
00011000
00000000
00000000
00000000
01000000
00010000
00100000
00000000
,
00010000
10000000
00000000
00000000
02000000
00000000
00000000
00000000
,
03100000
00000000
00010000
00000000
01000000
00001000
00010000
00000000
,
00001000
00000000
00000100
00000000
00000010
00001000
00000100
00000000
,
00000010
00000000
00000001
00000000
00000100
00001000
00010000
00000000
,
00001000
00010000
00000000
00000000
00022000
00000000
00033000
00000000
,
00001000
00000000
00010000
00000000
01000000
10000000
00100000
00000000
,
00010000
00000000
00001000
00000000
00000100
00000010
00000100
00000000
,
00000001
00000000
00000010
00000000
00000100
00010000
00001000
00000000
,
01000000
00100000
00000000
00000000
02200000
00000000
03300000
00000000
,
10000000
00100000
10000000
00000000
00010000
01000000
00010000
00000000
,
00100000
00001000
00100000
00000000
00001000
00010000
00001000
00000000
,
00000010
00000001
00000010
00000001
00000100
00000001
00000100
00000000
,
00000010
00001000
00000010
00001000
00000100
00001000
00000100
00000000
,
00010000
00001000
00100000
00010000
01000000
00010000
00100000
01000000
,
10000000
00000000
00100000
00000000
01000000
00000000
00010000
00000000
10000000
00010000
10000000
00010000
10000000
00000000
00000000
00000000
,
10020000
00000000
00130000
00000000
,
00002100
00000000
00003001
00000000
,
00000110
00000001
00001000
00001000
,
00010000
00010000
00022000
00033000
,
00100000
00010000
01000000
00010000
00100000
01000000
10000000
00100000
,
01000000
00010000
00100000
00001000
00010000
00000000
00011000
00000000
,
00000100
00001000
00000010
00000100
00000001
00000010
00000100
00001000
,
00000010
00001000
00000100
00010000
00001000
00000000
00011000
00000000
,
01000000
00010000
00100000
01000000
10000000
00010000
01000000
00001000
,
00100000
01000000
00010000
00001000
00010000
00000000
00011000
00000000
,
00000100
00001000
00000010
00000100
00000001
00001000
00000100
00010000
,
00001000
00000000
00000000
00001000
00000000
00000000
00001000
00000000
00020000
00000000
00000000
00000000
00030000
00000000
00000000
00000000
,
00011000
00000000
00000000
00000000
00010000
00100000
10000000
00000000
,
01000000
00010000
00001000
00100000
01000000
00000000
00010000
00000000
,
00011000
00000000
00000000
00000000
00001000
00000010
00000001
00000000
,
00000100
00001000
00010000
00000100
00000010
00000000
00001000
00000000
,
00011000
00000000
00010000
00100000
00010000
00100000
10000000
00100000
,
10000000
01000000
10000000
01000000
00010000
00000000
00001000
00000000
,
00011000
00000020
00000230
00000320
,
00001030
00000000
00000000
00001000
00000000
00000000
00001000
00000000
00000001
00000000
00001000
00000000
00000001
00000000
00000000
00000000
,
00000001
00000100
00001000
00000100
00000001
00000010
00000100
00000010
,
00000001
00001000
00000100
00010000
00001000
00100000
00010000
01000000
,
00010000
01000000
10000000
01000000
00010000
00100000
01000000
00100000
,
00010000
01000000
00001000
00010000
00000010
00001000
00000001
00000000
,
00000010
00000001
00000100
00000010
00001000
00000100
00010000
00001000
,
00100000
00010000
01000000
00100000
10000000
01000000
00010000
01000000
,
10000000
00000000
10000000
00010000
00000000
00000000
00010000
00000000
00010000
00001000
00000000
00000000
,
00022000
00000000
00000000
00033000
,
00011000
00000000
00000000
00001010
00000000
00000000
00000100
00000000
00000001
00000100
00000000
00000000
,
00000011
00000000
00000000
00001100
00000000
00000000
00010000
00000000
00001000
00010000
00000000
00000000
,
01001000
00000000
00000000
00110000
00000000
00000000
01000000
00000000
10000000
01000000
00000000
00000000
,
10100000
00000000
00000000
00110000
00000000
00000000
01000000
00000000
00010000
00001000
00000000
00000000
,
00000010
00000000
00000001
00000100
00000000
00000000
00000010
00000000
00001000
00000100
00000000
00000000
,
00001000
00000000
00000100
00010000
00000000
00001000
00020000
00000000
00000000
00031000
00000000
00000000
,
00011000
00000000
00000000
01000000
00000000
00000000
01000000
00000000
00000000
00100000
00000000
00100000
,
10000000
00000000
10000000
00010000
00000000
00010000
01000000
00000000
00000000
00001000
00000000
00000000
,
00011000
00000000
00000000
00000000
,
00000000
00000000
00000000
00000000
;
#NOTES:
     dance-double:
     :
     Hard:
     15:
     :
00000000
00000000
00000000
00000000
,
00000000
00000000
00000000
00000000
,
00000000
00000000
00000000
00000000
,
00000000
00000000
00000000
00000000
,
00000000
00000000
00000000
00000000
,
00000000
00000000
00000000
00000000
,
00001001
00000000
00000000
00000000
00000010
00000100
00000010
00000000
,
00000100
00001000
00000100
00001000
00010000
00000000
00001000
00000000
00010000
00000000
01000000
00000000
10000000
00000000
00000000
00000000
,
10010000
00000000
00000000
00000000
00100000
01000000
00100000
00000000
,
00011000
00011000
00000000
00000000
00022000
00000000
00000000
00033000
,
00001000
00000000
00000010
00000001
00000100
00000000
00000000
00000000
00000001
00000000
00000100
00000010
00001000
00000000
00000000
00000000
,
00000100
00000000
00010000
00001000
00100000
00000000
00010000
00000000
10000000
00000000
01000000
00010000
00001000
00000000
00000000
00000000
,
00011000
00000000
00000000
00000000
00000000
00000000
00000000
00000000
00001000
00000100
00000001
00000100
00000001
00000000
00000000
00000000
,
00000110
00000000
00000110
00000000
00000000
00000000
00000000
00000000
00000001
00000010
00001000
00010000
00001000
00000000
00000000
00000000
,
00011000
00000000
00000000
00000000
00000000
00000000
00000000
00000000
00001000
00000000
00010000
01000000
10000000
00000000
00000000
00000000
,
10000000
00000000
00100000
01000000
00001000
00000000
00100000
00000000
01000000
00000000
00010000
00001000
00000010
00000000
00000000
00000000
,
00000110
00000000
00000000
00000000
00000000
00000000
00000000
00000000
00000010
00000001
00001000
00000100
00000010
00000000
00000000
00000000
,
00001001
00000000
00001001
00000000
00000000
00000000
00000000
00000000
00000100
00000000
00000010
00010000
00000100
00000000
00000000
00000000
,
00001000
00000100
00001000
00000100
00001000
00000000
00000100
00000000
00010000
00000000
00001000
00000000
01000000
00000000
00010000
00000000
,
00100000
01000000
00100000
01000000
00100000
00000000
01000000
00000000
10000000
00000000
00100000
00000000
00010000
00000000
00001000
00000000
,
01000000
00010000
01000000
00010000
01000000
00000000
00010000
00000000
00100000
00000000
00001000
00000000
00010000
00000000
00000100
00000000
,
00000010
00000000
00000001
00000010
00000100
00000000
00001000
00000010
00000100
00000000
00000010
00000000
00001001
00000000
00000000
00000000
,
00000001
00001000
00000100
00000000
00000001
00000000
00000100
00000000
00001000
00000010
00000100
00000000
00001000
00000000
00010000
00000000
,
00100000
01000000
00100000
00000000
10000000
01000000
10000000
00000000
00010000
00100000
00001000
00000000
00010000
00000100
00001000
00000000
,
00002100
00000000
00000000
00000000
00000100
00000000
00000000
00000000
00000010
00000000
00000000
00000010
00000000
00000000
00003010
00000100
,
00000000
00000000
00000000
00000100
00000000
00000000
00001000
00010000
00001000
00000000
00001000
00000000
00010000
00000000
01000000
00000000
,
01100000
10000000
00010000
00010000
,
00001000
00000000
00000000
00000000
00001000
00000000
00000000
00000000
00000001
00000000
00000100
00000010
00000100
00000010
00000100
00000000
,
00000110
00000000
00000000
00000000
00000001
00000100
00000010
00000000
00001000
00000000
00000100
00010000
00000100
00010000
00001000
00010000
,
00000000
00010000
00001000
00000000
00010000
00000000
00001000
00000000
00200000
00000000
00010000
00000000
00301000
00000000
00000000
00000000
,
00011000
00000000
00000000
00000000
00100000
10000000
00100000
00000000
10000000
00000000
01000000
00100000
01000000
00100000
00010000
00100000
,
00010000
01000000
00001000
00010000
00000020
00010000
00000130
00000000
,
00001001
00000000
00000000
00000000
00000100
00000010
00001000
00000001
00000010
00000000
00000100
00001000
00000100
00010000
00000100
00000000
,
00010000
00001000
00010000
00000000
01000000
00000000
00100000
00000000
00020000
00000000
01000000
00000000
10030000
00000000
00000000
00000000
,
00100000
00010000
00000010
00010000
00100000
00010000
00000010
00010000
,
00001000
00000000
00000000
00001000
00000000
00000000
00001000
00010000
00001000
00000000
00010000
00000000
00001000
00000000
00000000
00000000
,
00011000
00000000
00000000
00000000
00000000
00000010
00000001
00000000
00000100
00000000
00001000
00000100
00000000
00000100
00000010
00000100
,
00000000
00000010
00001000
00000000
00000100
00000000
00010000
00000000
00002000
00000000
00010000
00000000
00103000
00000000
00010000
00000000
,
01010000
00000000
00000000
00000000
00000000
00100000
01000000
00000000
10000000
00000000
01000000
00010000
00000000
00010000
00100000
00010000
,
00100000
00000000
00001000
00000000
00010000
00000000
00000010
00000000
00000100
00000000
00000010
00001000
00000100
00000000
00000010
00000000
,
00001001
00001000
00000100
00010000
01000000
00010000
00000100
00010000
,
01000000
00010000
00000100
00010000
02000000
00100000
13000000
00010000
,
00110000
00002000
00003020
00000032
,
00001003
00000000
00000000
00001000
00000000
00000000
00001000
00000001
00001000
00000000
00000010
00000000
00000100
00000000
00000100
00000000
,
00000001
00000000
00000010
00000000
00000100
00001000
00000100
00000010
00000100
00000000
00010000
00000000
00001000
00000000
00100000
00000000
,
00001000
00000000
00010000
00000000
01000000
10000000
01000000
00100000
00010000
00000000
00100000
00000000
01000000
00000000
10000000
00000000
,
10010000
00000000
01000000
00000000
00010000
00100000
00010000
01000000
00010000
00000000
00100000
00000000
00001000
00000000
00010000
00000000
,
00000010
00000000
00000100
00000000
00000001
00000100
00000010
00001000
00000001
00000000
00001000
00000000
00001001
00000000
00000000
00000000
,
00000010
00000001
00001000
00000000
00000100
00001000
00000010
00000000
00000100
00001000
00010000
00000000
00100000
01000000
00010000
00000000
,
00100000
01000000
00010000
00000000
01000000
10000000
00100000
00000000
01000000
00010000
01000000
00010000
00100000
00001000
00100000
00000000
,
00001000
00010000
00000100
00001000
00000100
00001000
00000010
00000100
00000001
00000010
00000100
00001000
,
00000100
00010000
00001000
00010000
00000100
00010000
00001000
00000000
00001000
00010000
00000000
00000000
,
00011000
00000000
00000000
00100000
00001000
00100000
00010000
01000000
00010000
00100000
01000000
10000000
,
00100000
01000000
00010000
00100000
00001000
00010000
00000100
00001000
00000010
00001000
00000000
00000000
,
00001001
00000000
00000000
00000100
00000000
00000000
00000110
00000000
00000000
00000001
00000000
00000001
,
00000100
00000000
00000100
00000010
00000000
00000010
00001000
00000000
00001000
00010000
00000000
00000000
,
01100000
00000000
00000000
10000000
00010000
01000000
00100000
10000000
01000000
00010000
00001000
00000010
,
00000001
00001000
00000010
00000100
00000001
00000010
00000100
00001000
00000010
00000100
00000000
00000000
,
00000110
00000000
00000000
00001000
00000000
00000000
00011000
00000000
00000000
00100000
00000000
00100000
,
10010000
00000000
10000000
00100000
00010000
00001000
00010000
01000000
10000000
00100000
00000000
00000000
,
10010000
00000000
00000000
00000000
,
00000000
00000000
00000000
00000000
;
#NOTES:
     dance-double:
     :
     Challenge:
     16:
     :
00000000
00000000
00000000
00000000
,
00000000
00000000
00000000
00000000
,
00000000
00000000
00000000
00000000
,
00000000
00000000
00000000
00000000
,
00000000
00000000
00000000
00000000
,
00000000
00000000
00000000
00000000
,
00012000
00000000
00103000
00010000
01000000
10000000
00010000
00000000
,
00001000
00010000
01000000
00100000
00001000
00010000
00000100
00000000
,
00000110
00000000
00000100
00001000
00000010
00000001
00001000
00010000
,
00001000
00010000
01000000
10000000
00100000
01000000
00010000
00000000
,
10000000
00100000
0001MMMM
00000000
00002000
00000000
00023000
00000000
,
1003MMMM
00000000
00100000
00001000
00010000
00001000
00000100
00000000
,
MMMM0001
00000010
00002000
00000000
00023000
00000000
00032000
00000000
,
MMMM3001
00000000
00000010
00010000
00001000
00010000
00011000
00000000
,
00001000
00000000
01000000
00000000
10000000
00010000
00001000
00000000
,
00001000
00010000
10000000
00000000
00100000
00000000
00001000
00000000
,
00010000
00000000
00000100
00000000
00000001
00001000
00010000
00000000
,
00010000
00001000
00000001
00000000
00000010
00000000
00010000
00000000
,
00000100
00001000
MMMM0010
00000001
00001000
00010000
0010MMMM
10000000
,
00010000
00100000
1000MMMM
00010000
00001000
00000010
MMMM0001
00000100
,
00000010
00001000
MMMM0100
00000001
00001000
00010000
0100MMMM
10000000
,
00010000
01000000
1000MMMM
00010000
00001000
00000100
MMMM0001
00000000
,
00001000
00000100
MMMM0001
00001000
00010000
00001000
MMMM0100
00000001
,
00001000
00000100
MMMM0001
00001000
00010000
00001000
MMMM0100
00000001
,
00000011
00000000
00000000
00000000
00001100
00000000
00000000
00000000
00000001
00000000
00000000
00000100
00000000
00000000
00000010
00001000
,
00000000
00000000
00000000
00000100
00000000
00000000
00010000
00001000
00010000
00000000
00001000
00000000
00001000
00000000
00001000
00000000
,
00011000
00000000
00010000
MMMM1000
0001MMMM
MMMM1000
0001MMMM
MMMM1000
,
0001MMMM
MMMM1000
0001MMMM
MMMM1000
0001MMMM
MMMM1000
0001MMMM
00000000
,
00011000
00000000
00010000
10000000
00100000
00010000
01000000
10000000
,
00010000
00001000
00010000
01000000
10000000
00100000
10000000
01000000
,
00010000
00000000
00001000
00000001
00000010
00001000
00000100
00000001
,
00001000
00010000
00001000
00000100
00000001
00000010
00000001
00000100
,
00001000
00000000
00010000
10000000
00100000
00010000
01000000
10000000
,
00010000
00001000
00000010
00000001
00001000
00000010
00000001
00001000
,
00010000
00000000
00001000
01000000
10000000
00010000
00001000
00100000
,
00001000
00000000
00000000
00010000
00000000
00000000
10000000
00000000
00100000
00000000
00001000
00000000
00000010
00000000
00000001
00000000
,
00001001
00000002
00000023
00002030
,
00023000
00000000
00032000
00000000
00003001
00000010
00010000
00100000
,
20000000
32000000
03020000
00032000
,
00023000
00000000
20030000
00000000
31000000
00001000
00010000
01000000
,
11000000
10000000
00100000
01000000
00010000
10000000
01000000
00010000
,
00001000
00010000
00001000
00000001
00000010
00001000
00000100
00000010
,
00000001
00000000
00000001
00000100
00000010
00001000
00000001
00000100
,
00001000
00010000
00001000
00010000
10000000
00100000
00010000
00000000
,
01000000
00001000
00010000
10000000
00100000
00010000
01000000
10000000
,
00010000
00001000
00010000
10000000
00100000
00001000
00000010
00000000
,
00000100
00010000
00001000
00000001
00000010
00001000
00000100
00000001
,
00001000
00010000
00001000
00000001
00000010
00010000
00100000
00000000
,
10000000
01000000
10000000
01000000
10000000
01000000
10000000
01000000
00100000
00010000
00100000
00010000
00100000
00010000
00100000
00010000
,
00100000
00001000
00100000
00001000
00100000
00001000
00100000
00001000
00010000
00001000
00010000
00001000
00010000
00001000
00010000
00000000
,
00000100
00001000
00001000
00000010
00000100
00000100
00000001
00000010
00000010
00000001
00001000
00001000
,
00000100
00000000
00000100
00000000
00000100
00000000
00000100
00000000
00000100
00000000
00000100
00000000
00000100
00000000
00000000
00000000
00010000
00000000
00010000
00000000
00000000
MMMMMMMM
00000000
00000000
,
00011000
00000000
00000000
00001000
00000000
01000000
10000000
00000000
00010000
00100000
00000000
10000000
,
01000000
00000000
00100000
00001000
00000000
00010000
00000100
00001000
00000100
00001000
00000000
00000000
,
00001200
00000000
00000000
MMMM0000
00000000
00000000
00010000
00000000
00000000
MMMM0000
00000000
00000000
00010000
00000000
00000000
MMMM0000
00000000
00000000
00010000
00000000
00000000
00000000
00010000
00000000
,
00000000
MMMM0000
00000000
00000000
00010000
00000000
00010000
00000000
00000000
MMMM0000
00000000
00000000
00010300
00000000
00000000
00000000
00000000
00000000
00000000
00000000
00000000
00000000
00000000
00000000
,
00011000
00000000
00000000
00001000
00000000
01000000
00100000
00000000
00000000
10000000
00000000
00010000
,
00100000
00000000
00001000
00010000
00000000
00000100
00001000
00000000
00000000
00000010
00000000
00000000
,
00021000
00000000
00000000
0000MMMM
00000000
00000000
00000100
00000000
00000000
0000MMMM
00000000
00000000
00000100
00000000
00000000
0000MMMM
00000000
00000000
00000100
00000000
00000000
00000000
00000100
00000000
,
00000000
0000MMMM
00000000
00000000
00000010
00000000
00000010
00000000
00000000
0000MMMM
00000000
00000000
00030100
00000000
00000000
00000000
00000000
00000000
00000000
00000000
00000000
00000000
00000000
00000000
,
00001100
00000000
00000000
00000000
,
00000000
00000000
00000000
00000000
;
