
//----- song ID: roki -----//
#TITLE:ロキ(w/緒方恵美);
#ARTIST:神田沙也加;
#TITLETRANSLIT:Roki (w/ Megumi Ogata);
#ARTISTTRANSLIT:Sayaka Kanda;
#BANNER:Roki (Megumi Ogata).png;
#BACKGROUND:Roki (Megumi Ogata)-bg.png;
#CDTITLE:./CDTitles/Nostalgia Op.2.png;
#MUSIC:Roki (Megumi Ogata).ogg;
#SAMPLESTART:59.189;
#SAMPLELENGTH:15;
#BPMS:0=150;
#NOTES:
     dance-single:
     :
     Beginner:
     2:
     :
0000
0000
0000
0000
,
0000
0000
0000
0000
,
0000
0000
0000
0000
,
0010
0000
0000
0000
,
0001
0000
0000
0000
,
0010
0000
0000
0000
,
0100
0000
0000
0000
,
1000
0000
0000
0000
,
0010
0000
0000
0000
,
1000
0000
1000
0000
,
1000
0000
0000
0000
,
0100
0000
0100
0000
,
0010
0000
0000
0000
,
0001
0000
0001
0000
,
1000
0000
0000
0000
,
0010
0000
0100
0000
,
0010
0000
0100
0000
,
0001
0000
1000
0000
,
0001
0000
1000
0000
,
0010
0000
0010
0000
,
0100
0000
0100
0000
,
0001
0000
0000
0000
,
1000
0000
0000
0000
,
0001
0000
0000
0000
,
0010
0000
0010
0000
,
0010
0000
0000
0000
,
0100
0000
0000
0000
,
0001
0000
0001
0000
,
1000
0000
1000
0000
,
0200
0000
0000
0000
,
0000
0000
0300
0000
,
0020
0000
0000
0000
,
0000
0000
0030
0000
,
1000
0000
0000
0000
,
1000
0000
0000
0000
,
0001
0000
0000
0000
,
1001
0000
0000
0000
,
0010
0000
0100
0000
,
1000
0000
0100
0000
,
0010
0000
0001
0000
,
0100
0000
0010
0000
,
1000
0000
1000
0000
,
0010
0000
0010
0000
,
0100
0000
0100
0000
,
0100
0000
0000
0000
,
0001
0000
1000
0000
,
0001
0000
0000
0000
,
0100
0000
0010
0000
,
0100
0000
0000
0000
,
0001
0000
0010
0000
,
0100
0000
1000
0000
,
0010
0000
0010
0000
,
1000
0000
0100
0000
,
0010
0000
0001
0000
,
2000
0000
0000
0000
,
3000
0000
0100
0000
,
1000
0000
0100
0000
,
0010
0000
0001
0000
,
0100
0000
0001
0000
,
0010
0000
0100
0000
,
1000
0000
0100
0000
,
0010
0000
0100
0000
,
0100
0000
0100
0000
,
0000
0000
0000
0000
;
#NOTES:
     dance-single:
     :
     Easy:
     5:
     :
0000
0000
0000
0000
,
0000
0000
0000
0000
,
0000
0000
0000
0000
,
1000
0100
1000
0000
,
0001
0010
0001
0000
,
0100
0010
0100
0000
,
0010
0100
0010
0000
,
1000
0000
0100
0000
,
0010
0000
0001
0000
,
1001
0000
0110
0000
,
2000
0000
0000
3000
,
0100
0010
0100
0100
,
1000
0001
0100
0000
,
0001
0000
1000
0000
,
0100
1000
0100
0000
,
0010
0001
0010
0000
,
0001
0100
0001
0000
,
1000
0010
1000
0100
,
0010
0100
0110
0000
,
0001
0000
0100
0000
,
0110
0110
1001
0000
,
1000
0000
0010
0000
,
1000
0000
0001
0000
,
0010
0100
0010
0001
,
1000
0000
1001
0000
,
0010
1000
0010
0000
,
1000
0100
1000
0000
,
0001
0000
0100
0000
,
0001
0010
0100
1000
,
0020
0000
0000
0000
,
0230
0000
0310
0000
,
2000
0000
0000
0000
,
3002
0000
1003
0000
,
0010
0000
0100
0000
,
0001
0000
1000
0000
,
0002
0000
0000
0003
,
1001
0000
0110
0000
,
1000
1000
1000
0000
,
0100
0100
0100
0000
,
1000
0100
0010
0001
,
0110
0000
1001
0000
,
0100
0010
1000
0100
,
0010
0001
0100
0010
,
0100
0100
0100
0000
,
1001
0000
0110
0000
,
0001
0001
0001
0000
,
0100
0000
0010
0000
,
1000
1000
1000
0000
,
0100
0000
0010
0000
,
0001
0100
0010
1000
,
0100
0010
0001
0000
,
1000
1000
0100
1000
,
0001
0001
0010
0001
,
0100
0010
0100
0010
,
1000
0100
0200
0000
,
0000
0000
0310
0001
,
0010
0100
1000
1000
,
0001
0000
0100
0010
,
0100
0001
1000
0100
,
0010
0010
0001
0010
,
0001
1000
0010
0010
,
0100
0001
1001
0000
,
0110
0000
1001
0000
,
0001
1000
0100
0000
,
0000
0000
0000
0000
;
#NOTES:
     dance-single:
     :
     Medium:
     9:
     :
0000
0000
0000
0000
,
0000
0000
0000
0000
,
0000
0000
0000
0000
,
0100
0000
0010
0001
0010
0000
0001
0000
,
0100
0100
0010
1000
,
0001
0000
0010
0100
0010
0000
0100
0000
,
1000
0000
1000
0000
0001
0100
1000
0000
,
0100
0000
0010
1000
0010
0000
1000
0000
,
0100
0100
0010
0001
,
0110
1100
0011
1001
,
0020
0000
0130
0010
,
1000
0010
0100
0010
,
0001
0000
0010
0000
0100
0100
0000
0000
,
1000
0100
0001
0000
1000
0100
0001
0000
,
0010
0001
0100
0000
0010
0010
0000
0000
,
0001
0000
0001
0000
0010
0010
0000
0000
,
1000
0000
1000
0000
0010
0010
0000
0000
,
1000
0100
0010
0001
,
0100
0010
0100
0000
1001
0000
0000
0000
,
0001
0100
0010
0100
,
1010
0101
1001
0000
,
0010
0000
0001
0000
0100
0010
1000
0000
,
0100
0000
0100
0000
0010
0001
1000
0000
,
0001
0001
1000
1000
,
0100
0000
0000
0100
0000
0000
0010
0000
0010
0000
0000
0000
0000
0000
0000
0000
,
0001
0100
0010
0000
0110
0000
0000
0000
,
1000
0100
0010
0000
0110
0000
0000
0000
,
1000
0100
1000
0001
,
0010
0100
0010
0100
1000
0000
0001
0000
,
0200
0000
0320
0000
,
2030
0000
3001
0101
,
2000
0000
3200
0000
,
0320
0000
0031
0101
,
1000
0100
1000
0100
,
0010
0001
0010
0001
,
2002
0000
0000
3003
,
1100
0101
1001
0000
,
1000
0010
1000
0010
0100
0000
0001
0010
,
0001
0010
0100
0000
0010
0000
0100
0000
,
1000
0010
0001
0000
0001
0010
1000
0000
,
0011
1000
1010
0100
,
0001
0000
1000
0000
1000
0100
0001
0000
,
0001
0000
0100
0000
0100
1000
0010
0000
,
1000
0001
1000
0001
0100
0000
0010
0000
,
0110
1010
0011
1010
,
0001
0100
0001
0100
0010
0000
0100
0000
,
0010
1000
0100
0010
,
0100
1000
0100
1000
0001
0000
0100
0000
,
0010
0100
0010
1000
,
0100
0000
0101
0000
0010
1000
0010
0000
,
0100
0000
0101
0000
0000
0010
0100
0000
,
0010
0000
0010
0000
1000
0100
1000
0000
,
0100
0000
0010
0001
0100
0001
0000
0000
,
0100
0010
0100
0001
,
1000
1000
2000
0000
,
0001
0000
3001
0000
0010
0000
0010
0100
,
0001
0000
0010
0000
0001
0000
1000
0001
,
0100
0000
0010
0000
1000
0000
0100
0010
,
0100
0010
0001
0100
,
0100
0010
1000
0100
1000
0000
0001
0100
,
0010
0000
1000
0000
0001
0000
0100
0010
,
1000
0100
0110
1001
,
1000
0000
0000
0001
0000
0000
0100
0000
0100
0000
0000
0000
0000
0000
0000
0000
,
0010
1000
0010
0100
0001
0000
0000
0000
,
0000
0000
0000
0000
;
#NOTES:
     dance-single:
     :
     Hard:
     12:
     :
0000
0000
0000
0000
,
0000
0000
0000
0000
,
0000
0000
0000
0000
,
1000
0000
0000
0001
1000
0000
0001
0000
0100
0000
0000
0000
0110
0000
0000
0000
,
0001
0000
0010
0001
0010
0000
0101
0000
,
0010
0000
0000
1000
0010
0000
1000
0000
0001
0000
0000
0000
0011
0000
0000
0000
,
1000
0000
0000
0010
0100
0000
0010
0000
1000
0000
0100
0000
0010
0000
0001
0000
,
0010
0000
0000
0100
1000
0000
0100
0000
1000
0000
0000
0000
1010
0000
0000
0000
,
0001
0000
0100
0010
0100
0000
0001
0000
,
1000
0100
0000
0000
0010
0001
0000
0000
1000
0010
0000
0000
0100
0001
0000
0000
,
0020
0000
0000
0000
0130
0100
0010
0010
,
0001
0100
0001
0000
1000
0100
1000
0000
,
0100
0010
0001
0010
0001
0001
0000
0000
,
0100
0010
1000
0100
1000
1000
0001
0001
,
0010
0001
0100
0010
1000
2000
3000
0000
,
0010
0100
0010
0100
0001
0001
1000
1000
,
0010
0100
0010
0100
0001
1000
0000
0020
,
0000
0130
0100
0001
0001
1000
0100
0010
,
0001
0100
0001
0000
1001
0000
0000
0000
,
0010
0000
0000
1000
0100
0000
0010
0000
0100
0000
0010
0000
0001
0000
0001
0000
,
1000
0010
1000
0001
0100
0000
0000
0000
,
0010
0000
0000
0001
0010
0000
0001
0000
0100
0000
0000
0010
0100
0000
0010
0000
,
1000
0000
0000
0100
1000
0000
0100
0000
0010
0000
0000
0100
0010
0000
0001
0000
,
1000
0000
0010
0000
0100
0000
0001
0000
1000
0000
0001
1000
0000
0000
0001
0000
,
0010
0000
0100
0010
0000
0000
0100
0000
0100
0000
0000
0000
0110
0000
0000
0000
,
0001
0100
0010
1000
0100
1100
0000
0000
,
0010
0001
0100
0010
0110
0000
0000
2000
,
0000
3010
0100
0010
1000
0100
0010
0001
,
1000
0010
0100
0001
0100
0000
0010
0000
,
2001
0001
0100
0100
,
0010
3010
1010
0101
,
0012
0010
1000
1000
,
0100
0103
0110
1001
,
0001
0001
0100
0100
,
0010
0000
0010
0000
1000
0000
1000
2002
,
0000
0000
0000
3003
,
0011
0110
1100
0000
,
0001
0010
0001
0010
0100
0000
1000
0010
,
1000
0100
0010
0000
0001
1000
0010
0100
,
0010
0000
0000
1000
0100
0000
1000
0000
0010
0000
0100
0000
0001
0000
0100
0000
,
0110
0000
1000
0000
1001
0000
0010
0002
,
0000
1003
0100
0001
0100
1000
0001
2000
,
0000
0000
3001
1000
0001
0000
0100
0000
1000
0000
0100
0000
0001
0000
0010
0000
,
0100
0010
0100
0010
0001
0000
0100
0001
,
0010
0100
0000
0000
1000
0010
0000
0000
0100
0001
0000
0000
1000
0100
0000
0000
,
0010
0000
0001
0000
0010
0000
0001
0000
1000
0000
0000
1000
0000
0000
0010
0000
,
0100
0000
0000
0100
0000
0000
0001
0000
0010
0000
0001
0000
0100
0000
0010
0000
,
1000
0001
1000
0001
0020
0000
0031
0100
,
0001
0010
0000
0000
0100
1000
0000
0000
0010
0100
0000
0000
0001
1000
0000
0000
,
0100
1000
0010
0100
0001
0100
0010
1000
,
0200
0000
0310
0002
0000
1003
0100
0020
,
0000
0031
0100
0010
2000
0000
3100
2000
,
0000
3010
0100
0001
0010
0010
0000
0002
,
0000
1003
0001
1000
0100
0010
0001
1000
,
0100
0100
0020
0000
,
0031
0000
1000
0000
0001
0000
1000
0000
0100
0000
0000
1000
0010
0000
1000
0000
,
0001
0000
0000
0000
0110
0000
0000
0000
0001
0000
0000
1000
0100
0000
1000
0000
,
0010
0000
0000
0000
0101
0000
0000
0000
1000
0000
0000
0001
0100
0000
0001
0000
,
0010
1100
0010
0001
,
1000
0000
0010
0000
0100
0000
0001
0000
1000
0000
0000
0001
0010
0000
0001
0000
,
0100
0000
0000
0000
1010
0000
0000
0000
0100
0000
0000
0010
0100
0000
0010
0000
,
1000
0100
0110
0011
,
1001
0000
0000
1001
0000
0000
0010
0000
0200
0000
0000
0000
0000
0000
0000
0000
,
0301
0010
0100
1000
0010
0000
0000
0000
,
0000
0000
0000
0000
;
#NOTES:
     dance-double:
     :
     Easy:
     5:
     :
00000000
00000000
00000000
00000000
,
00000000
00000000
00000000
00000000
,
00000000
00000000
00000000
00000000
,
00000001
00000100
00000001
00000000
,
00001000
00000100
00001000
00000000
,
00000100
00010000
00000100
00000000
,
00010000
00001000
00010000
00000000
,
01000000
00000000
10000000
00000000
,
00100000
00000000
01000000
00000000
,
00010000
00000000
00011000
00000000
,
00000020
00000000
00000000
00000030
,
00001000
00000100
00000010
00000010
,
00000001
00001000
00000100
00000000
,
00010000
00000000
00001000
00000000
,
00100000
00010000
00100000
00000000
,
00010000
01000000
00010000
00000000
,
10000000
00100000
10000000
00000000
,
00010000
00100000
00001000
00010000
,
00000100
00001000
00001001
00000000
,
00000010
00000000
00000100
00000000
,
00001000
00001000
00011000
00000000
,
00001000
00000000
00010000
00000000
,
00100000
00000000
10000000
00000000
,
01000000
00010000
00001000
00000100
,
00000001
00000000
00001001
00000000
,
00001000
00000100
00010000
00000000
,
00001000
00100000
00010000
00000000
,
01000000
00000000
00100000
00000000
,
10000000
01000000
00100000
00010000
,
02000000
00000000
00000000
00000000
,
03002000
00000000
00013000
00000000
,
00000020
00000000
00000000
00000000
,
00000230
00000000
00000301
00000000
,
00001000
00000000
00000010
00000000
,
00010000
00000000
00001000
00000000
,
00020000
00000000
00000000
00030000
,
00011000
00000000
10010000
00000000
,
01000000
01000000
01000000
00000000
,
00010000
00010000
00010000
00000000
,
00100000
00001000
00010000
00001000
,
00011000
00000000
00001001
00000000
,
00000010
00000100
00000010
00001000
,
00000100
00010000
00001000
00010000
,
01000000
01000000
01000000
00000000
,
01100000
00000000
10010000
00000000
,
00100000
00100000
00100000
00000000
,
00001000
00000000
00001000
00000000
,
00010000
00010000
00010000
00000000
,
00000100
00000000
00001000
00000000
,
00000001
00000010
00000100
00001000
,
00000100
00010000
00001000
00000000
,
01000000
01000000
00010000
00100000
,
01000000
01000000
10000000
00100000
,
00010000
00001000
00010000
00001000
,
00000010
00000001
00000002
00000000
,
00000000
00000000
00001003
00000100
,
00001000
00000000
00000010
00010000
,
00001000
00000000
00010000
00001000
,
00010000
00000000
00001000
01000000
,
00010000
10000000
00100000
01000000
,
00010000
00000000
00100000
00001000
,
00010000
00001000
00011000
00000000
,
00000110
00000000
00001001
00000000
,
00000100
00001000
00010000
00000000
,
00000000
00000000
00000000
00000000
;
#NOTES:
     dance-double:
     :
     Medium:
     9:
     :
00000000
00000000
00000000
00000000
,
00000000
00000000
00000000
00000000
,
00000000
00000000
00000000
00000000
,
00100000
00000000
00010000
01000000
00010000
00000000
01000000
00000000
,
00001000
00001000
00010000
00000100
,
00001000
00000000
00000010
00000100
00000010
00000000
00000100
00000000
,
00000001
00000000
00000001
00000000
00000100
00001000
00010000
00000000
,
00001000
00000000
01000000
00010000
01000000
00000000
00010000
00000000
,
10000000
10000000
00100000
01000000
,
01010000
00011000
00001010
00000110
,
00000002
00000000
00001003
00000100
,
00010000
00001000
00010000
00100000
,
10000000
00000000
01000000
00000000
00100000
00100000
00000000
00000000
,
00010000
00100000
00001000
00000000
00010000
00000100
00001000
00000000
,
00000010
00010000
00001000
00000000
00010000
00010000
00000000
00000000
,
00001000
00000000
00000100
00000000
00000001
00000001
00000000
00000000
,
00000010
00000000
00001000
00000000
00010000
00010000
00000000
00000000
,
00001000
01000000
00010000
00100000
,
00010000
10000000
00010000
00000000
01100000
00000000
00000000
00000000
,
00010000
00100000
00001000
00010000
,
00001100
00000110
00001001
00000000
,
00000010
00000000
00001000
00000000
00000100
00010000
00001000
00000000
,
01000000
00000000
00010000
00000000
00100000
00010000
10000000
00000000
,
00100000
00100000
01000000
01000000
,
00001000
00000000
00000000
00001000
00000000
00000000
00010000
00000000
00010000
00000000
00000000
00000000
00000000
00000000
00000000
00000000
,
00001000
00010000
00000100
00000000
00001100
00000000
00000000
00000000
,
00000001
00000010
00000100
00000000
00000110
00000000
00000000
00000000
,
00000001
00000100
00001000
00010000
,
00100000
01000000
00100000
01000000
00010000
00000000
10000000
00000000
,
02000000
00000000
03020000
00000000
,
00032000
00000000
00013000
00011000
,
00000200
00000000
00000302
00000000
,
00000023
00000000
00000130
00000110
,
00001000
00000100
00001000
00000100
,
00010000
00001000
01000000
00010000
,
02200000
00000000
00000000
03300000
,
10100000
11000000
01010000
00000000
,
00001000
00010000
00001000
00010000
00000010
00000000
00001000
00000100
,
00001000
00000100
00000010
00000000
00000001
00000000
00001000
00000000
,
00000001
00000010
00001000
00000000
00010000
00100000
10000000
00000000
,
00010000
00100000
00001000
00010000
,
00001000
00000000
00000100
00000000
00000001
00000100
00001000
00000000
,
00010000
00000000
00001000
00000000
00010000
01000000
10000000
00000000
,
00100000
01000000
00100000
01000000
00010000
00000000
00100000
00000000
,
00101000
00011000
00001010
00000011
,
00001000
00000100
00001000
00000100
00010000
00000000
00001000
00000000
,
00010000
01000000
10000000
00100000
,
01000000
00010000
01000000
00010000
00100000
00000000
00001000
00000000
,
00010000
00001000
00010000
00000010
,
00001000
00000000
00001100
00000000
00000010
00000001
00000010
00000000
,
00000001
00000000
00000101
00000000
00000000
00001000
00000010
00000000
,
00001000
00000000
00001000
00000000
00000100
00010000
00000100
00000000
,
00010000
00000000
00001000
00100000
00001000
00010000
00000000
00000000
,
10000000
00100000
00010000
00001000
,
00010000
00010000
00002000
00000000
,
00010000
00000000
00013000
00000000
00000010
00000000
00000010
00001000
,
00000100
00000000
00000010
00000000
00000001
00000000
00001000
00000010
,
00010000
00000000
00001000
00000000
01000000
00000000
00010000
00100000
,
00010000
01000000
00100000
10000000
,
00010000
00100000
00010000
00100000
00001000
00000000
00010000
00001000
,
00000100
00000000
00000001
00000000
00001000
00000000
00000001
00000010
,
00001000
00010000
00011000
01100000
,
10000000
00000000
00000000
10000000
00000000
00000000
00010000
00000000
00010000
00000000
00000000
00000000
00000000
00000000
00000000
00000000
,
00100000
00001000
00010000
00000100
00001000
00000000
00000000
00000000
,
00000000
00000000
00000000
00000000
;
#NOTES:
     dance-double:
     :
     Hard:
     12:
     :
00000000
00000000
00000000
00000000
,
00000000
00000000
00000000
00000000
,
00000000
00000000
00000000
00000000
,
00000100
00000000
00000000
00000010
00001000
00000000
00000010
00000000
00010000
00000000
00000000
00000000
00011000
00000000
00000000
00000000
,
01000000
00000000
00010000
00100000
00010000
00000000
10100000
00000000
,
01000000
00000000
00000000
00100000
00010000
00000000
00100000
00000000
00001000
00000000
00000000
00000000
00011000
00000000
00000000
00000000
,
00000010
00000000
00001000
00000100
00000010
00000001
00000100
00001000
,
00010000
00000000
00000000
00001000
00010000
00000000
00001000
00000000
01000000
00000000
00000000
00000000
01010000
00000000
00000000
00000000
,
00100000
00000000
10000000
01000000
10000000
00000000
00100000
00000000
,
01000000
00010000
00000000
00000000
00100000
00001000
00000000
00000000
00010000
00000100
00000000
00000000
00001000
00000010
00000000
00000000
,
00000200
00000000
00000000
00000000
00000301
00000001
00001000
00001000
,
00000100
00010000
00000100
00000000
00100000
00001000
00100000
00000000
,
00010000
01000000
00010000
10000000
01000000
01000000
00000000
00000000
,
00100000
00010000
01000000
00001000
00010000
00010000
00001000
00001000
,
00000100
00000001
00001000
00000100
00010000
00020000
00030000
00000000
,
00001000
01000000
00001000
01000000
00010000
00010000
10000000
10000000
,
01000000
00100000
01000000
00100000
00010000
00100000
00000000
00002000
,
00000000
00013000
00010000
00000100
00000100
00001000
00000010
00000100
,
00000001
00001000
00000001
00000000
00001100
00000000
00000000
00000000
,
00010000
00000000
00000000
00001000
00010000
00000000
01000000
00000000
10000000
00000000
00100000
00000000
10000000
00000000
10000000
00000000
,
00010000
01000000
00001000
00010000
00001000
00000000
00000000
00000000
,
00010000
00000000
00000000
00001000
00010000
00000000
00000100
00000000
00001000
00000000
00000000
00000010
00001000
00000000
00000001
00000000
,
00000100
00000000
00000000
00000010
00001000
00000000
00000010
00000000
00010000
00000000
00000000
00000100
00001000
00000000
00000100
00000000
,
00010000
00000000
00001000
00000000
00010000
00000000
00100000
00000000
10000000
00000000
00000000
10000000
00000000
00000000
01000000
00000000
,
00010000
00000000
00000000
00010000
00000000
00000000
00001000
00000000
00001000
00000000
00000000
00000000
00011000
00000000
00000000
00000000
,
00010000
00001000
00000010
00000001
00000100
00000100
00000000
00000000
,
00000001
00000100
00001000
00010000
00010000
00000000
00000000
00002000
,
00000000
00103000
00010000
00100000
01000000
10000000
00100000
01000000
,
00010000
00100000
00001000
00010000
00001000
00000000
00010000
00000000
,
00001200
00001000
00000001
00000001
,
00000010
00000310
00001100
00011000
,
02010000
00010000
10000000
10000000
,
00100000
03100000
00110000
00011000
,
00001000
00001000
00000100
00000100
,
00000001
00000000
00000001
00000000
00001000
00000000
00001000
00002002
,
00000000
00000000
00000000
00003003
,
00011000
10010000
01100000
00000000
,
10000000
01000000
10000000
01000000
00100000
00000000
00010000
01000000
,
00001000
00010000
00001000
00000000
00010000
00001000
00000100
00000001
,
00000100
00000000
00000000
00000010
00000100
00000000
00000010
00000000
00001000
00000000
00000100
00000000
00010000
00000000
00001000
00000000
,
00011000
00000000
00100000
00000000
01100000
00000000
10000000
00020000
,
00000000
10030000
01000000
00010000
00001000
00000100
00000001
00002000
,
00000000
00003001
00000100
00001000
00010000
01000000
10000000
01000000
,
00100000
00010000
00100000
00001000
00100000
00000000
00001000
00010000
,
00000010
00001000
00000000
00000000
00000001
00000010
00000000
00000000
00000100
00001000
00000000
00000000
00000010
00010000
00000000
00000000
,
00001000
00000000
00010000
00000000
00001000
00000000
00100000
00000000
00010000
00000000
00000000
00010000
00000000
00000000
10000000
00000000
,
00100000
00000000
00000000
00100000
00000000
00000000
01000000
00000000
00010000
00000000
01000000
00000000
00001000
00000000
00000000
00000000
,
00010000
00000100
00010000
00000100
00002000
00000000
00003001
00000100
,
00000010
00001000
00000000
00000000
00000100
00010000
00000000
00000000
00001000
01000000
00000000
00000000
00010000
10000000
00000000
00000000
,
00100000
10000000
01000000
00100000
00010000
00100000
00001000
00010000
,
00002000
00000000
00003010
00000002
00000000
00001003
00000100
00000020
,
00000000
00000031
00000100
00001000
00020000
00000000
00031000
00020000
,
00000000
00130000
10000000
01000000
00010000
00010000
00000000
00002000
,
00000000
00013000
00001000
00010000
00000100
00001000
00000100
00000010
,
00000001
00000100
00002000
00000000
,
00013000
00000000
00001000
00000000
00010000
00000000
00001000
00000000
00100000
00000000
00000000
00010000
01000000
00000000
00010000
00000000
,
10000000
00000000
00000000
00000000
11000000
00000000
00000000
00000000
00010000
00000000
00000000
00100000
00010000
00000000
00100000
00000000
,
00001000
00000000
00000000
00000000
00011000
00000000
00000000
00000000
00010000
00000000
00000000
00000100
00001000
00000000
00000100
00000000
,
00000010
00000011
00001000
00000100
,
00010000
00000000
00001000
00000000
00100000
00000000
00010000
00000000
10000000
00000000
00000000
01000000
00100000
00000000
00010000
00000000
,
00100000
00000000
00000000
00000000
00011000
00000000
00000000
00000000
00000010
00000000
00000000
00001000
00000100
00000000
00001000
00000000
,
00000001
00000100
00001100
00011000
,
01010000
00000000
00000000
01010000
00000000
00000000
10000000
00000000
00020000
00000000
00000000
00000000
00000000
00000000
00000000
00000000
,
10030000
01000000
00010000
00001000
00010000
00000000
00000000
00000000
,
00000000
00000000
00000000
00000000
;
