
//----- song ID: riot -----//
#TITLE:Riot of Color;
#ARTIST:TAG;
#BANNER:Riot of Color.png;
#BACKGROUND:Riot of Color-bg.png;
#CDTITLE:./CDTitles/jubeat copious APPEND.png;
#MUSIC:Riot of Color.ogg;
#SAMPLESTART:78.298;
#SAMPLELENGTH:15;
#BPMS:0=150,132=75,164=150;
#NOTES:
     dance-single:
     :
     Beginner:
     4:
     :
0000
0000
0000
0000
,
0000
0000
0000
0000
,
0000
0000
0000
0000
,
0000
0000
0000
0000
,
0000
0000
0000
0000
,
0001
0000
0001
0000
,
1000
0000
1000
0000
,
0010
0000
0010
0000
,
0100
0000
0100
0000
,
0002
0000
0003
0000
,
0001
0000
0100
0000
,
2000
0000
3000
0000
,
0100
0100
0100
0000
,
0020
0000
0030
0000
,
0010
0000
1000
0000
,
2000
0000
3000
0000
,
0001
0001
0001
0000
,
1000
0000
0010
0000
,
1000
1000
1000
0000
,
0100
0000
0010
0000
,
0001
0001
0001
0000
,
0001
0000
0100
0000
,
0001
0001
0001
0000
,
0100
0000
0010
0000
,
1000
1000
1000
0000
,
0100
0000
0001
0000
,
1000
0000
0100
0000
,
0010
0000
0001
0000
,
1000
0000
0010
0000
,
0001
0000
1000
0000
,
0010
0000
0001
0000
,
0100
0000
0001
0000
,
1000
0000
0100
0000
,
1000
0000
1000
0000
,
0100
0000
0100
0000
,
0010
0000
0010
0000
,
0001
0000
0001
0000
,
0001
0010
0100
0000
,
1000
0010
0100
0000
,
0001
0100
0010
0000
,
1000
0100
0010
0000
,
0002
0000
0003
0000
,
0010
0010
0010
0000
,
1000
1000
1000
0000
,
0100
0100
0100
0000
,
1000
1000
0010
0000
,
0001
0001
0010
0000
,
1000
0000
0001
0000
,
1001
0000
0000
0000
,
0001
0000
0001
0000
,
1000
0000
1000
0000
,
0010
0000
0010
0000
,
0100
0000
0100
0000
,
0001
0000
0010
0000
,
0100
0000
1000
0000
,
1000
0000
0010
0000
,
0100
0000
0001
0000
,
0000
0000
0000
1001
0000
0000
0000
0000
,
0000
0000
0000
0000
;
#NOTES:
     dance-single:
     :
     Easy:
     8:
     :
0000
0000
0000
0000
,
0000
0000
0000
0000
,
0000
0000
0000
0000
,
0000
0000
0000
0000
,
0000
0000
0000
0000
,
0001
0000
0000
0001
0000
0000
1000
0000
,
0000
1000
0000
0000
0010
0100
0010
0000
,
1000
0000
0000
1000
0000
0000
0001
0000
,
0000
0001
0000
0000
0010
0100
0010
0000
,
0100
0000
0000
0200
0000
0000
0300
0000
,
0000
0100
0100
0000
1000
0000
0001
0000
,
0100
0000
0000
0200
0000
0000
0000
0000
,
0300
0010
1000
0001
,
0010
0000
0000
0020
0000
0000
0030
0000
,
0000
0100
0100
0000
1000
0000
0001
0000
,
0100
0000
0000
0100
0000
0000
0100
0000
,
0010
1000
1001
0000
,
0001
0100
0001
0100
,
0010
1000
0010
0000
1000
0000
0000
0000
,
1001
0000
1000
0100
,
0001
0100
1000
0000
,
1000
0100
1000
0100
,
0010
0001
0010
0000
0001
0000
0000
0000
,
1001
0000
0001
1000
,
0010
0100
0010
0000
0100
0000
0000
0000
,
0010
0000
0010
0000
0010
1000
0010
0000
,
0010
0000
0010
0000
0010
1000
0010
0000
,
0100
0000
0100
0000
0100
0001
0100
0000
,
0100
0000
0100
0000
0100
0001
0100
0000
,
0001
0000
0001
0000
0001
1000
0001
0000
,
0001
0000
0001
0000
0001
1000
0001
0000
,
1000
0001
1000
0000
0001
1000
0001
0000
,
1000
0100
0010
0001
,
1001
0000
0110
0100
,
1001
0000
1000
0000
0001
0010
0100
0000
,
1100
0000
0101
0001
,
1010
1010
0011
0011
,
1000
0100
1000
0000
0001
0100
0001
0000
,
1000
0010
1000
0000
0001
0010
0001
0000
,
1000
0010
0100
0000
0001
0010
0100
0000
,
1000
0001
0100
0000
0001
0001
0001
0000
,
0001
0010
0001
0100
,
0010
0000
1000
0000
0100
0010
0100
0000
,
1000
0010
0001
0010
,
1000
0010
0001
0010
,
1000
0000
0100
0000
1000
0100
1000
0000
,
0001
0000
0010
0000
0001
0010
0001
0000
,
0100
0000
0010
0000
0100
0010
0100
0000
,
0001
1000
1001
0000
,
0010
0000
0000
0010
0000
0000
1000
0000
,
0000
1000
0000
0000
0100
0000
0100
0000
,
0001
0000
0000
0001
0000
0000
0010
0000
,
0000
0010
0000
0000
1000
0000
1000
0000
,
0010
0000
0000
0001
0000
0000
0100
0000
,
0000
1000
0000
0000
0010
0000
0010
0000
,
1000
0000
0000
0100
0000
0000
0001
0000
,
0000
0010
0000
0000
1000
0000
1000
0000
,
0000
0000
0000
1001
0000
0000
0000
0000
,
0000
0000
0000
0000
;
#NOTES:
     dance-single:
     :
     Medium:
     12:
     :
0000
0000
0000
0000
,
0000
0000
0000
0000
,
0000
0000
0000
0000
,
0000
0000
0000
0000
,
0000
0000
0000
0000
,
0011
0000
0000
0011
0000
0000
0101
0000
0000
0101
0000
0000
0011
0000
0000
0011
,
0000
0000
0101
0000
0000
0101
0000
0000
0001
0000
1000
0000
0001
0000
0000
0000
,
1010
0000
0000
1010
0000
0000
1100
0000
0000
1100
0000
0000
1010
0000
0000
1010
,
0000
0000
1100
0000
0000
1100
0000
0000
1000
0000
0100
0000
0010
0000
0001
0000
,
1000
0000
0000
0010
0000
0000
2002
0000
0000
0000
0000
0000
0000
0000
0000
0000
,
3003
0000
0001
0000
0010
0000
0000
0110
0000
0000
1000
0000
0001
0000
0100
0000
,
0001
0000
0000
1000
0000
0000
2002
0000
0000
0000
0000
0000
0000
0000
0000
0000
,
3003
0001
0010
0001
0100
0010
1000
0010
,
1000
0000
0000
0100
0000
0000
2002
0000
0000
0000
0000
0000
0000
0000
0000
0000
,
3003
0000
1000
0000
0100
0000
0000
0110
0000
0000
0001
0000
0010
0000
0001
0000
,
1000
0000
0000
0001
0000
0000
1001
0000
0000
0000
0000
0000
0110
0000
0000
0000
,
1000
0000
0000
1010
0000
0000
0110
0000
0101
0000
0000
0000
1001
0000
0000
0000
,
0001
0000
0000
0100
0000
0010
0000
0100
0000
0000
0010
0000
1000
0000
0100
0000
,
0010
0000
0000
0001
0000
1000
0000
0002
0000
0000
0000
0000
0003
0000
1000
0000
,
2000
0000
3000
1000
0010
0100
0010
0100
,
0001
0000
0000
1000
0000
0000
0001
0000
2002
0000
0000
0000
3003
0000
0000
0000
,
1000
0000
0000
0001
0000
0100
0000
0001
0000
0000
1000
0000
0010
0000
0100
0000
,
0001
0000
0000
0010
0000
0100
0000
0020
0000
0000
0000
0000
0030
0000
0001
0000
,
0002
0000
0003
0001
0100
0010
1000
0010
,
1000
0000
0000
0001
0000
0000
1000
0000
2002
0000
0000
0000
3003
0000
0000
0000
,
0001
0100
0010
1000
0001
0100
0010
1000
,
0001
0000
0100
0000
0001
0000
0010
0000
0100
1000
0100
0000
1000
0000
0000
0000
,
0010
0100
0001
1000
0010
0100
0001
1000
,
0010
0000
1000
0000
0001
0000
0010
0000
0001
0100
0001
0000
0010
0000
0000
0000
,
0001
0010
1000
0010
0001
1000
0100
1000
,
0010
0000
0100
0000
0001
0000
1000
0000
0100
0010
0100
0000
1000
0000
0000
0000
,
0001
0100
0010
1000
0100
0010
0001
0010
,
1000
0000
0010
0000
0001
0000
0100
0000
0010
1000
0010
0000
0100
0000
0001
0000
,
2000
3100
0020
0031
,
0002
0013
0200
1300
,
1000
0001
0100
0010
1000
0100
0010
0100
,
2000
0000
0000
0001
3001
0000
0000
0000
0002
0000
0000
0100
0103
0000
0000
0000
,
1000
0000
0000
0010
0000
0000
0200
0000
0000
0000
0000
0000
0000
0000
0000
0000
0300
0000
0001
0000
0001
0010
0000
0100
0000
0100
1000
0000
1000
0000
0001
0000
,
0100
0000
0000
0010
0000
0000
0200
0000
0000
0000
0000
0000
0000
0000
0000
0000
0300
0000
1000
0000
0100
0000
0001
0000
0010
0000
1000
0000
0010
0000
0000
0000
,
0001
0000
0000
0010
0000
0000
0200
0000
0000
0000
0000
0000
0000
0000
0000
0000
0300
0000
1000
0000
1000
0010
0000
0100
0000
0100
0001
0000
1000
0000
0001
0000
,
0100
0000
0000
0010
0000
0000
0200
0000
0000
0000
0000
0000
0310
0000
0000
0000
1000
0000
0000
0001
0000
0000
1000
0000
2002
0000
0000
0000
3003
0000
0000
0000
,
1000
0100
0010
0100
1000
0100
0010
0001
,
0100
0000
1000
0000
0100
0000
0001
0000
1000
0000
0000
0010
0000
0000
1000
0000
,
0000
1000
0100
0000
0010
0000
0001
0000
1000
0000
0100
0000
0010
0000
0001
0000
,
0100
0010
1000
0001
0200
0000
0300
0000
,
0001
0010
0001
0010
1000
0010
1000
0010
,
0001
0010
1000
0010
0001
0100
1000
0100
,
0010
0000
0000
1000
0000
0000
0010
0000
0000
0000
0100
0000
0001
0000
0100
0000
,
0010
0000
0000
0010
0000
0000
0010
0000
2000
0000
0000
0000
3001
0000
0000
0000
,
0011
0000
0000
1010
0000
0000
0011
0000
0000
1010
0000
0000
0011
0000
0000
1010
,
0000
0000
0011
0000
0000
1010
0000
0000
0001
0000
0001
0000
1000
0000
0100
0000
,
1100
0000
0000
0101
0000
0000
1100
0000
0000
0101
0000
0000
1100
0000
0000
0101
,
0000
0000
1100
0000
0000
0101
0000
0000
1000
0000
1000
0000
0001
0000
0010
0000
,
0001
0100
0000
0001
0000
0000
1000
0100
0000
1000
0000
0000
0001
0100
0000
0001
,
0000
0000
1000
0100
0000
1000
0000
0000
0001
0000
0010
0000
0100
0000
1000
0000
,
0001
0010
0000
0001
0000
0000
1000
0010
0000
1000
0000
0000
0001
0010
0000
0001
,
0000
0000
1000
0010
0000
1000
0000
0000
0001
0000
1000
0000
0010
0000
0100
0000
,
0000
0000
0000
2002
0000
0000
0000
0000
,
0000
0000
0000
0000
,
3003
0000
0000
0000
,
0000
0000
0000
0000
;
#NOTES:
     dance-single:
     :
     Hard:
     16:
     :
0000
0000
0000
0000
,
0000
0000
0000
0000
,
0000
0000
0000
0000
,
0000
0000
0000
0000
,
0000
0000
0000
0000
,
1000
0100
0000
0011
0000
0000
0001
0100
0000
1010
0000
0000
1000
0100
0000
0011
,
0000
0000
0001
0100
0000
1010
0000
0000
0001
0000
0100
0000
1000
0000
0100
0000
,
0001
0010
0000
1100
0000
0000
1000
0010
0000
0101
0000
0000
0001
0010
0000
1100
,
0000
0000
1000
0010
0000
0101
0000
0000
1000
0000
0100
0000
0001
0000
0100
0000
,
2000
0000
0000
3020
0000
0000
0230
0000
0000
0000
0000
0000
0000
0000
0000
0000
,
0300
0000
0010
0100
0010
1000
0000
0001
0000
0001
0100
0000
0001
0000
0010
0000
,
0200
0000
0000
2300
0000
0000
3002
0000
0000
0000
0000
0000
0000
0000
0000
0000
,
0003
0000
1000
0100
0010
0100
0010
0001
1000
0100
0010
0001
1000
0100
0010
0001
,
0200
0000
0000
2300
0000
0000
3200
0000
0000
0000
0000
0000
0000
0000
0000
0000
,
0300
0000
0001
0100
0001
0010
0000
0001
0000
0001
0100
0000
1000
0000
0100
0000
,
0002
0000
0000
0023
0000
0000
0230
0000
0000
0000
0000
0000
0310
0000
0000
0000
,
0110
0000
0000
1001
0000
0000
0001
0000
2000
0000
0000
0000
3002
0000
0000
0000
,
1003
0000
0010
0100
0000
0100
0000
0110
0000
1000
0100
0010
0100
0010
0100
0001
,
0100
0000
0100
1000
0000
0010
0000
2002
0000
0000
0000
0000
3003
0000
0100
0001
,
0200
0000
0000
0000
0300
0000
0010
0100
1000
0100
1000
0100
0010
0100
0010
0001
,
0010
0000
0000
0100
0000
0000
0110
0000
2002
0000
0000
0000
3003
0000
0000
0000
,
0001
0000
0100
0010
0000
0010
0000
0110
0000
1000
0100
0010
0100
0010
0001
0010
,
0100
0000
0100
0010
0000
0010
0000
2200
0000
0000
0000
0000
3300
0000
0001
0100
,
0002
0000
0000
0000
0003
0000
1000
0010
0100
0010
0100
0001
1000
0010
0100
0001
,
1000
0000
0000
1000
0000
0000
0010
0000
0220
0000
0000
0000
0330
0000
0000
0000
,
1000
0000
0100
0010
0100
0000
1000
0000
0010
0100
0010
0000
1000
0000
0100
0001
,
0100
0000
1000
0000
0010
0001
0010
0000
1000
0100
0010
0001
0100
0010
1000
0000
,
0001
0000
0100
0010
0100
0000
0001
0000
0010
0100
0010
0000
0001
0000
0100
1000
,
0100
0000
0001
0000
0010
1000
0010
0000
0001
0100
0010
1000
0100
0010
0001
0000
,
1000
0000
0100
0001
0100
0000
1000
0000
0010
0100
1000
0000
0100
0000
0010
1000
,
0100
0000
0001
0000
0100
1000
0100
0000
1000
0010
0100
0001
0010
0100
1000
0000
,
0001
0000
0100
1000
0100
0000
0001
0000
0010
0100
0001
0000
0100
0000
0010
0001
,
0100
0000
1000
0000
0100
0001
0100
0000
0001
0010
0100
1000
0010
0100
0001
0010
,
0200
0000
0000
0000
1300
0001
0000
0001
0020
0000
0000
0000
0032
0000
0000
0000
,
0203
0000
0000
0010
0010
0000
0000
0000
0320
0000
2030
0000
3002
0000
0203
0000
,
0320
0000
0000
0000
1030
0001
0000
0001
0200
0000
0000
0000
0001
0000
0010
0000
,
0310
0000
0000
0000
0000
0000
1000
0000
0001
0000
0000
0000
0000
0000
0000
0000
0100
0000
0000
0010
0000
0000
1000
0000
0001
0000
0000
0000
0000
0000
0000
0000
,
1000
0000
0000
0010
0000
0000
0220
0000
0000
0000
0000
0000
0000
0000
0000
0000
0330
0000
0001
0010
0100
0001
0000
0100
0000
0100
0010
0000
0001
0000
1000
0000
,
0010
0000
0000
1000
0000
0000
2002
0000
0000
0000
0000
0000
0000
0000
0000
0000
3003
0000
0001
0100
0010
1000
0001
0010
0100
1000
0010
0100
0001
0100
0010
1000
,
0001
0000
0000
0100
0000
0000
0220
0000
0000
0000
0000
0000
0000
0000
0000
0000
0330
0000
1000
0100
0010
1000
0000
0010
0000
0010
0100
0000
1000
0000
0001
0000
,
0100
0000
0000
0001
0000
0000
1001
0000
0000
0000
0000
0000
0110
0000
0000
0000
0001
0010
0001
1000
0100
1000
0001
0010
0100
0000
0000
0000
1001
0000
0000
0000
,
0002
0000
0000
0000
0000
0000
0000
0000
0000
0000
0000
0000
0000
0000
1003
0100
,
1000
0000
0000
0000
0000
0000
0000
0000
0000
0000
0000
0000
0000
0000
0000
0000
0000
0000
0010
0000
0100
0000
0010
0000
0100
0000
0000
0000
0000
0000
0000
0000
0000
0001
0000
0000
0000
0000
0000
0000
0000
0000
1000
0000
0000
0000
0000
0000
,
0000
0001
0010
0001
0100
0010
0100
0010
1000
0100
1000
0100
0010
0001
0010
0100
,
1000
0010
0100
0010
1000
0001
0100
0001
2000
0000
0000
0000
3000
0000
0000
0000
,
0001
0100
0010
0100
0001
0100
0010
1000
0100
0010
0100
1000
0100
0010
0001
1000
,
0001
0100
0001
0100
0010
1000
0010
1000
0100
0010
0001
0100
0010
1000
0100
0000
,
0010
0000
0000
0001
0000
0000
1001
0000
0000
0000
0010
0000
0100
0000
0010
0000
,
1000
0000
0000
0001
0000
0000
1000
0000
1001
0000
0000
0000
0110
0000
0000
0000
,
1000
0010
0000
0101
0000
0000
0001
0010
0000
1100
0000
0000
1000
0010
0000
0101
,
0000
0000
0001
0010
0000
1100
0000
0000
0001
0000
0010
0000
1000
0000
0010
0000
,
0001
0100
0000
0100
0010
0000
0010
1000
0000
1000
0100
0000
0100
0010
0000
0010
,
0001
0000
0001
0100
0000
0100
0010
0000
1000
0000
0010
0000
0001
0000
0010
0000
,
1000
0010
1000
0001
0010
0001
1000
0100
1000
0001
0100
0001
1000
0010
1000
0001
,
0010
0001
1000
0100
1000
0001
0100
0001
1000
0010
0100
0010
0100
0001
1000
0000
,
0001
0010
0100
1000
0100
0010
0001
0100
0010
1000
0010
0100
0001
0010
0100
1000
,
0010
0100
0001
0010
0100
1000
0010
0100
0001
0010
1000
0010
0001
0100
0010
1000
,
0000
0000
0000
2002
0000
0000
0000
0000
,
0000
0000
0000
0000
,
3003
0000
0000
0000
,
0000
0000
0000
0000
;
#NOTES:
     dance-double:
     :
     Easy:
     8:
     :
00000000
00000000
00000000
00000000
,
00000000
00000000
00000000
00000000
,
00000000
00000000
00000000
00000000
,
00000000
00000000
00000000
00000000
,
00000000
00000000
00000000
00000000
,
10000000
00000000
00000000
00010000
00000000
00000000
10000000
00000000
,
00000000
00010000
00000000
00000000
00100000
00000000
00001000
00000000
,
00010000
00000000
00000000
00001000
00000000
00000000
00010000
00000000
,
00000000
00001000
00000000
00000000
00010000
00000000
00000100
00000000
,
00001000
00000000
00000000
00002000
00000000
00000000
00003000
00000000
,
00000000
00000001
00000001
00000000
00000100
00000000
00000010
00000000
,
00010000
00000000
00000000
00002000
00000000
00000000
00000000
00000000
,
00003000
00010000
00001000
01000000
,
00010000
00000000
00000000
00020000
00000000
00000000
00030000
00000000
,
00000000
10000000
10000000
00000000
01000000
00000000
00100000
00000000
,
00010000
00000000
00000000
00010000
00000000
00000000
00010000
00000000
,
01000000
00001000
00011000
00000000
,
00000100
00001000
00000100
00001000
,
00000010
00001000
00000010
00000000
00001000
00000000
00000000
00000000
,
00001001
00000000
00000001
00000100
,
00001000
00010000
00100000
00000000
,
01000000
00010000
01000000
00010000
,
00100000
00010000
00100000
00000000
00010000
00000000
00000000
00000000
,
10010000
00000000
00100000
00001000
,
00010000
00001000
00010000
00000000
00001000
00000000
00000000
00000000
,
00000100
00000010
00000001
00000010
,
00000100
00000000
00010000
00000000
00001000
00010000
00001000
00000000
,
01000000
00100000
10000000
00100000
,
01000000
00000000
00001000
00000000
00010000
00001000
00010000
00000000
,
00000100
00000010
00000001
00000100
,
00000010
00000000
00010000
00000000
00001000
00010000
00001000
00000000
,
00010000
01000000
10000000
01000000
,
00100000
00010000
00100000
00001000
,
00011000
00000000
00000100
00000100
,
00000010
00000000
00000010
00000000
00000001
00000100
00000001
00000000
,
00001000
00000000
00010000
00000000
,
01000000
00100000
10000000
00010000
,
10000000
00100000
10000000
00000000
01000000
00000000
00010000
00000000
,
00001000
00010000
00001000
00000000
00000010
00000000
00000001
00000000
,
00001000
00000100
00001000
00000000
00000001
00000000
00000100
00000000
,
00001000
00010000
00001000
00000000
00022000
00000000
00033000
00000000
,
00001000
01000000
00010000
01000000
,
00100000
00000000
01000000
00000000
00100000
10000000
00100000
00000000
,
10000000
01000000
00100000
00010000
,
00100000
00001000
00011000
00000000
,
00000100
00000000
00001000
00000000
00000010
00000100
00000010
00000000
,
00000100
00000000
00000001
00000000
00000010
00000100
00000010
00000000
,
00000100
00001000
00000100
00010000
,
00001000
00010000
00011000
00000000
,
00100000
00000000
00000000
00010000
00000000
00000000
10000000
00000000
,
00000000
01000000
00000000
00000000
00100000
00000000
00100000
00000000
,
00001000
00000000
00000000
00010000
00000000
00000000
00000010
00000000
,
00000000
00001000
00000000
00000000
00000001
00000000
00000001
00000000
,
00000100
00000000
00000000
00001000
00000000
00000000
00010000
00000000
,
00000000
00100000
00000000
00000000
10000000
00000000
10000000
00000000
,
01000000
00000000
00000000
00010000
00000000
00000000
00001000
00000000
,
00000000
00000010
00000000
00000000
00000001
00000000
00000001
00000000
,
00000000
00000000
00000000
00001001
00000000
00000000
00000000
00000000
,
00000000
00000000
00000000
00000000
;
#NOTES:
     dance-double:
     :
     Medium:
     12:
     :
00000000
00000000
00000000
00000000
,
00000000
00000000
00000000
00000000
,
00000000
00000000
00000000
00000000
,
00000000
00000000
00000000
00000000
,
00000000
00000000
00000000
00000000
,
00100000
00000000
00000000
10100000
00000000
00000000
10000000
00000000
00000000
11000000
00000000
00000000
00100000
00000000
00000000
00101000
,
00000000
00000000
00001000
00000000
00000000
00011000
00000000
00000000
00000100
00000000
00001000
00000000
00000010
00000000
00000000
00000000
,
00000010
00000000
00000000
00000011
00000000
00000000
00000001
00000000
00000000
00000101
00000000
00000000
00000010
00000000
00000000
00010010
,
00000000
00000000
00010000
00000000
00000000
00011000
00000000
00000000
01000000
00000000
00010000
00000000
00100000
00000000
00000000
00000000
,
01000000
00000000
00000000
00100000
00000000
00000000
20020000
00000000
00000000
00000000
00000000
00000000
00000000
00000000
00000000
00000000
,
30030000
00000000
00100000
00000000
00001000
00000000
00000000
00011000
00000000
00000000
00000100
00000000
00001000
00000000
00000010
00000000
,
00000100
00000000
00000000
00000001
00000000
00000000
00002002
00000000
00000000
00000000
00000000
00000000
00000000
00000000
00000000
00000000
,
00003003
00000100
00000010
00010000
00001000
00010000
00000100
00000010
,
00000001
00000000
00000000
00000100
00000000
00000000
00002002
00000000
00000000
00000000
00000000
00000000
00000000
00000000
00000000
00000000
,
00003003
00000000
00000010
00000000
00010000
00000000
00000000
00011000
00000000
00000000
01000000
00000000
00010000
00000000
00100000
00000000
,
00010000
00000000
00000000
01000000
00000000
00000000
01100000
00000000
00000000
00000000
00000000
00000000
10010000
00000000
00000000
00000000
,
10000000
00000000
00000000
01000000
00000000
00000000
00010000
00000000
00001000
00000000
00000000
00000000
00011000
00000000
00000000
00000000
,
00010000
00000000
00000000
00000100
00000000
00000010
00000000
00000100
00000000
00000000
00001000
00000000
00000001
00000000
00000010
00000000
,
00001000
00000000
00000000
00010000
00000000
00001000
00000000
00020000
00000000
00000000
00000000
00000000
00030000
00000000
00001000
00000000
,
00002000
00000000
00003000
00010000
01000000
10000000
01000000
10000000
,
00010000
00000000
00000000
10000000
00000000
00000000
00010000
00000000
20020000
00000000
00000000
00000000
30030000
00000000
00000000
00000000
,
10000000
00000000
00000000
00100000
00000000
01000000
00000000
00100000
00000000
00000000
10000000
00000000
01000000
00000000
00010000
00000000
,
00001000
00000000
00000000
00000010
00000000
00000100
00000000
00000020
00000000
00000000
00000000
00000000
00000030
00000000
00000001
00000000
,
00000002
00000000
00000003
00000001
00000100
00001000
00000100
00001000
,
00010000
00000000
00000000
00001000
00000000
00000000
00010000
00000000
00022000
00000000
00000000
00000000
00033000
00000000
00000000
00000000
,
00100000
00010000
10000000
01000000
00100000
00010000
10000000
01000000
,
00100000
00000000
00001000
00000000
00010000
00000000
00000100
00000000
00001000
00000100
00001000
00000000
00000001
00000000
00000000
00000000
,
00001000
00000010
00000100
00000001
00001000
00000010
00000100
00000001
,
00001000
00000000
00000010
00000000
00010000
00000000
00001000
00000000
00100000
00010000
00100000
00000000
00010000
00000000
00000000
00000000
,
10000000
01000000
00010000
01000000
10000000
00100000
01000000
00001000
,
00010000
00000000
00000100
00000000
00000001
00000000
00000100
00000000
00001000
00000001
00001000
00000000
00000100
00000000
00000000
00000000
,
00001000
00000010
00000001
00000010
00001000
00000010
00010000
00001000
,
00010000
00000000
01000000
00000000
10000000
00000000
00010000
00000000
00100000
01000000
00100000
00000000
00010000
00000000
01000000
00000000
,
00200000
00310000
00020000
00031000
,
00002000
00000000
00003100
00000000
00000100
00000001
00000010
00000001
,
00002000
00003100
00020000
00031000
,
00200000
00000000
00000000
00001000
00301000
00000000
00000000
00000000
00020000
00000000
00000000
01000000
01030000
00000000
00000000
00000000
,
10000000
00000000
00000000
01000000
00000000
00000000
20000000
00000000
00000000
00000000
00000000
00000000
00000000
00000000
00000000
00000000
30000000
00000000
00010000
00000000
00010000
00100000
00000000
00001000
00000000
00001000
00010000
00000000
00010000
00000000
00000010
00000000
,
00001000
00000000
00000000
00000100
00000000
00000000
00000020
00000000
00000000
00000000
00000000
00000000
00000000
00000000
00000000
00000000
00000030
00000000
00001000
00000000
00010000
00000000
00001000
00000000
00000100
00000000
00000001
00000000
00000100
00000000
00000000
00000000
,
00000001
00000000
00000000
00000100
00000000
00000000
00000002
00000000
00000000
00000000
00000000
00000000
00000000
00000000
00000000
00000000
00000003
00000000
00001000
00000000
00001000
00000010
00000000
00010000
00000000
00010000
00001000
00000000
01000000
00000000
00010000
00000000
,
00100000
00000000
00000000
01000000
00000000
00000000
00200000
00000000
00000000
00000000
00000000
00000000
00301000
00000000
00000000
00000000
00010000
00000000
00000000
00001000
00000000
00000000
00010000
00000000
00022000
00000000
00000000
00000000
00033000
00000000
00000000
00000000
,
00001000
00000010
00000100
00000010
00000001
00000100
00000010
00001000
,
00000100
00000000
00001000
00000000
00000100
00000000
00010000
00000000
00001000
00000000
00000000
00010000
00000000
00000000
00001000
00000000
,
00000000
00001000
01000000
00000000
00010000
00000000
00100000
00000000
01000000
00000000
10000000
00000000
01000000
00000000
00010000
00000000
,
00001000
00010000
00001000
00000010
00000002
00000000
00000003
00000000
,
00000001
00000100
00001000
00000100
00000001
00000100
00001000
00010000
,
00100000
10000000
00100000
00010000
00100000
10000000
00010000
00000000
,
10000000
00000000
00000000
01000000
00000000
00000000
00100000
00000000
00000000
00000000
00100000
00000000
00001000
00000000
00010000
00000000
,
00001000
00000000
00000000
00001000
00000000
00000000
00001000
00000000
00020000
00000000
00000000
00000000
00031000
00000000
00000000
00000000
,
00000100
00000000
00000000
00001100
00000000
00000000
00000010
00000000
00000000
00000011
00000000
00000000
00001000
00000000
00000000
00001010
,
00000000
00000000
00000001
00000000
00000000
00000101
00000000
00000000
00001000
00000000
00000100
00000000
00010000
00000000
00000000
00000000
,
00001000
00000000
00000000
01001000
00000000
00000000
00100000
00000000
00000000
00110000
00000000
00000000
00001000
00000000
00000000
00101000
,
00000000
00000000
01000000
00000000
00000000
01010000
00000000
00000000
00100000
00000000
10000000
00000000
00100000
00000000
10000000
00000000
,
00010000
01000000
00000000
00010000
00000000
00000000
00100000
00001000
00000000
00010000
00000000
00000000
00000100
00001000
00000000
00000010
,
00000000
00000000
00000100
00000001
00000000
00000100
00000000
00000000
00000001
00000000
00000100
00000000
00000010
00000000
00001000
00000000
,
00000010
00001000
00000000
00000100
00000000
00000000
00010000
00001000
00000000
00100000
00000000
00000000
00010000
01000000
00000000
00100000
,
00000000
00000000
10000000
00100000
00000000
10000000
00000000
00000000
01000000
00000000
00100000
00000000
00001000
00000000
00010000
00000000
,
00000000
00000000
00000000
00022000
00000000
00000000
00000000
00000000
,
00000000
00000000
00000000
00000000
,
00033000
00000000
00000000
00000000
,
00000000
00000000
00000000
00000000
;
#NOTES:
     dance-double:
     :
     Hard:
     16:
     :
00000000
00000000
00000000
00000000
,
00000000
00000000
00000000
00000000
,
00000000
00000000
00000000
00000000
,
00000000
00000000
00000000
00000000
,
00000000
00000000
00000000
00000000
,
00000001
00000010
00000000
00001100
00000000
00000000
00000001
00000100
00000000
00001010
00000000
00000000
00000010
00001000
00000000
00010100
,
00000000
00000000
00001000
00100000
00000000
01010000
00000000
00000000
00100000
00000000
00010000
00000000
10000000
00000000
01000000
00000000
,
10000000
01000000
00000000
00110000
00000000
00000000
10000000
00100000
00000000
01010000
00000000
00000000
01000000
00010000
00000000
00101000
,
00000000
00000000
00010000
00000100
00000000
00001010
00000000
00000000
00000100
00000000
00001000
00000000
00000001
00000000
00000010
00000000
,
00000002
00000000
00000000
00000203
00000000
00000000
00000320
00000000
00000000
00000000
00000000
00000000
00000000
00000000
00000000
00000000
,
00000030
00000000
00001000
00000100
00010000
00000100
00000000
00010000
00000000
00010000
00001000
00000000
00100000
00000000
00010000
00000000
,
02000000
00000000
00000000
23000000
00000000
00000000
32000000
00000000
00000000
00000000
00000000
00000000
00000000
00000000
00000000
00000000
,
03000000
00000000
00010000
00100000
01000000
00100000
01000000
10000000
01000000
00100000
00001000
00010000
00001000
00010000
00000100
00001000
,
00000020
00000000
00000000
00000230
00000000
00000000
00000302
00000000
00000000
00000000
00000000
00000000
00000000
00000000
00000000
00000000
,
00000003
00000000
00000100
00000010
00001000
00000010
00000000
00000100
00000000
00000100
00001000
00000000
00010000
00000000
00100000
00000000
,
02000000
00000000
00000000
03020000
00000000
00000000
00230000
00000000
00000000
00000000
00000000
00000000
01300000
00000000
00000000
00000000
,
01100000
00000000
00000000
10010000
00000000
00000000
00100000
00000000
02000000
00000000
00000000
00000000
03002000
00000000
00000000
00000000
,
00103000
00000000
00001000
00010000
00000000
00010000
00000000
00011000
00000000
00010000
00000100
00001000
00000100
00000010
00000100
00000001
,
00000100
00000000
00000100
00001000
00000000
00000010
00000000
00001000
00000000
00000000
00000000
00000000
00000000
00000000
00000001
00001000
,
00000001
00000000
00000000
00000000
00000000
00000000
00000001
00000010
00000100
00000010
00000100
00001000
00000100
00010000
00001000
00010000
,
00001000
00000000
00000000
01000000
00000000
00000000
00001000
00000000
00011000
00000000
00000000
00000000
00000000
00000000
00000000
00000000
,
00000010
00000000
00010000
00001000
00000000
00001000
00000000
00011000
00000000
00001000
01000000
00010000
01000000
10000000
01000000
00100000
,
01000000
00000000
01000000
00010000
00000000
10000000
00000000
10010000
00000000
00000000
00000000
00000000
00000000
00000000
01000000
00100000
,
01000000
00000000
00000000
00000000
00000000
00000000
00100000
10000000
00010000
01000000
00001000
00010000
00001000
00010000
00000100
00001000
,
00000010
00000000
00000000
00000100
00000000
00000000
00000001
00000000
00001001
00000000
00000000
00000000
00000000
00000000
00000000
00000000
,
00000001
00000000
00000100
00000010
00000100
00000000
00000001
00000000
00000010
00001000
00000010
00000000
00001000
00000000
00010000
00001000
,
00010000
00000000
00001000
00000000
00010000
01000000
00010000
00000000
01000000
10000000
01000000
10000000
00100000
01000000
00010000
00000000
,
10000000
00000000
00100000
01000000
00100000
00000000
10000000
00000000
01000000
00010000
01000000
00000000
00010000
00000000
00001000
00010000
,
00001000
00000000
00010000
00000000
00001000
00000010
00001000
00000000
00000010
00000001
00000010
00000001
00000100
00000010
00001000
00000000
,
00000001
00000000
00000100
00001000
00000100
00000000
00000001
00000000
00000010
00000100
00000001
00000000
00000100
00000000
00010000
00001000
,
00100000
00000000
00010000
00000000
01000000
10000000
01000000
00000000
00010000
00100000
01000000
00010000
01000000
00100000
00010000
00000000
,
10000000
00000000
00100000
00010000
00100000
00000000
10000000
00000000
01000000
00100000
10000000
00000000
00100000
00000000
00001000
00010000
,
00000100
00000000
00001000
00000000
00000010
00000001
00000010
00000000
00001000
00000100
00000010
00001000
00000010
00000100
00001000
00000000
,
00000002
00000000
00000000
00000000
00000013
00000100
00000000
00000100
00020000
00000000
00000000
00000000
00032000
00000000
00000000
00000000
,
02003000
00000000
00000000
00100000
00100000
00000000
00000000
00000000
03200000
00000000
20300000
00000000
30020000
00000000
02030000
00000000
,
03002000
00000000
00000000
00000000
00013000
00000100
00000000
00000100
00002000
00000000
00000000
00000000
00000010
00000000
00003001
00000000
,
00000001
00000000
00000000
00000000
00000000
00000000
00001000
00000000
00000100
00000000
00000000
00000000
00000000
00000000
00000000
00000000
00010000
00000000
00000000
00001000
00000000
00000000
00010000
00000000
00011000
00000000
00000000
00000000
00000000
00000000
00000000
00000000
,
00100000
00000000
00000000
00010000
00000000
00000000
20020000
00000000
00000000
00000000
00000000
00000000
00000000
00000000
00000000
00000000
30030000
00000000
00100000
01000000
10000000
01000000
00000000
00010000
00000000
00010000
00100000
00000000
00010000
00000000
00001000
00000000
,
00000100
00000000
00000000
00000010
00000000
00000000
00002002
00000000
00000000
00000000
00000000
00000000
00000000
00000000
00000000
00000000
00003003
00000000
00000001
00000100
00000001
00001000
00000010
00010000
00001000
01000000
00010000
00100000
01000000
10000000
01000000
00100000
,
00010000
00000000
00000000
01000000
00000000
00000000
02200000
00000000
00000000
00000000
00000000
00000000
00000000
00000000
00000000
00000000
03300000
00000000
10000000
01000000
00100000
01000000
00000000
00001000
00000000
00001000
00010000
00000000
00000010
00000000
00000100
00000000
,
00000001
00000000
00000000
00001000
00000000
00000000
00001001
00000000
00000000
00000000
00000000
00000000
00000110
00000000
00000000
00000000
00000001
00000010
00000100
00010000
00001000
00100000
01000000
10000000
00010000
00000000
00000000
00000000
10010000
00000000
00000000
00000000
,
00200000
00000000
00000000
00000000
00000000
00000000
00000000
00000000
00000000
00000000
00000000
00000000
00000000
00000000
00310000
00001000
,
00010000
00000000
00000000
00000000
00000000
00000000
00000000
00000000
00000000
00000000
00000000
00000000
00000000
00000000
00000000
00000000
00000000
00000000
00000100
00000000
00000010
00000000
00000100
00000000
00000010
00000000
00000000
00000000
00000000
00000000
00000000
00000000
00000000
00000001
00000000
00000000
00000000
00000000
00000000
00000000
00000000
00000000
00001000
00000000
00000000
00000000
00000000
00000000
,
00000000
00000001
00000010
00000100
00000010
00000100
00001000
00000100
00010000
00001000
01000000
00010000
00100000
00010000
01000000
00100000
,
10000000
01000000
00100000
00010000
01000000
00010000
00100000
00001000
00010000
00000000
00000000
00000000
00000000
00000000
00000000
00000000
,
00000001
00000010
00000100
00000010
00000001
00000010
00000100
00001000
00000010
00010000
00001000
00010000
00000010
00010000
00001000
01000000
,
00010000
00100000
01000000
10000000
00010000
00100000
01000000
10000000
00100000
01000000
00100000
01000000
00010000
01000000
00001000
00010000
,
00001000
00000000
00000000
00010000
00000000
00000000
00011000
00000000
00000000
00000000
01000000
00000000
00010000
00000000
00001000
00000000
,
00000010
00000000
00000000
00000001
00000000
00000000
00000100
00000000
00000010
00000000
00000000
00000000
00000110
00000000
00000000
00000000
,
00000001
00000100
00000000
00001010
00000000
00000000
00000001
00000010
00000000
00001100
00000000
00000000
00000100
00001000
00000000
00010010
,
00000000
00000000
00001000
01000000
00000000
00110000
00000000
00000000
01000000
00000000
00010000
00000000
10000000
00000000
00100000
00000000
,
10000000
00100000
00000000
00100000
01000000
00000000
01000000
10000000
00000000
10000000
01000000
00000000
01000000
00010000
00000000
00010000
,
00001000
00000000
00001000
00000010
00000000
00000010
00000100
00000000
00000010
00000000
00001000
00000000
00000001
00000000
00000100
00000000
,
00000001
00000100
00000010
00000100
00000010
00001000
00000100
00010000
00001000
00010000
00001000
00100000
00010000
01000000
00100000
01000000
,
00100000
10000000
01000000
10000000
00010000
10000000
00010000
01000000
00100000
10000000
00100000
10000000
00010000
01000000
00010000
00000000
,
10000000
01000000
00100000
00001000
01000000
00010000
00100000
00001000
00010000
00000100
00001000
00000010
00000100
00000001
00000010
00000100
,
00010000
00001000
00100000
00010000
01000000
00100000
10000000
01000000
00100000
01000000
00010000
00001000
00010000
00000100
00001000
00000010
,
00000000
00000000
00000000
00002002
00000000
00000000
00000000
00000000
,
00000000
00000000
00000000
00000000
,
00003003
00000000
00000000
00000000
,
00000000
00000000
00000000
00000000
;
