
//----- song ID: redc -----//
#TITLE:Red Cape Theorem;
#ARTIST:メリー・バッド・メルヘン;
#ARTISTTRANSLIT:Merry・Bad・Marchen;
#BANNER:Red Cape Theorem.png;
#BACKGROUND:Red Cape Theorem-bg.png;
#CDTITLE:./CDTitles/DDR A20 PLUS.png;
#MUSIC:Red Cape Theorem.ogg;
#SAMPLESTART:60.187;
#SAMPLELENGTH:15;
#BPMS:0=95;
#NOTES:
     dance-single:
     :
     Beginner:
     3:
     :
0000
0000
0000
0000
,
0000
0000
0000
0000
,
0000
0000
0000
0000
0000
1000
0000
0000
,
0000
0000
0000
0100
0000
0000
0000
0000
,
0000
0010
0000
0010
,
0000
0001
0000
0001
,
0000
0000
0000
1000
,
0000
0000
0000
0000
0000
0001
0000
0000
,
0000
0010
0000
0000
,
0000
0100
0000
0000
0000
0000
0010
0000
,
0000
0010
0001
0001
,
0000
0001
0000
0001
,
0100
0100
0000
1001
,
0000
0000
0000
0000
0010
0000
0000
0010
,
0000
1001
0000
0000
,
0100
0000
0000
0100
0000
0000
0002
0000
,
0000
0003
0000
0000
0020
0000
0000
0030
,
0000
0000
2000
0000
0000
3000
0000
0000
,
0200
0000
0000
0300
0000
0000
1000
0000
,
1000
0000
0100
0100
,
0000
0010
0010
0000
,
0000
0001
0000
0001
0000
0000
0000
0001
,
0000
0000
0100
0000
0000
0010
0000
0000
,
1000
1000
0000
0000
,
0000
0000
0000
1000
,
0000
1000
0100
0000
,
0010
0100
0000
0100
,
0001
0000
0010
0001
,
0000
0001
0100
0000
,
0010
0100
0000
0100
,
1000
0000
1000
0001
,
0001
0000
0010
0010
,
0000
1000
1000
0000
,
0100
0100
0000
1000
,
1000
0000
0001
0001
,
0000
0100
0100
0000
,
0010
0010
0000
0010
,
0000
1000
0000
0000
0010
0000
0000
0010
,
0000
0000
0100
0000
0000
0001
0000
0000
,
0100
0000
0000
0010
,
0000
0001
0000
0000
0010
0000
0000
0010
,
0000
0000
0100
0000
0000
1000
0000
0000
,
0100
0000
0000
0020
0000
0000
0030
0000
,
0000
0000
0000
0000
;
#NOTES:
     dance-single:
     :
     Easy:
     6:
     :
0000
0000
0000
0000
,
0000
0000
0000
0000
,
0000
0000
0000
0000
0000
0001
0000
0000
,
0010
0000
0000
0001
0000
0000
1000
0000
,
0010
0100
0010
0000
0000
0000
0110
0000
,
0000
0001
1000
0010
,
0100
0000
0000
0010
,
1000
0000
0001
0000
0100
0001
0000
0010
,
0000
0001
0010
0000
0100
0000
1000
0000
,
0100
0010
0000
0001
0000
0100
0010
0000
,
1000
0000
0100
0000
0001
0100
0000
1000
,
0000
0010
0100
0000
0001
0000
1000
0000
,
0010
1000
0000
0001
0000
0010
0001
1000
,
0000
0010
1000
0000
0001
0000
0000
0110
,
0000
0000
1000
0100
0000
1000
0001
0000
,
0100
0000
0000
0110
0000
0000
0002
0000
,
0000
0003
0000
0000
2000
0000
0000
3000
,
0000
0000
0002
0000
0000
0003
0000
0000
,
2000
0000
0000
3000
0000
0000
0010
0000
,
0100
0010
0000
1000
0010
0000
1000
0001
,
0000
0001
0010
0000
1000
0100
0000
0010
,
0001
1000
0000
0100
0000
1000
0000
0001
,
0000
0010
0001
0000
0100
0001
0000
0000
,
1000
1001
0000
0000
,
0110
0000
0000
0000
0000
0000
0001
0010
,
0000
0001
0010
0000
1000
0010
0000
1000
,
0010
0000
0001
0100
0000
0001
0100
0000
,
1000
0100
0000
1000
0100
0000
0100
0010
,
0000
0010
0001
0000
0100
0010
0000
0010
,
1000
0000
0100
0000
0100
1000
0000
1000
,
0100
0000
0000
0001
0000
0000
0001
0001
,
0001
0000
0000
0000
0010
0010
0010
0000
,
0000
0000
0100
0000
0100
0010
0000
0000
,
1000
0000
1000
0001
0000
0000
1000
1000
,
1000
0000
0000
0000
0100
0100
0100
0000
,
0000
0000
0010
0000
0010
0001
0000
0000
,
0100
0000
0100
0010
0000
0000
2000
0000
,
0000
3000
0000
0000
0010
0000
0000
0100
,
0001
0100
0002
0000
0003
0020
0000
0030
,
0100
1000
0000
0010
0001
0000
2000
0000
,
0000
3000
0000
0000
0002
0000
0000
0003
,
0000
0000
0020
0000
0000
0030
0000
0000
,
0200
0000
0000
0300
0000
0000
0000
0000
,
0000
0000
0000
0000
;
#NOTES:
     dance-single:
     :
     Medium:
     11:
     :
0000
0000
0000
0000
,
0000
0000
0000
0000
,
0000
0000
0000
0000
0000
0000
0000
0000
0000
0000
0010
0000
0100
0010
0000
0100
,
0000
0010
0000
0100
0010
0000
1000
0000
0000
0001
0000
0001
2000
0000
3000
0000
,
1000
0001
2000
0000
0000
3000
0200
0000
,
0000
0300
0020
0030
0002
0003
2000
3000
,
0200
0000
0000
0000
0300
0000
0000
0000
0000
0000
0000
0000
1000
0000
0000
0010
,
0000
0100
0000
0010
0000
0010
0100
0000
0010
0000
1000
0000
0000
0001
0000
2002
,
0000
0000
3003
0000
0001
0000
1000
0100
0000
0010
0000
0100
0000
1000
0001
0000
,
0100
0000
0010
0100
0000
0010
0000
1000
0000
0001
1000
0000
0010
0000
1000
0000
,
0100
0000
0010
0000
0001
0000
1000
0000
0010
0000
0100
0001
0000
0001
0000
0020
,
0000
0030
0001
0100
0010
1000
0010
0100
,
0001
0000
1000
0001
0000
1000
0000
0100
0000
0100
0010
0000
0001
0000
0100
0000
,
0001
0000
1000
0000
0010
0100
0010
0000
1000
0000
0100
0000
0001
0000
0100
0000
,
1000
0000
0001
0000
0010
0000
0001
0000
0100
0000
0010
0000
1000
0001
1000
0000
,
0001
0000
0010
0000
1000
0000
0010
0000
0001
0000
1000
0000
0010
0000
0000
0010
,
0000
0000
0000
0000
0100
0000
0100
0000
0000
0000
0110
0000
0000
0000
0001
0010
,
0100
1000
0100
0000
1000
0000
0000
1000
0000
0000
0000
0001
0000
0001
0000
0001
,
0000
0000
1001
0000
0000
0000
0000
0010
0000
0010
0100
0010
1000
0000
0001
0000
,
0100
0000
0001
0010
0100
0000
1000
0000
0010
0000
0100
0000
0001
0000
1000
0000
,
0100
0000
0010
0000
0001
0000
1000
0000
0010
0000
1000
0100
0010
0000
0001
0000
,
1000
0000
0010
0000
0001
0000
0010
0000
1000
0000
0010
0100
0010
0000
1000
0000
,
0001
0100
0001
0000
0010
0000
0001
0000
1000
0000
0010
0000
1000
0100
1000
0000
,
0001
0000
0100
0000
0001
0000
0001
1000
0000
1000
0010
0000
0100
0000
0010
0000
,
0000
0000
0000
0000
0000
0000
0000
0000
0000
0000
0000
0000
1000
0100
0010
0000
,
0001
0000
0100
0000
0001
0000
1000
0000
0010
1000
0100
0000
0010
0000
0001
0000
,
1000
0000
0010
0000
1000
0001
0010
0000
0001
0000
0100
0000
0010
0000
1000
0000
,
0001
1000
0100
0000
0010
0000
0100
0000
1000
0000
0010
0000
0100
0001
0010
0000
,
0100
0000
1000
0000
0001
0000
0100
0000
0001
1000
0001
0000
0100
0000
1000
0000
,
0100
0000
0001
0000
1000
0010
0100
0000
0001
0000
1000
0000
0100
0000
1000
0000
,
0010
0100
0010
0000
0100
0000
1000
0000
0100
0000
0001
0000
1000
0100
1000
0100
,
0010
0000
0001
0000
1001
0000
0001
0000
0001
0100
0001
0100
0010
0000
1000
0000
,
1001
0000
1000
0000
0100
0001
0100
0000
1000
0000
0001
0000
1000
0000
0010
0000
,
0100
1000
0100
0000
0001
0000
1000
0000
0001
0000
0010
0000
0001
0010
0001
0010
,
0100
0000
1000
0000
1001
0000
1000
0000
1000
0010
1000
0010
0100
0000
0001
0000
,
1001
0000
0001
0000
0010
1000
0010
0000
0001
0000
1000
0000
0001
0000
0100
0000
,
0010
0001
0010
0000
1000
0000
0001
0000
1000
0000
0100
0000
1000
0001
0010
0000
,
0100
0000
1000
0010
0100
0000
0001
0000
1000
0000
0010
0100
0010
0000
1000
0000
,
0100
0010
0100
0000
0010
0001
0100
0000
0010
0000
1000
0010
0100
0000
0001
0000
,
1000
0000
0100
0010
0001
0000
0010
0000
0100
1000
0001
0000
0100
0000
0100
0010
,
0000
0000
0000
1000
0000
0001
1000
0001
0000
0000
0101
0000
0000
0000
0010
0000
,
1000
0000
0100
0000
1000
0000
1000
0001
0000
0000
0000
0100
0000
0010
0100
0010
,
0200
0000
0300
0002
0000
0000
0003
0000
,
0000
0000
0000
0000
;
#NOTES:
     dance-single:
     :
     Hard:
     14:
     :
0000
0000
0000
0000
,
0000
0000
0000
0000
,
0000
0000
0000
0000
0000
0000
0000
0000
0000
0000
0001
1000
0100
1000
0000
0010
,
0100
0001
0000
0001
1000
0001
0010
0000
0100
1000
0000
0010
0200
0000
0300
0000
,
0001
0000
1000
0000
0001
0000
1000
0000
0000
0000
0000
0000
0200
0000
0000
0000
0000
0000
0000
0000
0000
0000
0000
0000
0000
0000
0000
0000
0000
0000
1300
0000
0000
0100
0000
0000
0010
0000
0000
0000
0000
0000
0000
0000
0000
0011
0000
0000
,
0000
1001
0020
0000
2030
0000
3200
0000
,
0302
0000
0000
0000
0003
0000
0000
0000
0000
0000
0000
1000
0001
0000
0100
0010
,
0000
1000
0000
1010
0000
1000
0100
0001
0100
0000
0100
0010
0000
0011
0000
2001
,
0000
0000
3100
0000
0110
0000
0001
1000
0000
1010
0000
0110
0000
1000
0001
1000
,
0001
0000
0001
0010
0000
0110
0000
1001
0000
1000
0010
0001
0010
0100
0001
0100
,
0001
0010
0100
1000
0000
1000
0100
0001
0100
0000
1000
0001
0010
0100
0000
1002
,
0000
0000
0103
0000
0010
1000
0001
0100
0010
0100
0001
1000
0000
0001
0010
1000
,
0010
0000
0010
0001
0000
1001
0000
1000
0010
0100
0010
0100
0001
0100
0001
0100
,
0010
1000
0100
0010
0100
1000
0001
0010
0100
1000
0010
0100
1000
0100
0001
1000
,
0010
0100
0001
0010
0001
1000
0100
0001
0100
1000
0001
0010
0100
1000
0001
0010
,
0100
0001
0100
0010
0001
1000
0010
0100
0010
1000
0010
1000
0002
0000
0000
1000
,
0000
0000
0000
0000
0023
0000
0000
0000
0001
0000
0000
0000
0130
0000
0000
0000
0000
0000
0000
0000
1100
0000
0000
0000
0000
0000
0000
0000
0001
0100
0001
0000
,
1000
0100
1000
0000
0001
0000
0000
0000
1000
0000
0010
0000
0100
0000
0001
0000
0100
0000
0010
0000
1000
0000
0001
0000
0010
0000
0100
0000
1000
0000
0001
0000
,
0000
0000
0101
0000
1010
0000
0000
0020
0000
0130
0010
0100
0001
0010
0001
0100
,
1000
0100
0010
1000
0010
0100
1000
0100
0001
0000
1000
0001
0100
0010
0001
0010
,
0100
0001
1000
0100
1000
0000
0010
0100
0001
1000
0100
0010
1000
0010
0001
1000
,
0100
0000
0110
0000
0010
0100
1000
0001
0100
0010
1000
0001
0100
0010
0100
0001
,
0010
0001
0010
0100
0010
0100
1000
0100
0010
0000
0011
0000
1000
0010
1000
0010
,
0100
0000
0101
0000
0001
1000
0001
0010
0000
0001
0100
0010
1000
0010
1000
0010
,
0000
0000
0000
0000
0000
0000
0000
0000
0000
0000
0000
0000
1000
0010
0100
0010
,
1000
0001
0100
1000
0100
0001
1000
0010
1000
0100
1000
0100
1000
0001
0010
0100
,
1000
0010
0100
0001
1000
0010
0100
0010
1000
0001
1000
0100
0010
0001
1000
0100
,
0010
0001
0100
0001
1000
0010
0100
0001
0100
0001
1000
0010
0100
1000
0100
0010
,
0100
0001
1000
0010
1000
0100
1000
0001
0100
1000
0100
0010
0100
0001
1000
0010
,
0100
0010
1000
0001
1000
0010
0001
0010
1000
0001
0100
0010
1000
0001
0010
0100
,
1000
0000
0010
0000
0001
0000
0010
0000
1000
0000
0001
0000
0100
0000
1000
0000
0100
0000
0010
0000
0100
0000
0000
0000
0001
0010
0001
0000
1000
0000
0010
0000
,
1000
0000
0001
0000
0100
0000
0001
0000
0010
0000
0001
0000
1000
0000
0000
0000
0100
0010
0100
0000
1000
0000
0001
0000
1000
0000
0100
0000
1000
0000
0010
0000
,
1000
0000
0001
0000
0100
0000
0000
0000
0010
0100
0010
0000
1000
0000
0010
0000
0100
0000
0001
0000
0100
0000
0010
0000
1000
0000
0001
0000
0010
0000
0000
0000
,
0100
0010
0100
0000
1000
0000
0001
0000
0010
0000
0001
0000
1000
0000
0100
0000
1000
0000
0010
0000
0100
0000
0000
0000
1000
0100
0010
0000
0001
0000
0100
0000
,
0001
0000
1000
0000
0010
0000
1000
0000
0100
0000
1000
0000
0001
0000
0010
0000
0001
0100
0010
0000
1000
0000
0001
0000
1000
0000
0010
0000
1000
0000
0100
0000
,
1000
0000
0001
0000
0010
0000
0100
0000
1000
0001
0010
0000
0001
0000
0100
0000
0010
0000
1000
0000
0010
0000
0100
0000
0001
0000
1000
0000
0100
0000
1000
0000
,
0100
0010
0001
0000
1000
0000
0001
0000
0100
0000
0001
0000
1000
0000
0010
0000
1000
0000
0100
0000
0010
0000
0000
0000
0001
0000
0000
0000
0100
0000
0010
0000
,
0000
0000
0010
0000
0000
0000
0000
0000
1000
0001
1000
0001
1000
0000
0000
0000
0001
0000
0000
0000
0110
0000
0000
0000
1000
0000
0000
0000
0002
0000
0000
0000
,
0023
0000
0230
0000
1300
0001
0100
0001
0000
1000
0000
0001
0000
1000
0100
1000
,
0020
0000
0001
0000
0100
0000
2030
0000
0010
0000
3001
0000
0100
0010
0001
0010
,
0000
0001
0000
1000
0000
0001
0010
0100
2000
0000
0010
0000
3000
0000
0002
0000
,
0203
0000
0320
0000
1030
0010
0100
0010
0000
1000
0000
0100
0010
0100
0010
0100
,
0020
1000
0100
0032
0010
1000
0003
0000
,
0000
0000
0000
0000
;
#NOTES:
     dance-double:
     :
     Easy:
     6:
     :
00000000
00000000
00000000
00000000
,
00000000
00000000
00000000
00000000
,
00000000
00000000
00000000
00000000
00000000
10000000
00000000
00000000
,
00100000
00000000
00000000
10000000
00000000
00000000
01000000
00000000
,
00010000
00001000
00010000
00000000
00000000
00000000
00011000
00000000
,
00000000
00000010
00000001
00001000
,
00000100
00000000
00000000
00000001
,
00000100
00000000
00001000
00000000
00010000
00001000
00000000
00100000
,
00000000
00010000
01000000
00000000
00100000
00000000
10000000
00000000
,
01000000
00100000
00000000
00001000
00000000
00010000
00001000
00000000
,
00000100
00000000
00000010
00000000
00001000
00000001
00000000
00000010
,
00000000
00000100
00001000
00000000
00000100
00000000
00010000
00000000
,
00001000
00010000
00000000
00100000
00000000
01000000
00100000
10000000
,
00000000
00100000
01000000
00000000
00001000
00000000
00000000
00010000
,
00000000
00000000
00000010
00001000
00000000
00000010
00000100
00000000
,
00000001
00000000
00000000
00000110
00000000
00000000
00002000
00000000
,
00000000
00003000
00000000
00000000
00020000
00000000
00000000
00030000
,
00000000
00000000
00200000
00000000
00000000
00300000
00000000
00000000
,
20000000
00000000
00000000
30000000
00000000
00000000
10000000
00000000
,
00100000
01000000
00000000
00100000
01000000
00000000
00001000
00010000
,
00000000
00010000
00000100
00000000
00001000
00000100
00000000
00000010
,
00000100
00000100
00000000
00000001
00000000
00001000
00000000
00000100
,
00000000
00010000
00001000
00000000
00010000
00001000
00000000
00000000
,
00100000
01000000
00000000
00000000
,
10010000
00000000
00000000
00000000
00000000
00000000
10000000
01000000
,
00000000
01000000
00100000
00000000
00001000
00010000
00000000
00010000
,
00001000
00000000
00000010
00000001
00000000
00000001
00001000
00000000
,
00000001
00000100
00000000
00000100
00001000
00000000
00010000
00100000
,
00000000
01000000
00100000
00000000
10000000
01000000
00000000
00100000
,
00010000
00000000
01000000
00001000
00000000
00010000
00001000
00000000
,
00000010
00000001
00000000
00001001
00000000
00000000
00000010
00000010
,
00000010
00000000
00000000
00000000
00001000
00001000
00001000
00000000
,
00000000
00000000
00000100
00000000
00000000
00001000
00000000
00000000
,
00010000
00000000
00000000
00100000
00000000
00000000
10000000
10000000
,
10000000
00000000
00000000
00000000
01000000
01000000
01000000
00000000
,
00000000
00000000
00100000
00000000
00000000
00010000
00000000
00000000
,
00001000
00000000
00000000
00000100
00000000
00000000
00000002
00000000
,
00000000
00000003
00000000
00000000
00000010
00000000
00000000
00001000
,
00010000
00001000
00020000
00000000
00000000
00000000
00000000
00030000
,
00002000
00000000
00000000
00000000
00000000
00003000
00200000
00000000
,
00000000
00300000
00000000
00000000
00002000
00000000
00000000
00003000
,
00000000
00000000
02000000
00000000
00000000
03000000
00000000
00000000
,
00200000
00000000
00000000
00300000
00000000
00000000
00000000
00000000
,
00000000
00000000
00000000
00000000
;
#NOTES:
     dance-double:
     :
     Medium:
     10:
     :
00000000
00000000
00000000
00000000
,
00000000
00000000
00000000
00000000
,
00000000
00000000
00000000
00000000
00000000
00000000
00000000
00000000
00000000
00000000
10000000
00000000
01000000
00100000
00000000
01000000
,
00000000
00100000
00000000
00010000
00100000
00000000
00001000
00000000
00000000
00010000
00000000
00010000
00002000
00000000
00003000
00000000
,
00001000
00000010
00000002
00000000
00000000
00000003
00000200
00000000
,
00000000
00000300
00002000
00003000
00020000
00030000
00200000
00300000
,
20000000
00000000
00000000
00000000
30000000
00000000
00000000
00000000
00000000
00000000
00000000
00000000
00010000
00000000
00000000
01000000
,
00000000
01000000
00000000
00100000
00000000
00010000
00001000
00000000
00000100
00000000
00000010
00000000
00000000
00001000
00000000
00002002
,
00000000
00000000
00003003
00000000
00000001
00000000
00000010
00000001
00000000
00001000
00000000
00000010
00000000
00010000
00001000
00000000
,
00100000
00000000
00010000
00100000
00000000
00010000
00000000
01000000
00000000
00100000
01000000
00000000
10000000
00000000
01000000
00000000
,
00010000
00000000
10000000
00000000
01000000
00000000
00100000
00000000
00001000
00000000
00010000
00000100
00000000
00000100
00000000
00002000
,
00000000
00003000
00000001
00000100
00000010
00000100
00001000
00010000
,
00100000
00000000
01000000
00100000
00000000
00100000
00000000
01000000
00000000
01000000
00100000
00000000
10000000
00000000
01000000
00000000
,
00100000
00000000
00010000
00000000
10000000
00010000
10000000
00000000
00100000
00000000
01000000
00000000
00001000
00000000
00010000
00000000
,
00000100
00000000
00001000
00000000
00000010
00000000
00000100
00000000
00000001
00000000
00000100
00000000
00000001
00001000
00000001
00000000
,
00000010
00000000
00000100
00000000
00001000
00000000
00000100
00000000
00010000
00000000
00001000
00000000
01000000
00000000
00000000
01000000
,
00000000
00000000
00000000
00000000
00100000
00000000
00100000
00000000
00000000
00000000
00011000
00000000
00000000
00000000
00000100
00000010
,
00000100
00000000
00000100
00000000
00000001
00000000
00000000
00001000
00000000
00000000
00000000
00000010
00000000
00000010
00000000
00000010
,
00000000
00000000
00001001
00000000
00000000
00000000
00000000
00000010
00000000
00001000
00010000
00001000
00010000
00000000
00001000
00000000
,
01000000
00000000
00010000
00100000
01000000
00000000
10000000
00000000
00100000
00000000
01000000
00000000
10000000
00000000
01000000
00000000
,
00010000
00000000
10000000
00000000
01000000
00000000
00100000
00000000
00001000
00000000
00010000
00000010
00001000
00000000
00000100
00000000
,
00000001
00000000
00000100
00000000
00001000
00000000
00000001
00000000
00000100
00000000
00000010
00001000
00000010
00000000
00010000
00000000
,
00001000
00010000
00001000
00000000
01000000
00000000
00010000
00000000
00100000
00000000
01000000
00000000
10000000
00010000
10000000
00000000
,
01000000
00000000
00010000
00000000
00001000
00000000
00001000
00010000
00000000
00010000
00100000
00000000
00010000
00000000
00001000
00000000
,
00000000
00000000
00000000
00000000
00000000
00000000
00000100
00000001
,
00000010
00001000
00010000
00100000
10000000
00010000
10000000
01000000
,
00100000
00010000
10000000
00100000
00010000
00001000
00000100
00000001
,
00001000
00000100
00000001
00000100
00001000
00000010
00010000
00000100
,
00000001
00000100
00001000
00000010
00010000
00100000
10000000
00010000
,
01000000
00100000
10000000
01000000
00001000
01000000
00100000
00001000
,
00010000
00000000
00000010
00000000
00000100
00000000
00001000
00000000
00000100
00000000
00000001
00000000
00001000
00000100
00001000
00000100
,
00000010
00000000
00000001
00000000
00000001
00000000
00000001
00000000
00000100
00001000
00000100
00001000
00010000
00000000
00001000
00000000
,
01000000
00100000
01000000
00000000
00100000
00000000
10000000
00000000
10000000
00000000
01000000
00000000
00100000
00000000
00100000
00000000
,
00001000
00000000
00010000
00000000
00001000
00000000
00000010
00000000
00000100
00000000
00001000
00000000
00000001
00000100
00000001
00000100
,
00000010
00000000
00010000
00000000
00010000
00000000
00010000
00000000
00001000
01000000
00001000
01000000
00010000
00000000
00100000
00000000
,
01000000
10000000
01000000
00000000
00010000
00000000
00001000
00000000
00001000
00000000
00100000
00000000
00001000
00000000
00001000
00000000
,
00010000
00000000
00000100
00000000
00001000
00000000
00000010
00000000
00000100
00000000
00000001
00000000
00000010
00000001
00000010
00000000
,
00000100
00000000
00001000
00000010
00001000
00000000
00000100
00000000
00010000
00000000
00001000
01000000
00001000
00000000
00010000
00000000
,
00100000
00000000
10000000
00000000
01000000
00000000
00100000
00010000
00100000
00000000
00001000
00000000
00010000
00000010
00010000
00000000
,
00001000
00000000
00000010
00000000
00000001
00000000
00000001
00000000
00000100
00000000
00001000
00000000
00010000
00000000
00000000
00011000
,
00000000
00000000
00000000
01000000
00000000
00100000
01000000
00100000
00000000
00000000
01100000
00000000
00000000
00000000
01000000
00000000
,
00010000
00000000
00001000
00000000
00000010
00000000
00000000
00000110
00000000
00000000
00000000
00000001
00000000
00001000
00000100
00000000
,
00020000
00000000
00030000
00002000
00000000
00000000
00003000
00000000
,
00000000
00000000
00000000
00000000
;
#NOTES:
     dance-double:
     :
     Hard:
     13:
     :
00000000
00000000
00000000
00000000
,
00000000
00000000
00000000
00000000
,
00000000
00000000
00000000
00000000
00000000
00000000
00000000
00000000
00000000
00000000
10000000
01000000
10000000
01000000
00000000
00100000
,
00010000
00100000
00000000
00010000
01000000
00001000
00010000
00000000
00010000
00000100
00000000
00000100
00000020
00000000
00000030
00000000
,
00000001
00000000
00001000
00000000
00000001
00000000
00001000
00000000
00000000
00000000
00000000
00000000
00000002
00000000
00000000
00000000
00000000
00000000
00000000
00000000
00000000
00000000
00000000
00000000
00000000
00000000
00000000
00000000
00000000
00000000
00000103
00000000
00000000
00001000
00000000
00000000
00010000
00000000
00000000
00000000
00000000
00000000
00000000
00000000
00000000
00011000
00000000
00000000
,
00000000
01010000
00200000
00000000
20300000
00000000
32000000
00000000
,
03020000
00000000
00000000
00000000
00030000
00000000
00000000
00000000
00000000
00000000
00000000
00001000
00000100
00000000
00000010
00000100
,
00000000
00000010
00000000
00010000
00000000
00010000
00001000
00010000
00001000
00000000
01000000
00010000
00000000
00110000
00000000
02100000
,
00000000
00000000
13000000
00000000
10010000
00000000
10000000
00100000
00000000
01000000
00000000
00010000
00000000
00100000
00001000
00010000
,
00001000
00000000
00001000
00000010
00000000
00000100
00000000
00000100
00000000
00000001
00000100
00001000
00000010
00001000
00000010
00001000
,
00000100
00010000
00001000
00010000
00001000
00100000
00010000
01000000
00100000
00000000
10000000
00100000
00010000
00100000
00000000
20010000
,
00000000
00000000
31000000
00000000
00100000
00010000
01000000
00010000
00100000
00001000
00010000
00000010
00000000
00001000
00000100
00001000
,
00000100
00000000
00000010
00000001
00000000
00001001
00000000
00001000
00000001
00000100
00000001
00000100
00000010
00001000
00000100
00000010
,
00000100
00001000
00000100
00010000
00001000
01000000
00010000
00100000
00001000
01000000
00010000
00100000
01000000
10000000
00100000
00010000
,
00100000
10000000
01000000
00100000
00010000
01000000
00010000
01000000
00001000
00010000
00001000
00010000
00000100
00001000
00000010
00000100
,
00000001
00001000
00000100
00000001
00000100
00001000
00000001
00000100
00000010
00001000
00000010
00001000
00000200
00000000
00000000
00010000
,
00000000
00000000
00020300
00000000
00001000
00000000
00031000
00000000
00000000
00000000
00011000
00000000
00000000
00000000
00000010
00001000
,
00010000
01000000
10000000
00000000
00100000
10000000
00010000
00100000
00010000
01000000
00010000
00100000
00001000
00010000
00001000
00000010
,
00000000
00000000
00000011
00000000
00001100
00000000
00000000
00001001
00000000
00001000
00000001
00000000
00000100
00000001
00000010
00000100
,
00001000
00000010
00000100
00000010
00001000
00000100
00000010
00000001
00000100
00000000
00000010
00001000
00000100
00001000
00000100
00010000
,
00001000
00100000
00010000
00100000
00001000
00000000
01000000
00010000
00100000
01000000
10000000
00100000
01000000
00010000
10000000
01000000
,
00100000
00000000
01000000
00010000
01000000
00010000
01000000
10000000
00100000
01000000
00010000
00100000
00001000
00010000
00000100
00001000
,
00000010
00000100
00000010
00000001
00000010
00000100
00000001
00000010
00000100
00000000
00001100
00000000
00000001
00000100
00001000
00000000
,
00011000
00000000
00110000
00000000
10010000
00000000
10000000
00100000
00000000
00010000
00001000
00000000
00000100
00000000
00000001
00000000
,
00000000
00000000
00000000
00000000
00000000
00000000
00000000
00000000
00000000
00000000
00000000
00000000
00000010
00000001
00000100
00000001
,
00001000
00000010
00000100
00001000
00000100
00000010
00001000
00000100
00010000
00001000
00100000
00010000
01000000
00100000
00010000
00100000
,
01000000
00010000
10000000
01000000
00100000
00010000
01000000
10000000
01000000
00010000
00100000
00001000
00010000
00001000
00010000
00000100
,
00001000
00000010
00000100
00001000
00000100
00000001
00000010
00000100
00000001
00000100
00000010
00000001
00001000
00000100
00001000
00000010
,
00000100
00001000
00010000
00100000
01000000
00010000
10000000
01000000
00100000
00010000
00100000
01000000
00010000
00001000
00000010
00000100
,
00001000
00000001
00000100
00000010
00001000
00000100
00001000
00000010
00001000
00000100
00010000
00001000
00100000
00001000
00010000
01000000
,
00010000
01000000
00100000
00010000
10000000
00100000
01000000
00100000
10000000
00010000
00100000
00000000
10000000
01000000
00010000
00001000
,
00000010
00000000
00000001
00000000
00000101
00000000
00001001
00000000
00000001
00000100
00001000
00010000
00100000
00000000
10000000
00000000
,
11000000
00000000
10010000
00000000
10000000
00100000
10000000
01000000
00100000
00010000
01000000
00010000
00100000
00001000
00010000
00000100
,
00001000
00000010
00000100
00000010
00000100
00001000
00010000
00100000
01000000
00010000
01000000
00000000
10000000
00100000
00010000
00001000
,
00000100
00000000
00000001
00000000
00000011
00000000
00001001
00000000
00000001
00000010
00001000
00010000
01000000
00000000
10000000
00000000
,
10100000
00000000
10010000
00000000
01000000
00010000
00100000
01000000
00100000
00010000
01000000
00001000
00010000
00001000
00000100
00000010
,
00001000
00000001
00000010
00000100
00001000
00000010
00000100
00001000
00010000
00001000
00010000
00000000
00100000
00000000
10000000
00010000
,
00000000
00000000
00010000
00000000
00000000
00000000
00000000
00000000
10000000
00010000
10000000
00010000
10000000
00000000
00000000
00000000
01000000
00000000
00000000
00000000
00010000
00000000
00001000
00000000
00000010
00000000
00000000
00000000
00001000
00000000
00000000
00000000
,
00010000
00000000
00100000
00000000
00010000
00000000
00001000
00000100
00000000
00000100
00000001
00000000
00001000
00000001
00001000
00000000
,
00000020
00000000
00000001
00000000
00000100
00000000
00020030
00000000
00001000
00000000
01030000
00000000
00100000
00010000
00100000
00010000
,
00000000
10000000
00000000
00100000
00000000
10000000
01000000
00100000
00002000
00000000
00010000
00000000
00003000
00000000
00000020
00000000
,
00000032
00000000
00000203
00000000
00000310
00001000
00000010
00001000
00000000
00000100
00000000
00010000
00001000
00100000
00010000
00000000
,
00200000
10000000
01000000
00302000
00010000
00000100
00003000
00000000
,
00000000
00000000
00000000
00000000
;
