
//----- song ID: rear -----//
#TITLE:Realize;
#ARTIST:鈴木このみ;
#ARTISTTRANSLIT:Konomi Suzuki;
#BANNER:Realize.png;
#BACKGROUND:Realize-bg.png;
#CDTITLE:./CDTitles/DDR A20 PLUS.png;
#MUSIC:Realize.ogg;
#SAMPLESTART:56.332;
#SAMPLELENGTH:15;
#BPMS:0=206;
#NOTES:
     dance-single:
     :
     Beginner:
     3:
     :
0000
0000
0000
0000
,
0000
0000
0000
0000
,
0000
0000
0000
0000
,
0000
0000
0000
0000
,
0000
0000
0000
0000
,
0001
0000
0001
0000
,
0001
0000
0000
0000
,
1000
0000
1000
0000
,
1000
0000
0000
0000
,
0010
0000
0010
0000
,
0010
0000
0000
0000
,
1001
0000
0000
0000
,
0000
0000
0000
0000
,
0200
0000
0000
0000
,
0300
0000
0000
0000
,
0020
0000
0000
0000
,
0030
0000
0000
0000
,
0200
0000
0000
0000
,
0300
0000
0000
0000
,
0020
0000
0000
0000
,
0030
0000
0000
0000
,
1000
0000
0100
0000
,
1000
0000
0100
0000
,
0010
0000
0001
0000
,
0100
0000
0000
0000
,
0001
0000
0100
0000
,
0001
0000
0100
0000
,
0010
0000
1000
0000
,
0100
0000
0000
0000
,
1001
0000
0000
0000
,
0010
0000
0000
0000
,
1001
0000
0000
0000
,
0010
0000
0000
0000
,
1001
0000
0000
0000
,
0100
0000
0000
0000
,
1001
0000
0000
0000
,
0100
0000
0000
0000
,
2000
0000
0000
0000
,
3000
0000
0000
0000
,
0002
0000
0000
0000
,
0003
0000
0000
0000
,
0010
0000
0100
0000
,
0010
0000
0100
0000
,
0010
0000
0001
0000
,
0010
0000
0001
0000
,
0100
0000
0010
0000
,
1000
0000
0000
0000
,
2002
0000
0000
0000
,
3003
0000
0000
0000
,
1000
0000
0010
0000
,
0001
0000
0000
0000
,
0001
0000
0010
0000
,
1000
0000
0000
0000
,
0100
0000
0010
0000
,
0100
0000
0010
0000
,
0001
0000
1000
0000
,
0001
0000
0000
0000
,
0001
0000
0100
0000
,
1000
0000
0000
0000
,
1000
0000
0100
0000
,
0001
0000
0000
0000
,
0010
0000
0100
0000
,
0010
0000
0100
0000
,
1000
0000
0001
0000
,
1000
0000
0000
0000
,
2002
0000
0000
0000
,
3003
0000
0000
0000
,
2002
0000
0000
3003
,
0000
0000
0000
0000
,
1000
0000
0100
0000
,
0010
0000
0000
0000
,
0001
0000
0100
0000
,
0010
0000
0000
0000
,
1000
0000
0010
0000
,
0100
0000
0000
0000
,
0001
0000
1000
0000
,
1001
0000
0000
0000
,
0000
0000
0000
0000
;
#NOTES:
     dance-single:
     :
     Easy:
     6:
     :
0000
0000
0000
0000
,
0000
0000
0000
0000
,
0000
0000
0000
0000
,
0000
0000
0000
0000
,
0000
0000
0000
0000
,
0001
0000
0001
0000
,
0100
0010
0100
0000
,
1000
0000
1000
0000
,
0100
0010
0100
0000
,
0001
0000
1000
0000
,
0010
0100
0010
0000
,
2002
0000
0000
0000
,
3003
0000
0000
0000
,
0002
0000
0000
0000
,
0000
0000
0003
0000
,
0020
0000
0000
0000
,
0000
0000
0030
0000
,
0200
0000
0000
0000
,
0000
0000
0300
0000
,
2000
0000
3000
0000
,
0002
0000
0003
0000
,
1000
0000
0100
0000
,
0010
0001
0010
0000
,
0001
0000
0100
0000
,
0010
1000
0010
0000
,
1000
0100
1000
0100
,
2000
0000
3000
0000
,
0001
0010
0001
0010
,
0002
0000
0003
0000
,
1001
0000
0100
0000
,
0010
0000
0010
0000
,
1001
0000
0100
0000
,
0010
0000
0010
0000
,
0110
0000
0001
0000
,
1000
0000
1000
0000
,
0110
0000
1000
0000
,
0001
0000
0001
0000
,
2000
0000
0000
3000
,
0002
0000
0000
0003
,
0020
0000
0000
0030
,
0200
0000
0000
0300
,
1000
0000
0100
0000
,
1000
1000
0010
0000
,
0001
0000
0100
0000
,
0001
0001
0010
0000
,
0001
0000
0000
1000
0000
0000
0001
0000
,
0000
1000
0000
0000
0001
0000
0000
0000
,
2002
0000
0000
0000
0000
0000
0000
3003
,
0000
0000
0000
0000
,
1000
0001
1000
0000
,
0100
0010
0100
0000
,
0010
0100
0010
0000
,
0001
0010
0100
1000
,
0010
1000
0010
0000
,
0100
0001
0100
0000
,
0001
1000
0001
0000
,
1000
0001
1000
0000
,
0001
1000
0001
0000
,
0100
0010
0100
0000
,
0010
0100
0010
0000
,
1000
0010
0100
0001
,
0010
0001
0010
0000
,
0100
1000
0100
0000
,
1000
0001
1000
0000
,
0001
1000
0001
0000
,
2002
0000
0000
0000
,
0000
0000
0000
3003
,
0220
0000
0000
0330
,
0000
0000
0000
0000
,
0010
0000
0010
0000
,
0010
1000
0100
0000
,
0010
0000
0010
0000
,
0010
0001
0100
0000
,
0001
0000
0001
0000
,
0010
0001
1000
0000
,
0010
0000
1000
0000
0001
0000
0000
1001
,
0000
0000
0000
0000
;
#NOTES:
     dance-single:
     :
     Medium:
     11:
     :
0000
0000
0000
0000
,
0000
0000
0000
0000
,
0000
0000
0000
0000
,
0000
0000
0000
0000
,
0000
0000
0000
0000
,
1000
0001
1000
0000
,
1000
0100
1000
0000
,
0001
1000
0001
0000
,
0001
0100
0001
0000
,
0010
0100
0010
0000
,
0100
0010
0100
0000
,
1000
0000
0000
0001
0000
1000
0000
0001
,
0000
2002
0000
3003
,
0020
0000
2030
3002
,
0203
0000
0320
2030
,
3002
0023
0230
2300
,
3002
0000
0203
0000
,
2300
0000
3200
0302
,
0203
0000
0320
2030
,
3020
0000
0230
0000
,
0302
0000
2000
3003
,
0100
0010
1000
0000
0001
0000
1000
0000
,
0100
0010
0001
0000
1000
0000
0001
0000
,
0010
0100
1000
0000
0001
0000
1000
0000
,
0010
0100
0001
0000
1000
0000
0001
0000
,
0100
0010
0100
0000
0010
0100
0010
0000
,
1000
0001
0100
0000
0001
1000
0100
0000
,
0010
0100
0010
0000
0100
1000
0100
0010
,
0000
0001
0010
0000
0001
1000
0010
0000
,
2100
0100
0100
0100
,
0100
0100
3100
0000
,
0102
0100
0100
0100
,
0100
0100
0103
0000
,
0010
1000
0100
0000
0020
0000
0031
0000
,
2000
3010
0200
1300
,
0002
0100
1000
0103
,
0010
1000
0010
0000
0100
0010
1000
0001
,
2000
0000
0000
3000
,
0200
0000
0000
0300
,
0002
0000
0000
0003
,
0020
0000
0130
0000
,
0001
0000
0001
0100
0001
0000
0100
0001
,
0100
0000
0001
0100
0001
0000
1000
0000
,
0010
0000
1000
0100
1000
0000
0100
1000
,
0100
0000
1000
0100
1000
0000
0100
0000
,
0010
0000
0000
0011
0000
0000
1000
0000
,
0000
1010
0000
0000
0100
0000
0010
0000
,
2002
0000
0000
0000
0000
0000
0000
3003
,
0000
0000
0000
0000
0000
0000
0000
0001
,
0000
0010
0100
0000
1000
0000
0001
0000
,
1000
0010
0100
0000
0001
0000
1000
0000
,
0010
0100
0001
0000
0100
0010
1000
0000
,
0001
0000
0010
0000
0001
0100
0000
0110
,
0000
0010
1000
0000
0100
1000
0100
0000
,
1000
0001
1000
0000
0001
0010
0000
0011
,
0000
0010
0100
0000
0100
0010
0001
1000
,
0000
0001
1000
0001
1000
0001
0000
1001
,
0000
0100
0010
0000
0001
0000
1000
0000
,
0001
0100
0010
0000
1000
0000
0001
0000
,
0100
0010
1000
0000
0010
0100
0001
0000
,
2000
3200
0302
0203
,
1300
0000
0001
0010
0000
0001
0010
0000
,
0001
1000
0000
0001
1000
0100
1000
0000
,
0100
0110
0010
0110
,
0001
0000
1001
0000
1000
0001
1000
0000
,
0010
0000
0000
1010
0000
0000
0100
0000
,
0000
0101
0000
0000
0010
0000
1001
0000
,
1000
0001
1000
0001
1000
0001
1000
0000
,
0000
0000
0000
0000
,
1000
0000
1000
0000
1010
0000
0100
0001
,
0000
0001
0100
0000
0110
0000
1000
0000
,
0001
0000
0001
0000
0011
0000
0100
1000
,
0000
1000
0100
0000
0110
0000
0001
0000
,
0010
0000
0100
0000
1001
0000
0100
0010
,
0000
0010
0100
0000
1001
0000
0010
0000
,
1000
0000
0001
0100
1000
0100
0000
0110
,
0000
0000
0000
0000
;
#NOTES:
     dance-single:
     :
     Hard:
     14:
     :
0000
0000
0000
0000
,
0000
0000
0000
0000
,
0000
0000
0000
0000
,
0000
0000
0000
0000
,
0000
0000
0000
0000
,
0001
0100
0001
0100
,
0001
0100
0001
0100
,
1000
0100
1000
0100
,
1000
0100
1000
0100
,
1000
0000
0010
1000
0010
1000
0010
1000
,
0001
0010
0001
0010
0001
0010
0001
0010
,
0001
0001
0000
1000
0000
0001
0000
1001
,
0000
0000
1000
0001
2000
0000
0000
0000
0000
0000
0000
0000
3000
0000
0000
0000
,
0002
0000
0023
0000
0032
0000
1003
0020
,
0000
0130
0020
0000
2030
0000
3100
0010
,
0000
0010
0002
0000
0000
0000
2003
0000
,
3020
0000
0032
0000
,
0013
0000
0020
2030
,
3020
0000
0130
0001
0000
0000
0002
0000
,
0203
0000
0300
0100
0010
0000
0000
0000
,
1000
0000
0001
0000
0100
0000
0000
0000
0001
1000
0001
1000
0001
0000
0000
0000
,
1000
0100
0110
0000
0001
0100
0110
0000
,
1000
0100
0110
0000
0001
0100
0110
0000
,
1000
0001
0011
0000
0100
1000
1001
0000
,
1000
0000
0001
0000
0101
0000
0000
0000
0010
0100
0010
0100
0010
0000
0000
0000
,
1000
0001
1000
0000
0001
0000
1000
0000
0010
0000
0100
0000
0010
0000
1000
0000
,
0100
1000
0100
0000
1000
0000
0100
0000
0010
0000
0001
0000
0100
0000
0001
0000
,
1000
0010
1000
0100
1000
0010
0000
0101
,
0000
0010
0001
0010
0001
1000
0001
0000
,
2001
0001
0100
0100
,
0001
0100
0001
3100
,
1002
1000
0100
0100
,
1000
0100
1000
0103
,
0100
0010
1000
0000
1000
0100
0000
0110
,
0000
0010
0001
0000
1000
0001
1000
0000
,
0100
0010
0001
0000
0100
0010
0000
0110
,
0000
0010
1000
0000
0001
1000
0001
0000
,
0200
0000
0000
0000
,
0320
0000
0000
0000
,
2030
0000
0000
0000
,
3002
0000
1003
0000
,
1001
0000
0010
1000
0100
1000
0100
1000
,
0010
0100
0010
0100
0001
0100
0001
0100
,
0001
0000
0010
0001
0100
0001
0100
0001
,
0010
0100
0010
0100
1000
0100
1000
0100
,
1000
0010
0010
0001
0010
0010
1000
0100
,
0100
0001
0100
0100
1000
0001
1000
0001
,
2002
0000
0000
0000
0000
0000
0000
3003
,
0000
0000
0000
0000
0000
0000
0000
1100
,
0000
0100
0001
0100
1000
0010
0001
0010
,
1000
0100
0010
0001
0100
0001
0010
0100
,
1000
0010
1000
0010
0100
0001
0100
0001
,
0010
0100
0010
0100
0010
0100
0000
1001
,
0000
0000
1000
0010
1000
0000
0010
0000
0100
0000
0010
0000
0001
0000
0010
0000
,
0100
0000
0010
0000
1000
0000
0001
0000
0010
0100
1000
0000
0000
0000
1001
0000
,
0000
0000
0010
0100
0010
0000
0000
0000
1000
0000
0001
0000
1000
0000
0001
0000
,
0000
0000
0001
0000
0100
0000
0001
0000
0100
0010
0100
0010
0100
0000
0101
0000
,
0000
0100
1000
0100
0001
0010
1000
0010
,
0001
0100
0010
1000
0100
1000
0010
0100
,
0001
0010
0001
0010
0100
1000
0100
1000
,
1010
1100
0011
0101
,
0100
0000
0001
0000
0100
0000
0010
0100
0010
0000
0100
0000
1000
0000
0100
0000
,
0010
0000
0100
0001
0100
0000
1000
0000
0100
0000
0001
0000
0100
0000
1000
0000
,
0100
0001
0011
0000
0100
1000
1010
0000
,
0100
0001
0011
0000
0100
1000
1010
0000
,
0001
1000
0001
0000
0000
0000
1000
0001
1000
0000
0000
0000
0100
0010
0100
0000
,
0000
0000
0010
0100
0010
0000
0000
0000
0001
0000
1000
0000
1001
0000
0000
0000
,
0010
0000
1000
0100
0010
0000
0001
0000
1000
0000
0001
0000
1000
0000
0000
0000
,
0000
0000
0000
0000
0000
0000
0000
0000
0000
0000
0001
1000
0001
0000
0000
0000
,
0100
0001
0010
0001
0100
0010
1001
0000
,
1010
1000
1100
0000
0011
0001
0101
0000
,
0001
1000
0010
1000
0100
0010
1001
0000
,
1100
1000
1010
0000
0101
0001
0011
0000
,
1000
0010
0001
0010
1000
0001
0110
0000
,
1000
0100
0011
0000
0001
0100
1010
0000
,
1001
0000
0000
0000
0001
0010
0100
1000
0001
0000
0001
0000
0000
0000
0110
0000
,
0000
0000
0000
0000
;
#NOTES:
     dance-double:
     :
     Easy:
     6:
     :
00000000
00000000
00000000
00000000
,
00000000
00000000
00000000
00000000
,
00000000
00000000
00000000
00000000
,
00000000
00000000
00000000
00000000
,
00000000
00000000
00000000
00000000
,
00000001
00000000
00000001
00000000
,
00000010
00000000
00000010
00000000
,
00000100
00000000
00000100
00000000
,
00001000
00000000
00001000
00000000
,
00010000
00000000
00100000
00000000
,
01000000
00000000
10000000
00000000
,
20020000
00000000
00000000
00000000
,
30030000
00000000
00000000
00000000
,
02000000
00000000
00000000
00000000
,
00000000
00000000
03000000
00000000
,
00020000
00000000
00000000
00000000
,
00000000
00000000
00030000
00000000
,
00002000
00000000
00000000
00000000
,
00000000
00000000
00003000
00000000
,
00000020
00000000
00000000
00000030
,
00000100
00000000
00000100
00000000
,
00000001
00000000
00000100
00000000
,
00000010
00001000
00000010
00000000
,
00010000
00000000
00000100
00000000
,
00010000
00001000
00010000
00000000
,
00001000
00000000
01000000
00000000
,
00100000
00000000
01000000
00000000
,
00010000
00000000
00001000
00000000
,
00000010
00000000
00000001
00000000
,
00000020
00000000
00000000
00000030
,
00000100
00000000
00010000
00000000
,
00002000
00000000
00000000
00003000
,
00100000
00000000
01000000
00000000
,
00200000
00000000
00000000
00300000
,
00010000
00000000
01000000
00000000
,
00002000
00000000
00000000
00003000
,
00010000
00000000
00000100
00000000
,
00002000
00000000
00003000
00000000
,
00000200
00000000
00000300
00000000
,
00020000
00000000
00030000
00000000
,
02000000
00000000
03000000
00000000
,
10000000
00000000
01000000
00000000
,
10000000
00100000
10000000
00000000
,
00010000
00000000
00100000
00000000
,
00001000
00010000
00000010
00000000
,
00000100
00000000
00000000
00000100
00000000
00000000
00000010
00000000
,
00000000
00000010
00000000
00000000
00000100
00000000
00000000
00000000
,
00002002
00000000
00000000
00000000
00000000
00000000
00000000
00003003
,
00000000
00000000
00000000
00000000
,
00000001
00000100
00000001
00000000
,
00000100
00001000
00010000
00000000
,
00001000
00010000
00100000
00000000
,
01000000
00010000
10000000
00000000
,
00010000
00000000
01000000
00000000
,
00001000
00001000
00010000
00000000
,
00000010
00000000
00001000
00000000
,
00000100
00000100
00001000
00000000
,
00000010
00000000
00000001
00000000
,
00000100
00000001
00000100
00000000
,
00001000
00000000
00010000
00000000
,
00100000
01000000
00010000
00000000
,
01000000
01000000
00001000
00000000
,
00010000
00010000
00000010
00000000
,
00000100
00000000
00000001
00000000
,
00001000
00000100
00010000
00000000
,
00022000
00000000
00000000
00000000
,
00000000
00000000
00033000
00000000
,
00001000
00010000
00100000
10000000
,
00000000
00000000
00000000
00000000
,
00100000
00000000
00100000
00000000
,
10000000
01000000
00010000
00000000
,
00001000
00000000
00001000
00000000
,
00000010
00000001
00000100
00000000
,
00000010
00000000
00000010
00000000
,
00000001
00000100
00001000
00000000
,
00010000
00000000
00001000
00000000
00010000
00000000
00000000
00011000
,
00000000
00000000
00000000
00000000
;
#NOTES:
     dance-double:
     :
     Medium:
     11:
     :
00000000
00000000
00000000
00000000
,
00000000
00000000
00000000
00000000
,
00000000
00000000
00000000
00000000
,
00000000
00000000
00000000
00000000
,
00000000
00000000
00000000
00000000
,
01000000
01000000
10000000
00000000
,
00100000
00100000
00010000
00000000
,
00000010
00000010
00001000
00000000
,
00000100
00000100
00000001
00000000
,
00000001
00000100
00001000
00000000
,
00001000
00010000
00001000
00000000
,
00010000
00000000
00000000
00010000
00000000
00001000
00000000
00010000
,
00000000
00022000
00000000
00033000
,
00002000
00000000
01003000
00010000
,
00200000
00000000
01300000
00010000
,
00001000
00000010
00000100
00000010
,
00000002
00000000
00000203
00000000
,
00002300
00000000
00013000
00001000
,
02000000
00000000
03010000
10000000
,
00200000
00000000
02300000
00000000
,
03020000
00000000
10030000
00000000
,
10000000
00010000
10000000
00000000
01000000
00000000
00100000
00000000
,
00001000
00010000
00001000
00000000
00010000
00000000
00000010
00000000
,
00001000
00000100
00001000
00000000
00000010
00000000
00000100
00000000
,
00000001
00001000
00000001
00000000
00000100
00000000
00000010
00000000
,
00001000
00000100
00001000
00000000
00000010
00001000
00000010
00000000
,
00010000
00001000
01000000
01000000
,
00010000
00100000
00010000
00000000
01000000
00010000
01000000
00000000
,
00001000
00010000
00000100
00000100
,
00000010
00000001
00000010
00001000
,
00000010
00000001
00000010
00001000
,
00010000
00100000
10000000
00100000
,
00010000
00100000
10000000
00100000
,
00010000
00001000
00010000
00000000
00000100
00000000
00000010
00000000
,
00000100
00000001
00000100
00010000
,
00001000
00010000
00001000
00000000
00100000
00000000
01000000
00000000
,
00100000
00000000
10000000
00000000
00100000
00010000
00100000
00001000
,
00020000
00000000
00000000
00030000
,
00000020
00000000
00000000
00000030
,
00002000
00000000
00000000
00003000
,
00000002
00000000
00001003
00000000
,
00000001
00000000
00000010
00000100
00000010
00000000
00000100
00010000
,
00000100
00000000
00010000
00001000
00010000
00000000
00001000
00000000
,
00100000
00000000
00010000
10000000
00010000
00000000
10000000
00100000
,
10000000
00000000
00100000
01000000
00100000
00000000
01000000
00010000
,
01000000
00000000
00000000
00011000
00000000
00000000
00000010
00000000
,
00000000
00001010
00000000
00000000
00000100
00000000
00000010
00000000
,
00002002
00000000
00000000
00000000
00000000
00000000
00000000
00003003
,
00000000
00000000
00000000
00000000
00000000
00000000
00000000
00000010
,
00000000
00000001
00001000
00000000
00000010
00000000
00000100
00000000
,
00000001
00000100
00000010
00000000
00001000
00000000
00000100
00000000
,
00010000
00001000
00010000
00000000
00001000
00010000
00001000
00000000
,
01000000
00000000
00010000
00000000
00100000
01000000
00000000
01100000
,
00000000
01000000
10000000
00000000
01000000
00000000
00010000
00000000
,
00001000
00000000
00000100
00000000
00000001
00000010
00000000
00000110
,
00000000
00000010
00000001
00000000
00001000
00000100
00000010
00000100
,
00000000
00001000
00000100
00001000
00000100
00010000
00000000
00011000
,
00000000
00001000
00010000
00000000
00001000
00100000
00010000
00000000
,
01000000
00010000
00100000
00000000
01000000
00000000
10000000
00000000
,
01000000
00010000
01000000
00000000
10000000
00000000
00100000
00000000
,
00020000
00032000
00003200
00000301
,
00001000
00000000
00000100
00000010
00000100
00000000
00001000
00000000
,
00000010
00000100
00000010
00000000
00000100
00000000
00001000
00000000
,
00010000
00000000
00100000
01000000
00010000
00000000
00100000
01000000
,
10000000
00000000
01000000
00100000
00010000
00000000
00100000
00000000
,
00002000
00000000
00000000
00010000
00000000
00000000
00100000
00000000
,
00000000
01000000
00000000
00000000
00013000
00000000
00010000
00000000
,
00000100
00001000
00000100
00001000
00000010
00001000
00000010
00000000
,
00000000
00000000
00000000
00000000
,
00000001
00000000
00000001
00000000
00000101
00000000
00000010
00001000
,
00000000
00001000
00000100
00000000
00000110
00000000
00010000
00000000
,
00001000
00000000
00001000
00000000
00001100
00000000
00010000
00001000
,
00000000
00001000
01000000
00000000
01010000
00000000
10000000
00000000
,
00100000
00000000
00100000
00000000
10010000
00000000
01000000
00100000
,
00000000
00100000
00001000
00000000
00011000
00000000
00001000
00000000
,
00010000
00000000
00010000
00001000
00000010
00000001
00000000
00000110
,
00000000
00000000
00000000
00000000
;
#NOTES:
     dance-double:
     :
     Hard:
     14:
     :
00000000
00000000
00000000
00000000
,
00000000
00000000
00000000
00000000
,
00000000
00000000
00000000
00000000
,
00000000
00000000
00000000
00000000
,
00000000
00000000
00000000
00000000
,
00000001
00000001
00000001
00000001
,
00001000
00001000
00001000
00001000
,
00010000
00010000
00010000
00010000
,
10000000
10000000
10000000
10000000
,
10010000
00000000
10000000
01000000
00100000
00010000
00100000
00001000
,
00010000
00001000
00010000
00000100
00001000
00000100
00001000
00000100
,
00000010
00000001
00000000
00001000
00000000
00000001
00000000
00001001
,
00000000
00000010
00000020
00000000
00000000
00000000
00000030
00000000
,
00000002
00000000
00000203
00000000
00000302
00000000
00001003
00000100
,
00000000
00000100
00001000
00000000
00000020
00000000
00000130
00001000
,
00000000
00001000
00020000
00000000
00000000
00000000
00130000
00000000
,
20000000
00000000
30020000
00000000
,
00130000
00000000
00200000
02300000
,
03200000
00000000
00301000
00010000
00000000
00000000
00020000
00000000
,
00030020
00000000
00000030
00001000
00000100
00000000
00000000
00000000
,
00000010
00000000
00000100
00000000
00000010
00000000
00000000
00000000
00000001
00001000
00000001
00001000
00000001
00000000
00000000
00000000
,
00000010
00000001
00000011
00000000
00000001
00000100
00001000
00000000
,
00000100
00000010
00001010
00000000
00001000
00000100
00010000
00000000
,
00001000
00010000
00011000
00000000
00001000
00100000
00010000
00000000
,
01000000
00000000
00100000
00000000
01100000
00000000
00000000
00000000
10000000
00010000
10000000
00010000
10000000
00000000
00000000
00000000
,
01000000
00010000
00001000
00010000
01000000
00010000
00001000
00000000
,
00010000
00001000
00010000
00100000
00010000
00001000
00010000
00000000
,
00000100
00001000
00000010
00001000
00000100
00000010
00000000
00000110
,
00000000
00000010
00000001
00000100
00000001
00000100
00001000
00000000
,
00020000
00000000
00100000
00000000
,
00001000
00000000
01000000
00000000
,
00032000
00000000
00000010
00000000
,
00010000
00000000
00000100
00000000
,
00013000
00100000
10000000
00000000
10000000
00010000
00000000
10010000
,
00000000
10000000
01000000
00000000
00010000
00001000
00010000
00000000
,
00001000
00000010
00000001
00000000
00000001
00001000
00000000
00001001
,
00000000
00000001
00000100
00000000
00001000
00010000
00001000
00000000
,
00020000
00000000
00000000
00000000
,
20030000
00000000
00000000
00000000
,
30020000
00000000
00000000
00000000
,
00032000
00000000
00013000
00000000
,
00011000
00000000
00000010
00001000
00000100
00000010
00000100
00000010
,
00000001
00000100
00000001
00000100
00001000
00010000
00001000
00010000
,
00001000
00000000
00100000
00010000
01000000
00100000
01000000
00100000
,
10000000
01000000
10000000
01000000
00010000
00001000
00010000
00001000
,
00010000
00000000
00000010
00000100
00000000
00000001
00000010
00000000
,
00001000
00010000
00000000
01000000
10000000
10000000
00010000
00000000
,
20020000
00000000
00000000
00000000
00000000
00000000
00000000
30030000
,
00000000
00000000
00000000
00000000
00000000
00000000
00000000
11000000
,
00000000
01000000
10000000
01000000
00010000
01000000
00010000
01000000
,
00100000
00001000
00100000
00001000
00010000
00000100
00010000
00000100
,
00001000
00000010
00000001
00000010
00001000
00000001
00000100
00001000
,
00000100
00000010
00000100
00000001
00001000
00000100
00000000
00011000
,
00000000
00000010
00001000
00000100
00010000
00000010
00001000
00000100
,
00010000
00001000
00010000
01000000
10000000
00010000
00000000
00110000
,
00000000
00001000
01000000
00010000
00100000
00001000
00010000
01000000
,
00010000
00000000
00001000
00010000
00001000
00000000
00000010
00000000
00000001
00000000
00001000
00000000
00000000
00000000
00000101
00000000
,
00000000
00000100
00000001
00000100
00001000
00000100
00001000
00000100
,
00000010
00010000
00000010
00010000
00001000
01000000
00001000
01000000
,
00010000
00100000
10000000
00100000
00010000
10000000
01000000
00010000
,
00001000
00100000
01000000
00010000
00001000
00100000
01000000
00010000
,
00001000
00100000
00010000
01000000
00001000
00100000
00010000
01000000
,
00001000
00010000
00000100
00001000
00000010
00000100
00000010
00001000
,
00000100
00000010
00001000
00000000
00010000
01000000
00100000
00000000
,
00010000
01000000
00100000
00010000
00001000
00000100
00000010
00000000
,
00000001
00000001
00000010
00001000
00001000
00000100
00010000
00010000
,
00001000
00100000
00100000
00010000
00100000
01000000
10000000
00100000
,
01000000
00000000
00010000
01000000
00010000
00000000
00100000
00000000
00001000
00000000
00010000
00001000
00010000
00000000
00000000
00000000
,
00000000
00000000
00000000
00000000
,
00000110
00000000
00001001
00000000
00000110
00000000
00000001
00000100
,
00001000
00010000
00100000
10000000
00010000
00010000
00010000
00000000
,
01100000
00000000
10010000
00000000
01100000
00000000
10000000
01000000
,
00010000
00001000
00000010
00000001
00001000
00001000
00001000
00000000
,
00000011
00000000
00000110
00000000
00001100
00000000
00000001
00000100
,
00010000
00001000
00100000
10000000
00010000
00100000
10000000
00100000
,
00010000
00000000
00001000
00000100
00000001
00000100
00000000
00000110
,
00000000
00000000
00000000
00000000
;
