
//----- song ID: raac -----//
#TITLE:Rave Accelerator;
#ARTIST:M-Project;
#BANNER:Rave Accelerator-tn.png;
#BACKGROUND:Rave Accelerator-bg.png;
#CDTITLE:./CDTitles/DDR A20 PLUS.png;
#MUSIC:Rave Accelerator.ogg;
#SAMPLESTART:91.766;
#SAMPLELENGTH:15;
#BPMS:0=170;
#NOTES:
     dance-single:
     :
     Beginner:
     4:
     :
0000
0000
0000
0000
,
0000
0000
0000
0000
,
0000
0000
0000
0000
,
0000
0000
0000
0000
,
0000
0000
0000
0000
,
0000
0000
0000
0000
,
0000
0000
0000
0000
,
0000
0000
0000
0000
,
0000
0000
0000
0000
,
0010
0000
0010
0000
,
0100
0000
0100
0000
,
0001
0000
0001
0000
,
1000
0000
1000
0000
,
0001
0001
0001
0000
,
1000
1000
1000
0000
,
0010
0000
0100
0000
,
1001
0000
0000
0000
,
0001
0000
1000
0000
,
0001
0000
0001
0000
,
0010
0000
0100
0000
,
0010
0000
0010
0000
,
1000
0000
0001
0000
,
1000
0000
1000
0000
,
0100
0000
0010
0000
,
0100
0000
0000
0000
,
0010
0000
0010
0000
,
0100
0100
0100
0000
,
1000
0000
1000
0000
,
0001
0001
0001
0000
,
0100
0000
0100
0000
,
0010
0010
0010
0000
,
0001
0000
0001
0000
,
2000
0000
3000
0000
,
0001
0000
0010
0000
,
0001
0010
0001
0000
,
1000
0000
0100
0000
,
1000
0100
1000
0000
,
0010
0000
0100
0000
,
0010
0100
0010
0000
,
0001
0000
1000
0000
,
0001
1000
0001
0000
,
2000
0000
3000
0000
,
0001
0000
1001
0000
,
0002
0000
0003
0000
,
1000
0000
1001
0000
,
2000
0000
3000
0000
,
0010
0000
1001
0000
,
0002
0000
0003
0000
,
0100
0000
1001
0000
,
0200
0000
0000
0000
,
0000
0000
0300
0000
,
0020
0000
0000
0000
,
0000
0000
0030
0000
,
2000
0000
3000
0000
,
0020
0000
0030
0000
,
0002
0000
0003
0000
,
0200
0000
0300
0000
,
1000
0000
0010
0000
,
0100
0000
0001
0000
,
0010
0000
0100
0000
,
1000
0000
0001
0000
,
0010
0010
0010
0000
,
0100
0100
0100
0000
,
1000
1000
1000
0000
,
2002
0000
3003
0000
,
1000
0000
0010
0010
,
0100
0000
0001
0000
,
1000
0000
0001
0001
,
0010
0000
0100
0000
,
1000
0000
0001
0001
,
1000
0000
0010
0000
,
0100
0000
0010
0010
,
0200
0000
0300
0000
,
1000
0000
0100
0000
,
1000
0100
1000
0000
,
0001
0000
0100
0000
,
0001
0100
0001
0000
,
0010
0000
0100
0000
,
0010
0100
0010
0000
,
1000
0000
0001
0000
,
1000
0001
1000
0000
,
1001
0000
0000
0000
,
0000
0000
0000
0000
;
#NOTES:
     dance-single:
     :
     Easy:
     8:
     :
0000
0000
0000
0000
,
0000
0000
0000
0000
,
0000
0000
0000
0000
,
0000
0000
0000
0000
,
0000
0000
0000
0000
,
0000
0000
0000
0000
,
0000
0000
0000
0000
,
0000
0000
0000
0000
,
0000
0000
0000
0000
,
1000
1000
0001
0001
,
0010
0010
0100
0100
,
1000
0010
0001
0100
,
1000
0100
0001
0010
,
1000
0100
0010
0001
,
0001
0100
0010
1000
,
0001
0100
0001
0000
1000
0100
1000
0000
,
2002
0000
0000
3003
,
0110
1000
0010
0100
,
0001
0100
0001
0000
1000
0100
1000
0000
,
0110
0001
0010
0100
,
1000
0100
1000
0000
0001
0100
0001
0000
,
1001
0001
0100
0010
,
1000
0010
0100
0000
0001
0010
0100
0000
,
1001
1000
0010
0100
,
0001
0010
0100
0000
1000
0010
0100
0000
,
1001
0100
0011
0100
,
1010
0100
0220
0330
,
1001
0010
1100
0010
,
0101
0010
0220
0330
,
1010
0010
0101
0001
,
0011
0010
2200
3300
,
0101
0100
1010
1000
,
1100
0100
0022
0033
,
0010
0100
1000
0001
,
0001
0100
1000
0000
1000
0100
0001
0000
,
0010
0100
1000
0001
,
1000
0100
0001
0000
0001
0100
1000
0000
,
0010
0100
0001
1000
,
0010
1000
0100
0000
0010
0001
0100
0000
,
0001
1000
0010
0100
,
0010
1000
0100
0000
0010
0001
0100
0000
,
0002
1000
0100
1003
,
0010
0000
0100
0000
0010
0010
0010
0000
,
2000
0001
0100
3001
,
0100
0000
0010
0000
0100
0100
0100
0000
,
0020
1000
0100
1030
,
0010
0000
0100
0000
0001
1000
0001
0000
,
0020
0001
0100
0031
,
1000
0000
0010
0000
0100
0010
0100
0000
,
0020
0000
0000
0000
,
0000
0000
0000
0030
,
0200
0000
0000
0000
,
0000
0000
0000
0300
,
0001
0000
0001
0000
,
1000
0000
1000
0000
,
0010
0000
0010
0000
,
0100
0000
0100
0000
,
0001
0010
0001
0010
,
0100
1000
0100
1000
,
0010
0100
0010
0100
,
0001
1000
0001
2000
,
3001
0010
0100
1000
,
0010
0100
0001
1000
,
0001
0100
0001
0000
1000
0100
1000
0000
,
2002
0000
0000
3003
,
0010
0000
0100
0000
0001
1000
0001
0000
,
0010
0000
0100
0000
1000
0001
1000
0000
,
0001
0000
1000
0000
0010
0100
0010
0000
,
1000
0000
0001
0000
0010
0100
0010
0000
,
0001
0000
0010
0000
0100
1000
0100
0000
,
1000
0000
0010
0000
0100
0001
0100
0000
,
0001
0000
1000
0000
0001
1000
0001
0000
,
2002
0000
0000
3003
,
0010
0100
0010
0011
,
0100
0010
0100
1010
,
1000
0001
1000
1100
,
0001
1000
0001
0101
,
0010
1000
0100
0010
,
0001
0100
0010
1000
,
0001
0100
0001
0000
1000
0100
1000
0000
,
0010
0100
0010
0000
0100
0000
0010
0000
,
1001
0000
0000
0000
,
0000
0000
0000
0000
;
#NOTES:
     dance-single:
     :
     Medium:
     12:
     :
0000
0000
0000
0000
,
0000
0000
0000
0000
,
0000
0000
0000
0000
,
0000
0000
0000
0000
,
0000
0000
0000
0000
,
0000
0000
0000
0000
,
0000
0000
0000
0000
,
0000
0000
0000
0000
,
0000
0000
0000
0000
,
1000
0010
0100
0000
0001
0100
0010
0000
,
1000
0001
0010
0000
0001
0100
1000
0000
,
0100
0010
1000
0000
0100
0010
0001
0000
,
1000
0001
0010
0000
0100
0010
0100
0000
,
1000
0100
1000
0010
1000
0010
0100
0000
,
0001
0100
0001
0010
0001
0100
0010
0000
,
0100
0010
1000
0001
0010
0100
1000
0001
,
2002
0000
3003
0110
,
1100
0000
0100
0010
0001
0100
0010
1000
,
0001
0001
1000
1000
0010
0100
0001
0000
,
0101
0000
0100
0010
1000
0100
0010
0001
,
1000
1000
0001
0001
0010
0100
1000
0000
,
1010
0000
0010
0100
0001
0010
0100
1000
,
0001
0001
1000
1000
0100
0010
0001
0000
,
0101
0000
0100
0010
1000
0001
0010
0100
,
1000
1000
0001
0001
0100
0010
1001
0000
,
0000
1100
0000
0101
0000
0010
0100
0001
,
0000
0010
0100
1000
0001
0000
1001
0000
,
0000
1010
0000
0011
0000
0100
0010
1000
,
0000
0010
0100
0001
1000
0000
1001
0000
,
0000
0110
0000
1001
0000
0001
0100
1000
,
0000
0100
0001
0010
1000
0000
0110
0000
,
0000
1001
0000
0110
0000
1000
0100
0001
,
0000
0100
1000
0010
0001
0000
0110
0000
,
1001
0000
0100
0010
1000
0001
0010
1000
,
0010
0010
0001
0001
1000
0010
0110
0000
,
1001
0000
0100
0010
0001
1000
0010
0001
,
0010
0010
1000
1000
0001
0010
0110
0000
,
1001
0000
0001
0010
1000
0010
0001
0100
,
0010
0010
0100
0100
0001
1000
0110
0000
,
1001
0000
1000
0100
0001
0100
1000
0010
,
0100
0100
0010
0010
1000
0001
0010
0000
,
1100
0000
1000
0010
1000
0000
0100
0000
,
0010
0001
0100
0000
0010
0000
1100
0000
,
0101
0000
0001
0100
0010
0000
1000
0000
,
0100
0010
0001
0000
1000
0000
1010
0000
,
0011
0000
0001
0100
1000
0000
0100
0000
,
0010
1000
0100
0010
0001
0000
0011
0000
,
1100
0000
1000
0100
0001
0000
0100
0000
,
0010
0001
0100
0010
1000
0000
0101
0000
,
2000
0000
0000
0000
,
0000
0000
0000
0000
,
3002
0000
0000
0000
,
0000
0000
0000
0000
,
1003
0000
0000
0000
0001
0000
0000
1000
0000
0000
0010
0000
0100
0000
0000
0000
,
0001
0000
0000
0000
1000
0000
0000
0001
0000
0000
0100
0000
0010
0000
0000
0000
,
1000
0000
0000
0000
0010
0000
0000
0100
0000
0000
0001
0000
1000
0000
0000
0000
,
0001
0000
0000
0000
0010
0000
0000
0100
0000
0000
1000
0000
0001
0000
0001
0000
,
1000
0100
1000
0000
0001
0100
0001
0000
,
1000
0010
1000
0000
0001
0010
0001
0000
,
1000
0010
0100
0000
0001
0010
0100
0000
,
1000
0100
0010
0000
0001
0100
0020
0000
,
1030
0100
1000
0010
0100
0001
0010
0000
,
0001
0100
0001
0010
0100
1000
0010
0000
,
0001
0100
1000
0100
0001
1000
0100
0001
,
0200
0000
0000
0000
0310
0010
0100
0000
,
0110
0000
1100
0000
0010
0001
0100
0000
,
0110
0000
1010
0000
0100
0001
0010
0000
,
0011
0000
1100
0000
0001
0100
1000
0000
,
0110
0000
1100
0000
0001
0010
1000
0000
,
0110
0000
0011
0000
0100
1000
0010
0000
,
0110
0000
0101
0000
0010
1000
0100
0000
,
1100
0000
0011
0000
1000
0100
0001
0000
,
0200
0000
0310
0001
0100
0010
0110
0000
,
1000
0100
0000
0100
1000
0000
1001
0000
,
0100
0010
0000
0100
0000
0001
0100
1000
,
0100
0001
0000
0001
0100
0000
0110
0000
,
0100
0010
0000
0100
0000
0001
0010
1000
,
0010
0100
0000
0100
0010
0000
1001
0000
,
1000
0010
0000
0100
0000
0001
0010
0100
,
0010
0001
0010
0000
1000
0100
1000
0000
,
0010
0100
0010
1000
0001
0010
0100
0000
,
1001
0000
0000
0000
,
0000
0000
0000
0000
;
#NOTES:
     dance-single:
     :
     Hard:
     16:
     :
0000
0000
0000
0000
,
0000
0000
0000
0000
,
0000
0000
0000
0000
,
0000
0000
0000
0000
,
0000
0000
0000
0000
,
0000
0000
0000
0000
,
0000
0000
0000
0000
,
0000
0000
0000
0000
,
0000
0000
0000
0000
,
0110
0000
0000
0001
0000
0000
1000
0000
0000
0000
0000
1000
0000
0000
0001
0000
,
0110
0000
0000
0010
0000
0000
0100
0000
0000
0000
0000
0100
0000
0000
0010
0000
,
1001
0000
0000
1000
0000
0000
0010
0000
0000
0000
0000
0010
0000
0000
1000
0000
,
0011
0000
0000
0010
0000
0000
0001
0000
0000
0000
0000
0001
0000
0000
0010
0000
,
0110
0000
0010
0000
0001
0000
1000
0000
0010
0000
0100
0000
0001
1000
0010
0000
,
1010
0000
0010
0000
0100
0000
0001
0000
0010
0000
0100
0000
1000
0001
0100
0000
,
0001
0100
0010
0100
0010
1000
0010
1000
0100
0010
0100
0010
0001
0010
0001
1000
,
0200
0000
0300
1001
,
0110
0000
0000
0000
0100
0000
0010
0000
1000
0100
0010
0000
0001
0100
0010
0000
,
1000
0010
1000
0010
0100
0001
0100
0001
0010
0000
0001
0000
1000
0000
0010
0000
,
0110
0000
0000
0000
1000
0000
0010
0000
1000
0001
0010
0000
0001
1000
0010
0000
,
1000
0010
1000
0010
0100
0001
0010
0100
1000
0000
0001
0000
1000
0000
0001
0000
,
1001
0000
0000
0000
0010
0000
0100
0000
0001
0010
0100
0000
1000
0010
0100
0000
,
0001
0100
0010
1000
0100
0010
0001
0100
0010
0100
0001
0000
1000
0000
0100
0000
,
0110
0000
0000
0000
0001
0000
0100
0000
0001
1000
0100
0000
1000
0001
0100
0000
,
0001
0010
0001
0010
0100
1000
0010
0100
0001
0000
1000
0000
0110
0000
0000
0000
,
1001
0000
0000
0000
0000
1000
0100
0010
0000
0100
0010
0001
0000
0001
0100
0010
,
0000
0000
0110
0000
0000
1000
0010
0100
0000
0010
0100
0001
1000
0000
0001
0000
,
0110
0000
0000
0000
0000
0001
0010
0100
0000
0010
0100
1000
0000
0000
1010
0000
,
0000
0000
0101
0000
0000
0001
0100
0010
0000
0100
0010
1000
0001
0000
1000
0000
,
1001
0000
0000
0000
0000
0001
0010
0100
0000
0010
0100
1000
0000
1000
0010
0100
,
0000
0000
0110
0000
0000
0001
0100
0010
0000
0100
0010
1000
0001
0000
1000
0000
,
0110
0000
0000
0000
0000
1000
0100
0010
0000
0100
0010
0001
0000
0000
0101
0000
,
0000
0000
1010
0000
0000
1000
0010
0100
0000
0010
0100
0001
1000
0000
0001
0000
,
1001
0000
0000
0000
0110
0000
0001
0000
1000
0100
0001
0000
0100
0000
1000
0000
,
0001
0010
1000
0000
1000
0010
0001
0000
1000
0000
0010
0000
0200
0000
0000
0000
,
0310
0000
0000
0000
0110
0000
1000
0000
0001
0010
1000
0000
0010
0000
0001
0000
,
1000
0100
0001
0000
0001
0100
1000
0000
0001
0000
0100
0000
0020
0000
0000
0000
,
0130
0000
0000
0000
0110
0000
0001
0000
1000
0010
0001
0000
0010
0000
1000
0000
,
0001
0100
1000
0000
1000
0100
0001
0000
1000
0000
0100
0000
0020
0000
0000
0000
,
0130
0000
0000
0000
0110
0000
1000
0000
0001
0100
1000
0000
0100
0000
0001
0000
,
1000
0010
0001
0000
0001
0010
1000
0000
0100
0000
0010
0000
0110
0000
0000
0000
,
0200
0000
0000
0000
1300
0000
0010
0000
0001
0010
0100
0000
0001
0000
1000
0000
,
0100
0001
1000
0010
0001
1000
0002
0000
,
2003
0000
0000
0000
3001
0000
0010
0000
1000
0010
0100
0000
1000
0000
0010
0000
,
0001
1000
0100
0010
1000
0010
2000
0000
,
3002
0000
0000
0000
1003
0000
0010
0000
0001
0010
0100
0000
0001
0000
0010
0000
,
1000
0001
0100
1000
0010
1000
0200
0000
,
0320
0000
0000
0000
0130
0000
1000
0000
0001
0100
0010
0000
1000
0000
0001
0000
,
1000
0010
0001
1000
0100
0001
0020
0000
,
0230
0000
0000
0000
,
0000
0000
0000
0000
,
0320
0000
0000
0000
,
0000
0000
0000
0000
,
0130
0000
0000
0000
1000
0000
0000
0010
0000
0000
0100
0000
0010
0000
0000
0000
,
0100
0000
0000
0000
0001
0000
0000
0010
0000
0000
0100
0000
0010
0000
0000
0000
,
0001
0000
0000
0000
1000
0000
0000
0100
0000
0000
1000
0000
0001
0000
0000
0000
,
1000
0000
0000
0000
0001
0000
0000
1000
0000
0000
0010
0000
0100
0000
0010
0000
,
1010
0000
0000
1000
0010
0000
1000
0000
1100
0000
0000
1000
0100
0000
1000
0000
,
0011
0000
0000
0001
0010
0000
0001
0000
0101
0000
0000
0001
0100
0000
0001
0000
,
0110
0000
0000
0100
0010
0000
0100
0000
0101
0000
0000
0001
0100
0000
0001
0000
,
0011
0000
0000
0001
0010
0000
0001
0000
1010
0000
0000
1000
0020
0000
0000
0000
,
0130
0001
0010
1000
0010
0001
1000
0010
,
0001
0010
1000
0001
0010
0100
1000
0010
,
0100
0001
0100
0001
1000
0010
1000
0010
0100
0001
1000
0010
1000
0001
0100
0010
,
0200
0000
0000
0000
0000
0000
0000
0000
0310
0100
0010
0000
1001
0000
0000
0000
,
1000
0000
0010
0000
1000
0000
0010
0100
0000
0100
0010
0000
1000
0100
0010
0000
,
0001
0000
0010
0000
0001
0000
0010
0100
0000
0100
0010
0000
0001
0100
0010
0000
,
1000
0000
0010
0000
0001
0000
0010
1000
0000
1000
0010
0000
0100
0010
1000
0000
,
0001
0000
0010
0000
1000
0000
0010
0001
0000
0001
0010
0000
0100
0010
0001
0000
,
0100
0000
0010
0000
0100
0000
0010
1000
0000
0010
0001
0000
0010
1000
0100
0000
,
0010
0000
0100
0000
0010
0000
0100
1000
0000
0100
0001
0000
0100
1000
0010
0000
,
0001
0000
0010
0000
1000
0000
0001
0010
0000
0010
1000
0000
0010
0001
0100
0000
,
0220
0000
0030
0000
0301
0100
0010
1000
0100
0000
0010
0100
0010
0000
0000
0000
,
0100
0000
1100
0000
0000
0000
0110
0000
0010
0001
0000
0010
0100
0000
1000
0000
,
0001
0100
0000
0010
1000
0000
0200
0000
0000
0000
1300
0010
0100
0000
0010
0000
,
0100
0000
0101
0000
0000
0000
0110
0000
0010
1000
0000
0010
0100
0000
0001
0000
,
1000
0100
0000
0010
0001
0000
0200
0000
0000
0000
0301
0010
0100
0000
0010
0000
,
0001
0000
1001
0000
0000
0000
0110
0000
0010
1000
0000
0010
0001
0000
0010
0000
,
0100
0001
0000
0010
1000
0000
0020
0000
0000
0000
0031
0010
1000
0000
0010
0000
,
0100
0010
0001
0000
0100
0000
0010
0000
0100
0010
1000
0000
0100
0000
0010
0000
,
0001
0010
0100
0010
0001
1000
0010
0100
0001
0000
1000
0000
0110
0000
0000
0000
,
1001
0000
0000
0000
,
0000
0000
0000
0000
;
#NOTES:
     dance-double:
     :
     Easy:
     8:
     :
00000000
00000000
00000000
00000000
,
00000000
00000000
00000000
00000000
,
00000000
00000000
00000000
00000000
,
00000000
00000000
00000000
00000000
,
00000000
00000000
00000000
00000000
,
00000000
00000000
00000000
00000000
,
00000000
00000000
00000000
00000000
,
00000000
00000000
00000000
00000000
,
00000000
00000000
00000000
00000000
,
00001000
00001000
00010000
00010000
,
00000010
00000010
00000100
00000100
,
00000001
00000100
00000001
00000100
,
00001000
00010000
00001000
00010000
,
01000000
10000000
00100000
00010000
,
00001000
00010000
00100000
10000000
,
01000000
00100000
01000000
00000000
10000000
00010000
10000000
00000000
,
20020000
00000000
00000000
30030000
,
10010000
10000000
01000000
00010000
,
00001000
00010000
00001000
00000000
00010000
00001000
00000100
00000000
,
00000110
00000001
00000100
00001000
,
00010000
00001000
00010000
00000000
00001000
00010000
01000000
00000000
,
01100000
10000000
00100000
01000000
,
00001000
00010000
00000100
00000000
00001000
00000100
00000010
00000000
,
00000110
00000001
00000100
00000010
,
00010000
00001000
00100000
00000000
00010000
00100000
01000000
00000000
,
10010000
01000000
01010000
00100000
,
00101000
00001000
00022000
00033000
,
00011000
00000100
00001100
00000010
,
00000011
00001000
00002002
00003003
,
00000101
00000100
00000110
00001000
,
00011000
00100000
02200000
03300000
,
10100000
00100000
01100000
00010000
,
00011000
00000100
00000220
00000330
,
00000001
00000010
00000100
00000010
,
00000001
00000100
00001000
00000000
00001000
00010000
00100000
00000000
,
01000000
00100000
10000000
01000000
,
10000000
01000000
00010000
00000000
00010000
00001000
00000010
00000000
,
00000001
00000100
00000010
00000100
,
00000001
00000010
00000100
00000000
00010000
00001000
00100000
00000000
,
01000000
10000000
00100000
01000000
,
00010000
00100000
00001000
00000000
00010000
00000100
00001000
00000000
,
00000020
00000100
00001000
00000130
,
00000010
00000000
00001000
00000000
00000100
00000100
00000100
00000000
,
00020000
00001000
00000100
00031000
,
00010000
00000000
01000000
00000000
00100000
00100000
00100000
00000000
,
00020000
00100000
10000000
00130000
,
00001000
00000000
00010000
00000000
00001000
00010000
00001000
00000000
,
00000200
00000010
00001000
00000310
,
00000001
00000000
00000100
00000000
00000001
00001000
00000001
00000000
,
00000020
00000000
00000000
00000000
,
00000000
00000000
00000000
00000030
,
00002000
00000000
00000000
00000000
,
00000000
00000000
00000000
00003000
,
00000001
00000000
00000001
00000000
,
00000100
00000000
00000100
00000000
,
00001000
00000000
00001000
00000000
,
00010000
00000000
00010000
00000000
,
00001000
00010000
00001000
00010000
,
00100000
01000000
00100000
01000000
,
00010000
10000000
00010000
10000000
,
00100000
01000000
00010000
20000000
,
30010000
00100000
01000000
00100000
,
00001000
00010000
00001000
00000100
,
00000001
00000100
00000001
00000000
00001000
00000010
00001000
00000000
,
00000220
00000000
00000000
00000330
,
00000001
00000000
00000010
00000000
00000100
00000010
00000100
00000000
,
00010000
00000000
00001000
00000000
00010000
00001000
00010000
00000000
,
01000000
00000000
00100000
00000000
00010000
10000000
00010000
00000000
,
00100000
00000000
01000000
00000000
00100000
01000000
00100000
00000000
,
10000000
00000000
01000000
00000000
00100000
00010000
00100000
00000000
,
00001000
00000000
00010000
00000000
00000010
00001000
00000010
00000000
,
00000100
00000000
00000001
00000000
00001000
00000001
00001000
00000000
,
00002002
00000000
00000000
00003003
,
00000001
00000100
00000010
00000110
,
00001000
00000100
00010000
00010100
,
00001000
00100000
00010000
00110000
,
10000000
00100000
01000000
01010000
,
00100000
10000000
01000000
00010000
,
00001000
00000100
00000001
00000010
,
00000001
00000010
00000100
00000000
00001000
00000010
00000100
00000000
,
00000001
00000100
00001000
00000000
00010000
00000000
00001000
00000000
,
00011000
00000000
00000000
00000000
,
00000000
00000000
00000000
00000000
;
#NOTES:
     dance-double:
     :
     Medium:
     12:
     :
00000000
00000000
00000000
00000000
,
00000000
00000000
00000000
00000000
,
00000000
00000000
00000000
00000000
,
00000000
00000000
00000000
00000000
,
00000000
00000000
00000000
00000000
,
00000000
00000000
00000000
00000000
,
00000000
00000000
00000000
00000000
,
00000000
00000000
00000000
00000000
,
00000000
00000000
00000000
00000000
,
00000001
00000010
00000100
00000000
00000010
00000001
00000100
00000000
,
00000010
00000100
00001000
00000000
00010000
00001000
00010000
00000000
,
00001000
00010000
01000000
00000000
00100000
00010000
00100000
00000000
,
01000000
10000000
01000000
00000000
00100000
01000000
00100000
00000000
,
10000000
01000000
00010000
00001000
00000100
00000001
00000010
00000000
,
00000001
00000010
00001000
00010000
00100000
10000000
01000000
00000000
,
00100000
00010000
10000000
00100000
01000000
00010000
00100000
01000000
,
02200000
00000000
03300000
10010000
,
01100000
00000000
10000000
01000000
00100000
00001000
00010000
00001000
,
00000100
00000100
00000010
00000010
00001000
00000001
00000010
00000000
,
00000110
00000000
00000001
00000010
00000100
00010000
00001000
00010000
,
00100000
00100000
01000000
01000000
00010000
10000000
01000000
00000000
,
10010000
00000000
10000000
01000000
00010000
00001000
00000100
00000001
,
00001000
00001000
00000001
00000001
00000010
00000100
00001000
00000000
,
00001001
00000000
00000001
00000010
00001000
00010000
00100000
10000000
,
00010000
00010000
10000000
10000000
01000000
00100000
10010000
00000000
,
00000000
00110000
00000000
11000000
00000000
10000000
01000000
00010000
,
00000000
00001000
00000100
00000001
00001000
00000000
00001001
00000000
,
00000000
00001010
00000000
00000101
00000000
00000001
00000100
00001000
,
00000000
00010000
01000000
10000000
00010000
00000000
10010000
00000000
,
00000000
10100000
00000000
01010000
00000000
00100000
00001000
00010000
,
00000000
00001000
00010000
00001000
00000100
00000000
00000110
00000000
,
00000000
00000101
00000000
00001010
00000000
00000100
00010000
00001000
,
00000000
00010000
00001000
00010000
00100000
00000000
01100000
00000000
,
10010000
00000000
00100000
10000000
01000000
00010000
00001000
00010000
,
00000100
00000100
00000010
00000010
00000001
00001000
00000001
00000000
,
00001001
00000000
00000010
00000001
00000100
00001000
00010000
00001000
,
01000000
01000000
00100000
00100000
10000000
00010000
10000000
00000000
,
01100000
00000000
10000000
00100000
00010000
00100000
10000000
01000000
,
00010000
00010000
00001000
00001000
00000100
00000010
00000100
00000000
,
00000110
00000000
00000001
00000010
00001000
00000010
00000001
00000100
,
00001000
00001000
00010000
00010000
01000000
00100000
01000000
00000000
,
10010000
00000000
10000000
01000000
00100000
00000000
00001000
00000000
,
00010000
00001000
00000100
00000000
00001000
00000000
00011000
00000000
,
00001100
00000000
00001000
00000100
00000010
00000000
00000001
00000000
,
00000100
00001000
00010000
00000000
00001000
00000000
00110000
00000000
,
10100000
00000000
10000000
01000000
00010000
00000000
01000000
00000000
,
00010000
00001000
00000100
00000001
00000100
00000000
00001010
00000000
,
00000101
00000000
00000001
00000100
00001000
00000000
00010000
00000000
,
00001000
00010000
01000000
10000000
00010000
00000000
11000000
00000000
,
00020000
00000000
00000000
00000000
,
00000000
00000000
00000000
00000000
,
00230000
00000000
00000000
00000000
,
00000000
00000000
00000000
00000000
,
00310000
00000000
00000000
00000000
01000000
00000000
00000000
00100000
00000000
00000000
00010000
00000000
00100000
00000000
00000000
00000000
,
00001000
00000000
00000000
00000000
01000000
00000000
00000000
00001000
00000000
00000000
00010000
00000000
00001000
00000000
00000000
00000000
,
00000100
00000000
00000000
00000000
00000010
00000000
00000000
00000100
00000000
00000000
00000001
00000000
00001000
00000000
00000000
00000000
,
00000001
00000000
00000000
00000000
00000010
00000000
00000000
00000100
00000000
00000000
00001000
00000000
00000001
00000000
00000010
00000000
,
00000100
00001000
00000010
00000000
00000100
00000001
00000010
00000000
,
00001000
00010000
00000100
00000000
00010000
00001000
00100000
00000000
,
00010000
01000000
00100000
00000000
10000000
00100000
01000000
00000000
,
00010000
01000000
00100000
00000000
10000000
01000000
00020000
00000000
,
01030000
10000000
01000000
00100000
00010000
00100000
00001000
00000000
,
00010000
00001000
00010000
00000100
00001000
00000010
00000100
00000000
,
00000001
00000100
00001000
00010000
00100000
10000000
01000000
00010000
,
00002000
00000000
00000000
00000000
00013000
00010000
00001000
00000000
,
00011000
00000000
00110000
00000000
00010000
01000000
00100000
00000000
,
01100000
00000000
10100000
00000000
10000000
01000000
00100000
00000000
,
00110000
00000000
00011000
00000000
00001000
00000100
00000001
00000000
,
00000110
00000000
00001001
00000000
00000001
00000010
00001000
00000000
,
00000011
00000000
00000101
00000000
00000001
00000100
00001000
00000000
,
00011000
00000000
01010000
00000000
01000000
00100000
10000000
00000000
,
10100000
00000000
01010000
00000000
00100000
01000000
00001000
00000000
,
00020000
00000000
00031000
00010000
00000010
00000100
00000001
00000000
,
00000010
00000001
00000000
00000001
00000010
00000000
00000011
00000000
,
00000001
00000100
00000000
00001000
00000000
00010000
00001000
00010000
,
00100000
01000000
00000000
01000000
00100000
00000000
01100000
00000000
,
10000000
01000000
00000000
00100000
00000000
00001000
00010000
00001000
,
00000100
00000001
00000000
00000001
00001000
00000000
00001001
00000000
,
00000001
00000010
00000000
00000100
00000000
00001000
00000100
00010000
,
00001000
00010000
00000100
00000000
00010000
00001000
00100000
00000000
,
00010000
01000000
00100000
10000000
00010000
00100000
00001000
00000000
,
00011000
00000000
00000000
00000000
,
00000000
00000000
00000000
00000000
;
#NOTES:
     dance-double:
     :
     Hard:
     16:
     :
00000000
00000000
00000000
00000000
,
00000000
00000000
00000000
00000000
,
00000000
00000000
00000000
00000000
,
00000000
00000000
00000000
00000000
,
00000000
00000000
00000000
00000000
,
00000000
00000000
00000000
00000000
,
00000000
00000000
00000000
00000000
,
00000000
00000000
00000000
00000000
,
00000000
00000000
00000000
00000000
,
11000000
00000000
00000000
00100000
00000000
00000000
01000000
00000000
00000000
00000000
00000000
00010000
00000000
00000000
00100000
00000000
,
00011000
00000000
00000000
00001000
00000000
00000000
00010000
00000000
00000000
00000000
00000000
00001000
00000000
00000000
00000010
00000000
,
00000110
00000000
00000000
00000001
00000000
00000000
00000010
00000000
00000000
00000000
00000000
00000100
00000000
00000000
00001000
00000000
,
00000110
00000000
00000000
00010000
00000000
00000000
00001000
00000000
00000000
00000000
00000000
00010000
00000000
00000000
00100000
00000000
,
01100000
01000000
00100000
10000000
01000000
00100000
00010000
00100000
,
00001000
00010000
00001000
00000100
00000010
00001000
00000001
00000010
,
00000001
00000010
00000001
00000010
00000100
00001000
00000100
00001000
00000010
00001000
00000010
00010000
00001000
00010000
00001000
00100000
,
00020000
00000000
00030000
10010000
,
01100000
00000000
00000000
00000000
10000000
00000000
01000000
00000000
00100000
00010000
10000000
00000000
00010000
00100000
00001000
00000000
,
00010000
00001000
00010000
00001000
00010000
00000100
00001000
00000010
00000100
00000000
00000001
00000000
00000010
00000000
00000100
00000000
,
00000110
00000000
00000000
00000000
00000001
00000000
00000100
00000000
00000010
00001000
00000001
00000000
00001000
00000010
00010000
00000000
,
00001000
00010000
00001000
00010000
00001000
01000000
00010000
00100000
01000000
00000000
10000000
00000000
00100000
00000000
01000000
00000000
,
01100000
00000000
00000000
00000000
10000000
00000000
00010000
00000000
00100000
01000000
10000000
00000000
00100000
01000000
00010000
00000000
,
00100000
00001000
00100000
00001000
00010000
00000100
00010000
00000100
00001000
00000010
00000100
00000000
00000001
00000000
00000010
00000000
,
00000011
00000000
00000000
00000000
00000001
00000000
00001000
00000000
00000010
00000100
00000001
00000000
00000010
00000100
00001000
00000000
,
00000010
00010000
00000010
00010000
00001000
01000000
00001000
01000000
00010000
00100000
01000000
00000000
01100000
00000000
00000000
00000000
,
00110000
00000000
00000000
00000000
00000000
10000000
01000000
00100000
00000000
01000000
00100000
00010000
00000000
00100000
00001000
00010000
,
00000000
00000000
00011000
00000000
00000000
00001000
00000100
00000010
00000000
00000100
00000010
00001000
00000001
00000000
00001000
00000000
,
00001010
00000000
00000000
00000000
00000000
00000001
00000100
00000010
00000000
00000100
00000010
00010000
00000000
00000000
00010010
00000000
,
00000000
00000000
00011000
00000000
00000000
00010000
01000000
00100000
00000000
01000000
00100000
00010000
10000000
00000000
00100000
00000000
,
10100000
00000000
00000000
00000000
00000000
10000000
00100000
01000000
00000000
00100000
01000000
00010000
00000000
01000000
00001000
00010000
,
00000000
00000000
00011000
00000000
00000000
00000100
00001000
00000010
00000000
00000100
00000001
00000010
00000100
00000000
00000010
00000000
,
00000011
00000000
00000000
00000000
00000000
00000001
00000100
00000010
00000000
00000100
00000010
00001000
00000000
00000000
00001100
00000000
,
00000000
00000000
00011000
00000000
00000000
00100000
00010000
01000000
00000000
00100000
10000000
01000000
00100000
00000000
01000000
00000000
,
11000000
00000000
00000000
00000000
01100000
00000000
10000000
00000000
00100000
01000000
00010000
00000000
00100000
00000000
00001000
00000000
,
00010000
00001000
00000100
00000000
00001000
00000000
00000100
00000000
00000001
00000000
00000010
00000000
00000200
00000000
00000000
00000000
,
00000310
00000000
00000000
00000000
00000110
00000000
00000001
00000000
00000100
00000010
00001000
00000000
00000100
00000000
00010000
00000000
,
00001000
00010000
00100000
00000000
00010000
00000000
00100000
00000000
10000000
00000000
01000000
00000000
00200000
00000000
00000000
00000000
,
01300000
00000000
00000000
00000000
10010000
00000000
00100000
00000000
10000000
00100000
00010000
00000000
00001000
00000000
00010000
00000000
,
00001000
00000100
00000010
00000000
00000100
00000000
00000001
00000000
00000010
00000000
00000100
00000000
00000020
00000000
00000000
00000000
,
00000130
00000000
00000000
00000000
00001001
00000000
00000100
00000000
00000001
00000100
00001000
00000000
00010000
00000000
00001000
00000000
,
00010000
00100000
01000000
00000000
00100000
00000000
10000000
00000000
01000000
00000000
00100000
00000000
01100000
00000000
00000000
00000000
,
20000000
00000000
00000000
00000000
31000000
00000000
00100000
00000000
00010000
10000000
01000000
00000000
00010000
00000000
00001000
00000000
,
00010000
00000000
00000000
00000000
00000000
00000000
00000000
00000000
00000000
00000000
00000000
00000000
00000000
00000000
00000000
00000000
00000000
00000000
00000000
00000000
00000000
00000000
00000000
00000000
00100000
00000000
00000000
00000000
00000000
00000000
00000000
00000000
00000000
00000000
00000000
00000000
00000000
00000000
00000000
00000000
00000000
00000000
00000000
00000000
00000000
00000000
00000000
00000000
00010000
00000000
00000000
00000000
00000000
00000000
00000000
00000000
00000000
00000000
00000000
00000000
00000000
00000000
00000000
00000000
00000000
00000000
00000000
00000000
00000000
00000000
00000000
00000000
00001000
00000000
00000000
00000000
00000000
00000000
00000000
00000000
00000000
00000000
00000000
00000000
00000000
00000000
00000000
00000000
00000000
00000000
00000000
00000000
00000000
00000000
00000000
00000000
00000100
00000000
00000000
00000000
00000000
00000000
00000000
00000000
00000000
00000000
00000000
00000000
00000000
00000000
00000000
00000000
00000000
00000000
00000000
00000000
00000000
00000000
00000000
00000000
00000001
00000000
00000000
00000000
00000000
00000000
00000000
00000000
00000000
00000000
00000000
00000000
00000000
00000000
00000000
00000000
00000000
00000000
00000000
00000000
00000000
00000000
00000000
00000000
00002000
00000000
00000000
00000000
00000000
00000000
00000000
00000000
00000000
00000000
00000000
00000000
00000000
00000000
00000000
00000000
00000000
00000000
00000000
00000000
00000000
00000000
00000000
00000000
00000000
00000000
00000000
00000000
00000000
00000000
00000000
00000000
00000000
00000000
00000000
00000000
00000000
00000000
00000000
00000000
00000000
00000000
00000000
00000000
00000000
00000000
00000000
00003000
,
00000002
00000000
00000000
00000000
00000013
00000000
00000100
00000000
00001000
00000001
00000010
00000000
00001000
00000000
00010000
00000000
,
00001000
00000100
00001000
00010000
00100000
10000000
00020000
00000000
,
20030000
00000000
00000000
00000000
30100000
00000000
01000000
00000000
00010000
00100000
10000000
00000000
00100000
00000000
00001000
00000000
,
00010000
00001000
00000100
00000010
00001000
00000001
00000020
00000000
,
00000230
00000000
00000000
00000000
00001300
00000000
00000010
00000000
00000001
00000010
00001000
00000000
00000010
00000000
00001000
00000000
,
00000100
00010000
00001000
00100000
00010000
01000000
00200000
00000000
,
02300000
00000000
00000000
00000000
,
00000000
00000000
00000000
00000000
,
03020000
00000000
00000000
00000000
,
00000000
00000000
00000000
00000000
,
00130000
00000000
00000000
00000000
00001000
00000000
00000000
00010000
00000000
00000000
00001000
00000000
00101000
00000000
00000000
00000000
,
00010000
00000000
00000000
00000000
00000100
00000000
00000000
00001000
00000000
00000000
00000010
00000000
00000110
00000000
00000000
00000000
,
00000001
00000000
00000000
00000000
00000010
00000000
00000000
00000100
00000000
00000000
00000010
00000000
00000110
00000000
00000000
00000000
,
00001000
00000000
00000000
00000000
00000100
00000000
00000000
00010000
00000000
00000000
00001000
00000000
00010000
00000000
00100000
00000000
,
01100000
00000000
00000000
01000000
00100000
00000000
10000000
00000000
11000000
00000000
00000000
01000000
00100000
00000000
00010000
00000000
,
01010000
00000000
00000000
00010000
00100000
00000000
00001000
00000000
00011000
00000000
00000000
00010000
00000100
00000000
00001000
00000000
,
00001100
00000000
00000000
00000100
00000010
00000000
00000001
00000000
00000011
00000000
00000000
00000001
00000100
00000000
00000001
00000000
,
00001001
00000000
00000000
00000010
00001000
00000000
00000100
00000000
00010100
00000000
00000000
00001000
00020000
00000000
00000000
00000000
,
00031000
00010000
01000000
10000000
00100000
00010000
00001000
00000100
,
00000001
00000010
00001000
00010000
01000000
00010000
00001000
00010000
,
00001000
00010000
00000100
00010000
00000010
00000100
00000010
00001000
00000001
00000010
00000100
00001000
00000100
00010000
00001000
00010000
,
00002000
00000000
00000000
00000000
00000000
00000000
00000000
00000000
00013000
00001000
00010000
00000000
00011000
00000000
00000000
00000000
,
00010000
00000000
00001000
00000000
00100000
00000000
00010000
00100000
00000000
00100000
00010000
00000000
01000000
00100000
10000000
00000000
,
00100000
00000000
10000000
00000000
01000000
00000000
00100000
00010000
00000000
00010000
00100000
00000000
00001000
00010000
00001000
00000000
,
00000100
00000000
00000010
00000000
00001000
00000000
00000100
00000010
00000000
00000010
00000100
00000000
00000010
00000001
00000100
00000000
,
00000001
00000000
00000100
00000000
00000010
00000000
00001000
00000010
00000000
00000010
00001000
00000000
00000100
00010000
00001000
00000000
,
00010000
00000000
01000000
00000000
10000000
00000000
00100000
10000000
00000000
00100000
00010000
00000000
00100000
01000000
00010000
00000000
,
00100000
00000000
00001000
00000000
00010000
00000000
00001000
00000100
00000000
00000001
00000100
00000000
00000010
00001000
00000100
00000000
,
00000001
00000000
00000100
00000000
00001000
00000000
00000010
00000100
00000000
00000100
00000010
00000000
00001000
00000001
00000100
00000000
,
00000220
00000000
00000030
00000000
00000310
00001000
00000001
00000100
00000010
00000000
00001000
00000001
00001000
00000000
00000000
00000000
,
00000001
00000000
00000011
00000000
00000000
00000000
00001100
00000000
00000100
00000010
00000000
00000001
00000100
00000000
00001000
00000000
,
00010000
00001000
00000000
00001000
00010000
00000000
02000000
00000000
00000000
00000000
13000000
00100000
01000000
00000000
00100000
00000000
,
10000000
00000000
10100000
00000000
00000000
00000000
01010000
00000000
01000000
00100000
00000000
10000000
01000000
00000000
00010000
00000000
,
00001000
00010000
00000000
00010000
00001000
00000000
00000200
00000000
00000000
00000000
00000301
00000010
00000100
00000000
00000010
00000000
,
00000100
00000000
00001100
00000000
00000000
00000000
00000110
00000000
00000010
00001000
00000000
00000010
00000001
00000000
00000100
00000000
,
00001000
00010000
00000000
01000000
10000000
00000000
00200000
00000000
00000000
00000000
10300000
01000000
00100000
00000000
00010000
00000000
,
01000000
00100000
10000000
00000000
01000000
00000000
00010000
00000000
00001000
00100000
00010000
00000000
00100000
00000000
00001000
00000000
,
00010000
00001000
00010000
00001000
00000100
00000010
00000100
00000010
00001000
00000000
00000001
00000000
00000110
00000000
00000000
00000000
,
00001001
00000000
00000000
00000000
,
00000000
00000000
00000000
00000000
;
