
//----- song ID: room -----//
#TITLE:ROOM;
#ARTIST:Blanc Bunny Bandit;
#BANNER:ROOM.png;
#BACKGROUND:ROOM-bg.png;
#CDTITLE:./CDTitles/DDR A20 PLUS.png;
#MUSIC:ROOM.ogg;
#SAMPLESTART:57.5;
#SAMPLELENGTH:15;
#BPMS:0=145;
#NOTES:
     dance-single:
     :
     Beginner:
     2:
     :
0000
0000
0000
0000
,
0000
0000
0000
0000
,
0000
0000
0000
0000
,
1000
0000
1000
0000
,
0100
0000
0100
0000
,
0010
0000
0010
0000
,
0001
0000
0000
0000
,
0001
0000
0001
0000
,
0100
0000
0100
0000
,
0010
0000
0010
0000
,
1000
0000
0000
0000
,
1000
0000
1000
0000
,
0100
0100
0100
0000
,
0010
0000
0100
0000
,
0010
0000
0000
0000
,
0001
0000
0001
0000
,
0100
0100
0100
0000
,
0010
0000
0100
0000
,
0010
0000
0000
0000
,
0001
0000
0100
0000
,
0001
0000
0100
0000
,
0010
0000
1000
0000
,
0010
0000
0000
0000
,
1000
0000
0100
0000
,
1000
0000
0100
0000
,
0010
0000
0001
0000
,
0010
0000
0000
0000
,
0002
0000
0000
0000
,
0003
0000
0000
0000
,
0020
0000
0000
0000
,
0030
0000
0000
0000
,
0200
0000
0000
0000
,
0300
0000
0000
0000
,
2000
0000
0000
0000
,
3000
0000
0000
0000
,
1000
0000
0010
0000
,
0001
0000
0000
0000
,
0001
0001
0001
0000
,
0100
0000
0000
0000
,
0001
0000
0010
0000
,
1000
0000
0000
0000
,
1000
1000
1000
0000
,
0100
0000
0000
0000
,
2000
0000
0000
0000
,
3000
0000
0000
0000
,
0100
0100
0100
0000
,
0100
0000
0000
0000
,
0002
0000
0000
0000
,
0003
0000
0000
0000
,
0010
0010
0010
0000
,
0010
0000
0000
0000
,
0002
0000
0000
0000
,
0003
0000
0000
0000
,
0001
0000
0100
0000
,
0010
0000
0000
0000
,
1001
0000
0000
0000
,
1001
0000
0000
0000
,
1000
0000
0100
0000
,
1000
0000
0000
0000
,
1001
0000
0000
0000
,
1001
0000
0000
0000
,
0001
0000
0100
0000
,
0001
0000
0000
0000
,
1001
0000
0000
0000
,
0000
0000
0000
0000
;
#NOTES:
     dance-single:
     :
     Easy:
     5:
     :
0000
0000
0000
0000
,
0000
0000
0000
0000
,
0000
0000
0000
0000
,
0001
1000
0001
0000
,
1000
0000
0100
0000
,
0010
0100
0010
0000
,
0100
0000
1000
0000
,
0010
0100
0010
0000
,
0100
0000
0001
0000
,
1000
0001
1000
0000
,
0020
0000
0030
0000
,
1000
0100
1000
0100
,
1000
1000
1000
0000
,
0001
0100
0001
0100
,
0001
0001
0001
0000
,
1000
0010
1000
0010
,
1000
1000
1000
0000
,
0001
0010
0001
0010
,
0001
0001
0001
0000
,
1000
0100
1000
0100
,
0001
0100
1000
0000
,
0001
0100
0001
0100
,
1000
0100
0001
0000
,
1000
0100
0001
0100
,
1000
0100
0010
0000
,
0001
0100
1000
0100
,
0001
0100
0010
0000
,
0220
0000
0330
0000
,
2002
0000
3003
0000
,
0220
0000
0330
0000
,
2002
0000
3003
0000
,
0001
0001
0001
0001
,
1000
1000
1000
1000
,
2002
0000
0000
0000
,
3003
0000
0000
0000
,
0001
0100
0010
0100
,
0001
0010
0100
1000
,
0010
0001
0010
1000
,
0100
0010
0100
0000
,
1000
0100
0010
0100
,
1000
0010
0100
0001
,
1000
0100
0001
0100
,
1000
1000
1000
0000
,
0001
0001
0010
0100
,
1000
1000
0010
0100
,
0001
0100
0001
0100
,
0010
1000
0010
0000
,
1000
1000
0001
0100
,
0010
0010
1000
0100
,
0010
0100
0010
0100
,
1000
0001
1000
0000
,
0020
0000
0130
0000
,
0001
0010
1000
0000
,
0020
0000
0130
0000
,
1000
0010
0001
0000
,
0010
1000
0100
1000
,
0010
0010
0010
0000
,
1000
0100
0010
0001
,
0100
0010
1000
0000
,
0010
0001
0100
0001
,
0010
0010
0010
0000
,
0001
0010
0100
1000
,
0001
1000
0001
0000
,
2002
0000
0000
0000
,
0000
0000
0000
0000
,
3003
0000
0000
0000
,
0000
0000
0000
0000
;
#NOTES:
     dance-single:
     :
     Medium:
     8:
     :
0000
0000
0000
0000
,
0000
0000
0000
0000
,
0000
0000
0000
0000
,
0001
1000
0001
0000
,
0001
0100
0001
0000
,
1000
0010
1000
0000
,
1000
0001
1000
0000
,
0100
1000
0100
0000
,
0100
0010
0100
0000
,
0010
0001
0010
0000
,
0010
0100
0010
0000
,
0001
0000
1001
0000
0010
1000
0100
0100
,
0000
0010
0010
0000
1000
0001
0100
0000
,
0001
0000
1001
0000
0010
0001
0100
0100
,
0000
0010
0010
0000
0001
1000
0100
0000
,
1000
0000
1001
0000
0001
0100
0010
0010
,
0000
0100
0100
0000
1000
0100
1000
0000
,
0001
0000
1001
0000
1000
0100
0010
0010
,
0000
0100
1000
0100
0010
0001
0010
0001
,
0010
0000
0010
0000
0001
0100
0010
0000
,
1000
0010
0100
0100
,
0010
0000
1000
0000
0100
0010
0001
0000
,
0100
0001
1000
0001
,
0100
0000
0010
0000
0100
0001
1000
0000
,
0010
0100
0001
0001
,
0100
0000
0010
0000
1000
0100
0010
0000
,
0002
0023
0230
0000
,
2300
0000
3001
0000
,
0020
0000
0130
0000
,
0002
0000
0013
0000
,
2000
0000
3010
0000
,
0100
0100
0100
0100
,
0001
0001
0001
0001
,
1000
0000
1000
0000
1000
0000
0100
0020
,
0000
0000
0000
0030
,
0001
0000
0100
0000
0010
1000
0010
0000
,
0100
0001
0100
0000
0001
0000
1000
0000
,
0100
0001
0100
1000
,
0100
0001
0100
0000
,
1000
0000
0010
0000
0100
0001
0100
0000
,
0010
1000
0010
0000
0100
0000
0001
0000
,
1000
0010
0001
0010
,
1000
0010
0001
0000
,
1000
0000
1000
0000
1000
0000
1000
0100
,
0010
0000
0010
0000
0010
0000
0010
0001
,
0100
0000
0100
0000
0100
0000
0100
0010
,
1000
1000
0001
0001
,
1000
0100
1000
0000
0010
0000
0100
0000
,
0001
0010
0001
0000
0100
0000
0010
0000
,
1000
0000
0100
0000
0001
0100
1000
0000
,
0001
0000
0100
0000
1000
0100
0001
0000
,
0020
0001
0100
0031
,
0100
0000
0010
0000
1000
0001
1000
0000
,
0020
1000
0100
1030
,
0100
0000
0010
0000
0001
1000
0001
0000
,
0200
0010
0001
0310
,
1000
0000
0001
0000
0010
0100
0010
0000
,
0200
1000
0010
1300
,
0010
0000
1000
0000
0010
0100
0010
0000
,
2000
0100
0010
3001
,
0100
0000
0001
0000
1000
0100
0010
0000
,
0002
0010
0100
1003
,
0010
0100
0010
0000
1000
0001
1000
0000
,
2002
0000
0000
0000
,
0000
0000
0000
0000
,
3003
0000
0000
0000
,
0000
0000
0000
0000
;
#NOTES:
     dance-single:
     :
     Hard:
     11:
     :
0000
0000
0000
0000
,
0000
0000
0000
0000
,
0000
0000
0000
0000
,
0001
1000
0001
1000
,
0001
0000
0100
0000
0010
0100
0010
0000
,
1000
0001
1000
0001
,
1000
0000
0100
0000
0010
0100
0010
0000
,
0001
0100
0001
0100
,
0010
0000
1000
0000
0010
1000
0010
0000
,
1000
0100
1000
0100
,
0010
0000
0001
0000
0010
0001
0010
0000
,
0001
0000
0000
0000
1001
0000
0000
0010
1000
0000
0100
0000
0010
0000
0010
0000
,
0000
0100
0100
0000
1000
0001
0100
0000
,
0001
0000
0000
0000
1001
0000
0000
0010
0001
0000
0100
0000
0010
0000
0010
0000
,
0000
0100
0100
0000
0001
1000
0100
0000
,
0010
0000
0000
0000
0110
0000
0000
0001
0100
0000
0010
0000
1000
0000
1000
0000
,
0000
0001
0001
0000
0100
0001
0010
0000
,
0100
0000
0000
0000
0110
0000
0000
1000
0010
0000
0100
0000
0001
0000
0001
0000
,
0000
1000
0010
0010
0100
0001
0100
0001
,
0010
0000
0000
0000
1001
0000
0000
1000
0001
0000
0100
0000
0010
0000
0100
0000
,
0000
0001
0001
1000
0010
0100
0010
1000
,
0100
0000
0000
0000
1001
0000
0000
0010
0001
0000
0100
0000
0001
0000
0100
0000
,
0000
0010
0010
1000
0001
0010
0100
0010
,
0001
0000
0000
0000
0110
0000
0000
0100
1000
0000
0001
0000
0100
0000
0010
0000
,
0000
1000
1000
0010
0100
0001
0100
0010
,
1000
0000
0000
0000
0110
0000
0000
0100
0001
0000
0010
0000
0001
0000
0200
0000
,
0000
0320
0000
2030
0000
3001
0000
0000
,
2000
0000
3100
0020
0000
0000
1030
0020
,
0000
0000
0130
1000
0000
0000
0001
0000
,
0200
0000
0310
0002
0000
0000
0013
0200
,
0000
0000
0301
0020
0000
0000
0130
2000
,
0001
0001
0100
0100
,
0001
0000
0001
0000
3100
1000
0100
0010
,
0002
2000
0000
0000
3003
0000
0020
0200
,
0000
0000
0330
1001
,
0001
0100
0010
1000
0100
0010
0001
0100
,
0010
1000
0010
0100
0001
0010
0100
0010
,
0001
0100
0001
0100
0010
1000
0010
1000
,
0100
0010
0001
1000
0001
0000
1001
0000
,
1000
0100
0010
0001
0100
0010
1000
0001
,
0010
0100
1000
0010
0100
0010
1000
0001
,
0010
0100
1000
0010
1000
0010
0100
0001
,
0100
0001
0010
0001
0100
0010
1000
0000
,
0001
0100
0002
0000
0023
0000
0130
2000
,
0010
0000
0100
0000
3010
0100
0001
0100
,
0001
1000
0002
0000
0203
0000
0310
2000
,
0000
3002
0000
0203
0000
0310
0000
0000
,
1000
0100
0010
0100
0001
0100
0010
0001
,
0100
0010
1000
0010
0100
0001
0010
0100
,
1000
0010
1000
0010
0100
0010
0100
0010
,
0001
0010
0001
0010
0100
0010
1000
0000
,
0001
0100
1000
0000
1000
0100
0001
0100
,
0000
0010
0100
0000
0001
0010
0100
0000
,
1000
0100
0001
0000
0001
0100
1000
0100
,
0000
0010
0100
0000
1000
0100
0010
0000
,
0001
1000
0010
1000
0001
0010
0100
1000
,
0000
1000
0001
0000
0100
0010
0100
0000
,
0010
1000
0010
1000
0100
0010
0100
0010
,
0000
0010
0001
0000
0100
0010
1000
0000
,
0001
0010
0001
0010
1000
0010
1000
0010
,
0000
0010
0001
0000
0100
0001
0010
0000
,
0001
0100
0001
0100
1000
0100
1000
0100
,
0010
1000
0100
1000
0100
0010
0100
0010
,
0001
0100
0000
1000
0000
0010
0000
2002
,
0000
0000
0000
0000
,
3003
0000
0000
0000
,
0000
0000
0000
0000
;
#NOTES:
     dance-double:
     :
     Easy:
     5:
     :
00000000
00000000
00000000
00000000
,
00000000
00000000
00000000
00000000
,
00000000
00000000
00000000
00000000
,
10000000
00100000
10000000
00000000
,
00010000
00000000
00100000
00000000
,
00001000
00010000
00001000
00000000
,
00010000
00000000
00000010
00000000
,
00000100
00000001
00000100
00000000
,
00000001
00000000
00001000
00000000
,
00000100
00010000
00000100
00000000
,
00020000
00000000
00030000
00000000
,
00001000
01000000
00001000
01000000
,
00100000
00100000
00100000
00000000
,
10000000
01000000
10000000
01000000
,
00010000
00010000
00010000
00000000
,
00000100
00010000
00000100
00010000
,
00000010
00000010
00000010
00000000
,
00000100
00000001
00000100
00000001
,
00001000
00001000
00001000
00000000
,
00000100
00010000
00001000
00010000
,
00001000
01000000
00100000
00000000
,
10000000
01000000
10000000
01000000
,
00100000
00010000
00100000
00000000
,
00001000
00010000
00000010
00001000
,
00000100
00000010
00000001
00000000
,
00001000
00000100
00001000
00000100
,
00000010
00000001
00000100
00001000
,
00020000
00000000
00030000
00000000
,
02000000
00000000
03000000
00000000
,
00020000
00000000
00030000
00000000
,
00002000
00000000
00003000
00000000
,
00010000
00010000
00010000
00010000
,
00001000
00001000
00001000
00001000
,
00022000
00000000
00000000
00000000
,
00033000
00000000
00000000
00000000
,
00000010
00001000
00000010
00001000
,
00000100
00000010
00000001
00000100
,
00001000
00010000
00001000
00010000
,
00100000
10000000
00100000
00000000
,
00100000
10000000
00100000
10000000
,
01000000
00100000
00001000
00010000
,
00000100
00001000
00000100
00000001
,
00000100
00001000
00000100
00000000
,
00000010
00000010
00000001
00000100
,
00001000
00001000
00010000
00100000
,
00010000
00001000
00010000
00001000
,
00010000
01000000
00010000
00000000
,
01000000
01000000
10000000
01000000
,
00010000
00010000
00001000
00000010
,
00001000
00010000
00001000
00010000
,
00001000
00000100
00000001
00000000
,
00000020
00000000
00000130
00000000
,
00000001
00000100
00001000
00000000
,
00020000
00000000
00130000
00000000
,
10000000
00010000
10000000
00000000
,
01000000
00010000
00100000
00001000
,
00010000
00010000
00010000
00000000
,
00000100
00001000
00000010
00001000
,
00000100
00000010
00000001
00000000
,
00000100
00000001
00001000
00000010
,
00010000
00010000
00010000
00000000
,
00001000
00100000
00010000
00100000
,
01000000
00100000
00001000
00010000
,
00002000
00000000
00000000
00000000
,
00000000
00000000
00000000
00000000
,
00003000
00000000
00000000
00000000
,
00000000
00000000
00000000
00000000
;
#NOTES:
     dance-double:
     :
     Medium:
     8:
     :
00000000
00000000
00000000
00000000
,
00000000
00000000
00000000
00000000
,
00000000
00000000
00000000
00000000
,
10000000
01000000
10000000
00000000
,
00010000
00100000
00010000
00000000
,
00100000
00001000
00010000
00000000
,
00001000
00010000
00001000
00000000
,
00000100
00000001
00000100
00000000
,
00000001
00000010
00000001
00000000
,
00001000
00000100
00001000
00000000
,
00000010
00001000
00000100
00010000
,
00001000
00000000
00011000
00000000
00100000
00000000
01000000
01000000
,
00000000
00100000
00100000
00000000
10000000
00010000
10000000
00000000
,
01000000
00000000
01100000
00000000
00001000
00000000
00010000
00010000
,
00000000
00001000
00001000
00000000
00010000
00000010
00001000
00000000
,
00000010
00000000
00000110
00000000
00000001
00000000
00001000
00001000
,
00000000
00000100
00000100
00000000
00010000
00001000
00010000
00000000
,
00001000
00000000
01001000
00000000
00010000
00000000
00100000
00100000
,
00000000
01000000
10000000
01000000
00100000
00010000
00100000
00001000
,
00010000
00000000
00000100
00000000
00001000
00000010
00001000
00000000
,
00000001
00000100
00001000
00001000
,
00010000
00000000
00100000
00000000
01000000
00100000
10000000
00000000
,
00010000
00100000
01000000
00100000
,
00001000
00000000
00010000
00000000
00000100
00001000
00000010
00000000
,
00001000
00000001
00000100
00000100
,
00000001
00000000
00001000
00000000
00000100
00010000
00001000
00000000
,
00200000
00320000
02030000
03200000
,
20300000
00000000
31000000
00000000
,
02000000
00000000
03010000
00000000
,
00002000
00000000
00003010
00000000
,
00000020
00000000
00000031
00000000
,
00001000
00001000
00001000
00001000
,
00000100
00000100
00000100
00000100
,
00010000
00000000
00010000
00000000
00010000
00000000
00001000
00020000
,
00000000
00000000
00000000
00030000
,
00001000
00000000
01000000
00000000
00010000
00100000
00010000
00000000
,
10000000
01000000
10000000
00000000
00100000
00000000
01000000
00000000
,
00100000
00010000
00001000
00000010
,
00001000
00010000
00001000
00010000
,
00000010
00000000
00000100
00000001
00000100
00000000
00000010
00001000
,
00000010
00001000
00000100
00010000
,
00001000
00000100
00001000
00010000
,
01000000
00010000
00001000
00000000
,
00001000
00000000
00001000
00000000
00001000
00000000
00001000
00100000
,
00010000
00000000
00010000
00000000
00010000
00000000
00010000
10000000
,
01000000
00000000
01000000
00000000
01000000
00000000
01000000
00010000
,
00001000
00001000
00010000
00010000
,
00000100
00001000
00000010
00000000
00000100
00000000
00000001
00000000
,
00000010
00000100
00001000
00000000
00000100
00000000
00010000
00000000
,
00001000
00000000
00100000
00000000
00010000
01000000
00100000
00000000
,
10000000
00000000
01000000
00000000
00010000
01000000
10000000
00000000
,
02000000
00100000
00010000
03010000
,
00001000
00010000
00000100
00001000
,
00000020
00000001
00000100
00000130
,
00000010
00010000
00001000
01000000
,
00200000
10000000
01000000
00310000
,
00001000
00000000
00000100
00000000
00000001
00001000
00000001
00000000
,
00000020
00000001
00000100
00001030
,
00010000
00000000
01000000
00000000
10000000
00010000
10000000
00000000
,
02000000
00010000
10000000
03100000
,
00001000
00000000
00010000
00000000
00000100
00001000
00000010
00000000
,
00000200
00001000
00000001
00000310
,
00010000
00001000
00010000
00001000
00100000
00010000
00100000
00000000
,
20020000
00000000
00000000
00000000
,
00000000
00000000
00000000
00000000
,
30030000
00000000
00000000
00000000
,
00000000
00000000
00000000
00000000
;
#NOTES:
     dance-double:
     :
     Hard:
     11:
     :
00000000
00000000
00000000
00000000
,
00000000
00000000
00000000
00000000
,
00000000
00000000
00000000
00000000
,
10000000
01000000
10000000
01000000
,
00100000
00000000
00010000
00000000
01000000
00100000
01000000
00000000
,
00001000
00010000
00001000
00010000
,
00000100
00000000
00001000
00000000
00000100
00000010
00000100
00000000
,
00000010
00000001
00000010
00000001
,
00000100
00000000
00000010
00000000
00001000
00000001
00001000
00000000
,
00000100
00010000
00000100
00010000
,
00001000
00100000
00010000
01000000
,
00100000
00000000
00000000
00000000
10010000
00000000
00000000
00100000
10000000
00000000
01000000
00000000
00100000
00000000
00100000
00000000
,
00000000
00001000
00001000
00000000
00010000
00001000
00010000
00000000
,
00000100
00000000
00000000
00000000
00000110
00000000
00000000
00001000
00000100
00000000
00000010
00000000
00000001
00000000
00000001
00000000
,
00000000
00001000
00001000
00000000
00000010
00000100
00000010
00000000
,
00001000
00000000
00000000
00000000
00000110
00000000
00000000
00000001
00000100
00000000
00000010
00000000
00001000
00000000
00001000
00000000
,
00000000
00000010
00000010
00000000
00010000
00001000
00010000
00000000
,
00100000
00000000
00000000
00000000
01100000
00000000
00000000
10000000
00100000
00000000
01000000
00000000
00010000
00000000
00010000
00000000
,
00000000
10000000
00100000
00100000
00010000
00001000
00010000
00001000
,
00000100
00000000
00000000
00000000
00001001
00000000
00000000
00000001
00000100
00000000
00000001
00000000
00000010
00000000
00000100
00000000
,
00000000
00010000
00010000
00001000
01000000
00010000
10000000
01000000
,
10000000
00000000
00000000
00000000
10010000
00000000
00000000
00100000
00010000
00000000
01000000
00000000
00010000
00000000
01000000
00000000
,
00000000
00100000
00100000
00010000
00001000
00010000
00000100
00001000
,
00000010
00000000
00000000
00000000
00000110
00000000
00000000
00000001
00000100
00000000
00000001
00000000
00000010
00000000
00000001
00000000
,
00000000
00001000
00001000
00000100
00000010
00000100
00010000
00001000
,
00100000
00000000
00000000
00000000
01100000
00000000
00000000
00010000
01000000
00000000
00100000
00000000
10000000
00000000
00200000
00000000
,
00000000
02300000
00000000
03020000
00000000
00130000
00000000
00000000
,
02000000
00000000
03010000
00002000
00000000
00000000
00003100
00002000
,
00000000
00000000
00013000
00001000
00000000
00000000
00011000
00000000
,
00020000
00000000
00130000
00020000
00000000
00000000
00031000
00000020
,
00000000
00000000
00001030
00020000
00000000
00000000
00031000
00000200
,
00000001
00000000
00000001
00000000
00000310
00001000
00000100
00020000
,
00001000
00000000
00001000
00000000
01030000
00100000
01000000
10000000
,
00200000
02000000
00000000
00000000
03300000
00000000
00020000
20000000
,
00000000
00000000
30030000
10010000
,
10000000
01000000
00100000
00010000
01000000
00010000
00100000
00001000
,
00010000
00000100
00001000
00000010
00000100
00000001
00000100
00001000
,
00000100
00000001
00000100
00000001
00000010
00001000
00000010
00001000
,
00010000
01000000
00100000
01000000
10000000
00010000
10000000
00000000
,
01000000
00100000
01000000
00100000
00010000
01000000
00001000
00010000
,
00001000
00000010
00001000
00010000
00000010
00001000
00000100
00000010
,
00000001
00000100
00000001
00000100
00001000
00010000
00001000
00010000
,
00100000
01000000
00010000
01000000
00100000
10000000
00010000
00000000
,
10000000
00010000
20000000
00000000
32000000
00000000
03010000
00002000
,
00010000
00000000
00010000
00000000
00003010
00000100
00000010
00000100
,
00001000
00000001
00000200
00000000
00000302
00000000
00000103
00002000
,
00000000
00023000
00000000
00230000
00000000
10300000
00000000
00000000
,
10000000
01000000
00100000
01000000
00010000
00001000
00010000
00000100
,
00001000
00000100
00000010
00000100
00000001
00000100
00001000
00000001
,
00000100
00000010
00000001
00000010
00000100
00000010
00010000
00001000
,
01000000
00100000
00010000
00100000
01000000
00100000
10000000
00000000
,
10000000
01000000
00010000
00000000
00001000
00000100
00000001
00000100
,
00000000
00000001
00000010
00000100
00001000
00010000
00100000
00000000
,
01000000
00010000
01000000
00000000
10000000
00100000
00010000
00100000
,
00000000
00100000
00010000
00001000
00000100
00000010
00000100
00000000
,
00000001
00000010
00000001
00000100
00001000
00010000
00001000
00000010
,
00000000
00000010
00001000
00000000
00010000
00001000
00010000
00000000
,
01000000
10000000
00100000
10000000
01000000
00010000
00001000
00010000
,
00000000
00010000
00100000
00000000
00010000
00001000
00010000
00000000
,
00001000
00000100
00001000
00000100
00000001
00000010
00000100
00000010
,
00000000
00000010
00001000
00010000
01000000
00010000
01000000
00000000
,
10000000
00100000
10000000
00010000
00100000
00001000
00010000
00001000
,
00010000
00000100
00001000
00000010
00000100
00000001
00000010
00000001
,
00000100
00000010
00000000
00010000
00000000
00001000
00000000
00022000
,
00000000
00000000
00000000
00000000
,
00033000
00000000
00000000
00000000
,
00000000
00000000
00000000
00000000
;
