
//----- song ID: popi -----//
#TITLE:Poppin' Soda;
#ARTIST:nana(Sevencolors);
#BANNER:Poppin' Soda.png;
#BACKGROUND:Poppin' Soda-bg.png;
#CDTITLE:./CDTitles/beatmania IIDX ULTIMATE MOBILE.png;
#MUSIC:Poppin' Soda.ogg;
#SAMPLESTART:50.387;
#SAMPLELENGTH:15;
#BPMS:0=200;
#NOTES:
     dance-single:
     :
     Beginner:
     4:
     :
0000
0000
0000
0000
,
0000
0000
0000
0000
,
0000
0000
0000
0000
,
0000
0000
0000
0000
,
0000
0000
0000
0000
,
0000
0000
0000
0000
,
0000
0000
0000
0000
,
0000
0000
0000
0000
,
0000
0000
0000
0000
,
0000
0000
0000
0000
,
0001
0000
0100
0000
,
0001
0000
0010
0000
,
0100
0000
1000
0000
,
0100
1000
0100
0000
,
1000
0000
0010
0000
,
0100
0000
0010
0000
,
1000
0000
0001
0000
,
1000
1000
1000
0000
,
0010
0000
1000
0000
,
0001
0000
0100
0000
,
0001
0000
0010
0000
,
0001
1000
0001
0000
,
0100
0000
0001
0000
,
0010
0000
0100
0000
,
1000
0000
0010
0000
,
0001
0001
0001
0000
,
0010
0001
0010
0000
,
0001
0000
0100
0000
,
0010
0000
0100
0000
,
0010
0000
1000
0000
,
1000
0100
1000
0000
,
0100
0000
1000
0000
,
0010
0000
0100
0000
,
0001
0000
0100
0000
,
0001
1000
0001
0000
,
0010
0000
0100
0000
,
0010
0000
0001
0000
,
0100
0000
0010
0000
,
1000
0001
1000
0000
,
0010
0000
0100
0000
,
0010
0000
1000
0000
,
0100
0000
0010
0000
,
0002
0000
0000
0000
,
0003
0000
0000
0000
,
2000
0000
0000
0000
,
3000
0000
0000
0000
,
0020
0000
0000
0000
,
0030
0000
0000
0000
,
0200
0000
0000
0000
,
0300
0000
0000
0000
,
0010
0000
1000
0000
,
0100
1000
0100
0000
,
0010
0000
0010
0000
,
0010
0000
0000
0000
,
0010
0000
0001
0000
,
0100
0001
0100
0000
,
0010
0000
0010
0000
,
0010
0000
0000
0000
,
1000
0000
0100
0000
,
0001
0000
0100
0000
,
1000
0000
0010
0000
,
0100
0010
0100
0000
,
0001
0000
0100
0000
,
1000
0000
0100
0000
,
0001
0000
0010
0000
,
0100
0010
0100
0000
,
1000
0000
1000
0000
,
1000
0000
1000
0000
,
0100
0000
0010
0000
,
0110
0000
0000
0000
,
0001
0000
0001
0000
,
0001
0000
0001
0000
,
0100
0000
0010
0000
,
0110
0000
0000
0000
,
1000
0000
0001
0000
,
1000
0000
0001
0000
,
0100
0000
0010
0000
,
0100
0000
0000
0000
,
0001
0000
1000
0000
,
0001
0000
1000
0000
,
0100
0000
0010
0000
,
0100
0000
0000
0000
,
0001
0000
0010
0000
,
0100
0000
1000
0000
,
0100
0000
0010
0000
,
0001
0001
0100
0000
,
0010
0000
1000
0000
,
0001
0000
0100
0000
,
1000
0000
0100
0000
,
0001
0000
0000
0000
,
1000
0000
0010
0000
,
0100
0000
0001
0000
,
0100
0000
0010
0000
,
1000
1000
0100
0000
,
0010
0000
0001
0000
,
1000
0000
0100
0000
,
0001
0000
0100
0000
,
1000
0000
0001
0001
,
0001
0000
0000
0000
,
0000
0000
0000
0000
;
#NOTES:
     dance-single:
     :
     Easy:
     9:
     :
0000
0000
0000
0000
,
0000
0000
0000
0000
,
0000
0000
0000
0000
,
0000
0000
0000
0000
,
0000
0000
0000
0000
,
0000
0000
0000
0000
,
0000
0000
0000
0000
,
0000
0000
0000
0000
,
0000
0000
0000
0000
,
0000
0000
0000
0000
,
0001
0000
0100
0000
0001
0010
0000
0010
,
0000
0001
0100
1000
,
0100
0000
0000
0100
0000
0000
0000
0010
,
0000
0010
1000
0000
0001
0000
0000
0000
,
0220
0000
0000
0000
0330
0000
0000
0110
,
0000
0100
1000
0000
0001
0000
0000
0000
,
1000
0000
0000
1000
0000
0000
0100
0000
,
0000
0100
0010
0000
0110
0000
0000
0000
,
1000
0000
0010
0000
1000
0100
0000
0100
,
0000
1000
0010
0001
,
0010
0000
0000
0010
0000
0000
0000
0100
,
0000
0100
0001
0000
1000
0000
0000
0000
,
0220
0000
0000
0000
0330
0000
0000
0110
,
0000
0010
0001
0000
1000
0000
0000
0000
,
0001
0000
0000
0001
0000
0000
0010
0000
,
0000
0010
0100
0000
0110
0000
0000
0000
,
1000
0010
0100
0000
,
1000
0010
0100
0000
,
1000
0010
0100
0010
,
1000
0010
0100
0000
,
0001
0010
0100
0000
,
0001
0010
0100
0000
,
0001
0010
0100
0010
,
0001
0010
0100
0000
,
1000
0100
0010
0000
,
1000
0010
0100
0000
,
1000
0100
0010
0001
,
0100
0010
1000
0000
,
0001
0100
0010
0000
,
0001
0010
0100
0000
,
0001
0100
0010
1000
,
0100
0010
0001
0000
,
1001
0000
0000
0000
0000
0000
0000
0110
,
0000
0000
0100
0000
,
1010
0000
0000
0000
0000
0000
0000
0101
,
0000
0000
0000
0000
,
1001
0000
0000
0000
0000
0000
0000
0110
,
0000
0000
0010
0000
,
0011
0000
0000
0000
,
1000
0000
0100
0000
1000
0001
1000
0000
,
0010
0000
0100
0000
0001
1000
0000
1000
,
0000
0100
0010
0001
,
0100
0000
0000
0100
0000
0000
0000
0110
,
0000
0010
1000
0001
,
0220
0000
0000
0000
0330
0000
0000
0110
,
0000
0100
0010
1000
,
0100
0000
0000
0010
0000
0000
0001
0000
,
0000
0001
1000
0001
,
0100
0000
0010
0000
1000
0001
0000
0001
,
0000
0010
0100
1000
,
0010
0000
0000
0010
0000
0000
0000
0110
,
0000
0100
0001
1000
,
0220
0000
0000
0000
0330
0000
0000
0110
,
0000
0010
0100
0001
,
0010
0000
0000
0100
0000
0000
1000
0000
,
0000
0001
1000
0001
,
0010
0000
0010
0000
,
0110
0000
0110
0000
,
0001
0100
1000
0000
,
1000
0100
0001
0000
,
0010
0000
0010
0000
,
0110
0000
0110
0000
,
1000
0100
0001
0000
,
0001
0100
1000
0000
,
0010
0000
0100
0000
0010
0000
0000
1001
,
0000
0100
0010
1000
,
0001
0010
1000
0000
,
1000
0010
0001
0000
,
0110
0000
1010
0000
,
0011
0000
1010
0000
,
0100
0001
0010
0000
,
0100
1000
0010
0000
,
1000
0010
0100
0010
,
1000
0000
0001
0000
0010
0001
0010
0000
,
0001
0100
0010
1000
,
0100
0010
0100
0000
0010
0001
0010
0000
,
0100
0001
1000
0010
,
0100
0000
0001
0000
0010
0100
0010
0000
,
0100
1000
0001
1000
,
0010
0100
0010
0000
0110
0000
0000
0000
,
0001
0100
0010
0100
,
0001
0000
1000
0000
0100
1000
0100
0000
,
1000
0010
0100
0001
,
0010
0100
0010
0000
0100
1000
0100
0000
,
0010
1000
0001
0100
,
0010
0000
1000
0000
0100
0010
0100
0000
,
0010
0001
1000
0001
,
0100
0010
0100
0010
0100
0000
0000
0000
,
1001
0000
0000
0000
,
0000
0000
0000
0000
;
#NOTES:
     dance-single:
     :
     Medium:
     12:
     :
0000
0000
0000
0000
,
0000
0000
0000
0000
,
0000
0000
0000
0000
,
0000
0000
0000
0000
,
0000
0000
0000
0000
,
0000
0000
0000
0000
,
0000
0000
0000
0000
,
0000
0000
0000
0000
,
0000
0000
0000
0000
,
0000
0000
0000
0000
,
1000
0000
0001
0000
0100
0010
0000
0010
,
0000
1000
0001
0000
0100
0010
0100
0000
,
0001
0100
0000
0001
0100
0000
0010
1000
,
0000
0010
1000
0000
0001
1000
0001
0000
,
0100
0000
0000
0010
0000
0000
0100
0000
0010
0000
0100
0000
0000
0000
1001
0000
,
0000
0010
0100
0000
0010
0100
0010
0000
,
1000
0100
0000
1000
0100
0000
0010
0001
,
0000
0010
0001
0000
1000
0001
1000
0000
,
0010
0000
0100
0000
0001
1000
0000
1000
,
0000
0100
0010
0000
0001
0010
0100
0000
,
1000
0001
0000
1000
0001
0000
0000
1001
,
0000
0001
1000
0000
0010
1000
0100
0000
,
0010
0000
0011
0000
0100
0010
0000
0110
,
0000
1000
0010
0000
0100
0001
0010
0000
,
0001
0010
0000
0001
0100
0000
0001
1000
,
0000
0010
0100
0000
0010
1000
0001
0000
,
1000
1010
1000
1010
,
1000
0000
1100
0000
0010
0001
0010
0000
,
0001
0011
0001
0011
,
0001
0000
0101
0000
0010
1000
0010
0000
,
0100
0110
0010
0110
,
0100
0000
0110
0000
1000
0001
1000
0000
,
0100
1000
0010
0000
0100
0001
0010
0000
,
2001
0000
0001
3001
,
1000
1100
1000
1100
,
1000
0000
1010
0000
0100
0001
0100
0000
,
0001
0101
0001
0101
,
0001
0000
0011
0000
0100
1000
0100
0000
,
0010
0100
0010
0000
0100
0010
0100
0000
,
1000
0001
1000
0000
0001
1000
0001
0000
,
0010
0001
0100
0001
0100
0010
1000
0100
,
2000
0000
0001
3001
,
0100
0000
0010
0000
0100
1000
0000
0100
,
0000
0010
0100
0000
1000
0000
0001
0000
,
0100
0000
0010
0000
0100
0001
0000
0100
,
0000
0010
0100
0000
0001
0000
1000
0000
,
0001
0000
0100
0000
0010
1000
0000
0001
,
0000
0100
0010
0000
1000
0000
0001
0000
,
1000
0100
0010
0000
0001
0100
0010
0000
,
1000
0010
1000
0100
1000
0010
0010
0000
,
0001
0000
1000
0000
0010
0100
0000
0100
,
0000
0001
1000
0000
0010
0100
0010
0000
,
1000
0010
0000
1000
0010
0000
0100
0001
,
0000
0100
0001
0000
1000
0001
1000
0000
,
0010
0000
0000
0100
0000
0000
0010
0000
0100
0000
0010
0000
0000
0000
1001
0000
,
0000
0100
0010
0000
0100
0010
0100
0000
,
0001
0010
0000
0001
0010
0000
0100
1000
,
0000
0100
1000
0000
0001
1000
0001
0000
,
0100
0000
0010
0000
1000
0001
0000
0001
,
0000
0010
0100
0000
1000
0100
0010
0000
,
0001
1000
0000
0001
1000
0000
0000
1001
,
0000
1000
0001
0000
0100
0001
0010
0000
,
0100
0000
1100
0000
0010
0100
0000
0110
,
0000
0001
0100
0000
0010
1000
0100
0000
,
1000
0100
0000
1000
0010
0000
1000
0001
,
0000
0100
0010
0000
0100
0001
1000
0000
,
1001
0000
0110
0000
,
1001
0000
0110
0000
,
0010
0001
0100
1000
,
0010
0001
0100
1000
,
1001
0000
0110
0000
,
1001
0000
0110
0000
,
0010
1000
0100
0001
,
0010
1000
0100
0001
,
0010
0000
0010
0000
1000
0001
0000
1001
,
0000
0100
0010
0000
1001
0000
0000
0000
,
0100
0000
0100
0000
0001
1000
0000
1001
,
0000
0010
0100
0000
1001
0000
0000
0000
,
2020
3030
0202
0303
,
2200
3300
0010
0010
,
0001
0000
0001
0000
0100
0010
0000
0110
,
0000
1000
0001
0000
0110
0000
0000
0000
,
0001
0101
0001
0101
,
0001
0000
0011
0000
0100
1000
0100
0000
,
1000
1100
1000
1100
,
1000
0000
1010
0000
0100
0001
0100
0000
,
0010
0110
0100
0110
,
0010
0000
0110
0000
0001
1000
0001
0000
,
0010
0001
0100
0000
0010
1000
0100
0000
,
1002
0000
1000
1003
,
0001
0011
0001
0011
,
0001
0000
0101
0000
0010
1000
0010
0000
,
1000
1010
1000
1010
,
1000
0000
1100
0000
0010
0001
0010
0000
,
0100
0010
0100
0000
0010
0100
0010
0000
,
0001
1000
0001
0000
1000
0001
1000
0000
,
0100
1000
0010
1000
0010
0100
0001
0010
,
0002
0000
1000
1003
,
0220
0000
0000
0000
,
0000
0000
0000
0000
,
0330
0000
0000
0000
,
0000
0000
0000
0000
;
#NOTES:
     dance-single:
     :
     Hard:
     16:
     :
0000
0000
0000
0000
,
0000
0000
0000
0000
,
0000
0000
0000
0000
,
0000
0000
0000
0000
,
0000
0000
0000
0000
,
0000
0000
0000
0000
,
0000
0000
0000
0000
,
0000
0000
0000
0000
,
0000
0000
0000
0000
,
0000
0000
0000
0000
,
0010
0000
1001
0000
0100
0001
0000
0110
,
0000
0000
1000
0010
1000
0000
0001
0000
0100
0000
0010
0000
0100
0000
0000
0000
,
0001
0010
0100
1000
0001
0000
0010
1000
,
0000
0000
1000
0000
0010
0000
0001
0000
1000
0100
1000
0100
0010
0000
0000
0000
,
0100
0000
0000
0100
0000
0000
0100
0000
0110
0000
1000
0000
0000
0000
1001
0000
,
0000
0000
0001
1000
0001
0000
0100
0000
0010
0000
1000
0000
0010
0000
0000
0000
,
1010
0000
0000
1100
0000
0000
0101
0000
,
0000
0010
0001
0010
0001
1000
0000
1000
,
0010
0100
0001
0000
0100
0010
1000
0000
0100
0000
0010
0000
0000
0000
0110
0000
,
0000
0001
1000
0010
0100
0001
1000
0000
,
0001
0010
0000
0010
0001
0000
0000
1001
,
0000
0100
0010
1000
0010
0100
0010
0000
,
1000
0100
0011
0000
1001
0100
0000
0110
,
0000
0001
0010
1000
0001
0010
0100
1000
,
0010
1000
0010
0000
0000
0000
0100
0001
0100
0000
0000
0000
0001
1000
0001
0000
,
0000
0001
1000
0001
0100
0010
0000
0010
,
1000
0100
1100
0010
0001
0100
0101
0010
,
0100
0001
1001
0010
0100
1000
1010
0000
,
0100
0010
0110
0001
1000
0100
0011
0010
,
0100
1000
1001
0100
0001
0010
1100
0000
,
0010
0100
1001
0010
0100
0001
1010
0100
,
1000
0010
0101
0010
0001
1000
0110
0001
,
0100
0010
1010
0100
0001
0010
0011
0100
,
1000
0000
0010
0100
0001
0000
0100
0000
0001
0010
0001
0000
1000
0010
1000
0000
,
0001
0010
0011
0100
1000
0010
1010
0100
,
0010
1000
1001
0100
0010
0001
0101
0000
,
0010
0100
0110
1000
0001
0010
1100
0100
,
0010
0001
1001
0010
1000
0100
0011
0000
,
0100
0010
1001
0000
0010
0100
1001
0000
,
0001
0100
1010
0000
1000
0100
0011
0000
,
0010
0000
0001
0000
0100
0000
0010
0000
1000
0100
1000
0100
0010
0001
0010
0001
,
0010
0000
0100
1000
0001
0000
0100
0000
0010
0000
0001
0000
0010
0000
1000
0000
,
2200
0000
0000
0000
0000
0000
3300
0022
,
0000
0030
2000
3003
,
0202
0000
0000
0000
0000
0000
0303
2020
,
0000
0000
0000
3030
,
0110
0000
0000
1000
0001
0000
0001
1000
,
0000
0000
0100
0000
0010
0000
0000
0000
0010
0000
0001
0000
0100
0000
0100
0010
,
0100
0010
1000
0100
0001
0100
1000
0010
,
0100
0001
0100
0001
0010
0001
0010
0001
1000
0000
0001
0000
1001
0000
0000
0000
,
0100
0000
1001
0000
0010
1000
0000
0110
,
0000
0000
0001
0100
0001
0000
1000
0000
0010
0000
0100
0000
0010
0000
0000
0000
,
1000
0100
0010
0001
1000
0000
0100
0001
,
0000
0000
0001
0000
0100
0000
1000
0000
0001
0010
0001
0010
0100
0000
0000
0000
,
0010
0000
0000
0010
0000
0000
0010
0000
0110
0000
0001
0000
0000
0000
1001
0000
,
0000
0000
1000
0001
1000
0000
0010
0000
0100
0000
0001
0000
0100
0000
0000
0000
,
0101
0000
0000
0011
0000
0000
1010
0000
,
0000
0100
1000
0100
1000
0001
0000
0001
,
0100
0010
1000
0000
0010
0100
0001
0000
0010
0000
0100
0000
0000
0000
0110
0000
,
0000
1000
0001
0100
0010
1000
0001
0000
,
1000
0100
0000
0100
1000
0000
0000
1001
,
0000
0010
0100
0001
0100
0010
0100
0000
,
0001
0010
1100
0000
1001
0010
0000
0110
,
0000
1000
0100
0001
1000
0100
0010
0001
,
0100
0001
0100
0000
0000
0000
0010
1000
0010
0000
0000
0000
1000
0001
1000
0000
,
0000
1000
0001
1000
0010
0100
0010
0100
,
0010
0000
0000
1000
1100
0000
0000
0001
,
0101
0000
0010
0000
1010
0000
0000
0001
,
0011
0000
1001
0000
0100
0010
0000
1001
,
0000
0000
0100
1000
0010
0000
0100
0000
0010
0000
1000
0000
0100
0000
0000
0000
,
0010
0000
0000
0010
0011
0000
0000
0010
,
1010
0000
0100
0000
0101
0000
0000
0100
,
1100
0000
1001
0000
0100
0010
0000
1001
,
0000
0000
0100
0001
0010
0000
0001
0000
0100
0000
0010
0000
0100
0000
0000
0000
,
0001
0100
1000
0100
0001
1000
0000
1001
,
0000
0000
0010
1000
0001
0000
0100
0000
0001
0000
0010
0000
0100
0000
1000
0000
,
1010
0000
0010
0000
0110
0100
0000
0010
,
0100
0000
0001
1000
0100
0000
0010
0000
0001
0000
0100
0000
0010
0000
0000
0000
,
1000
0001
0100
0000
0001
1000
0100
0000
,
1000
0001
0010
0000
0001
0000
0001
0000
,
0101
0000
0101
0000
1000
0100
0000
1010
,
0000
0000
0100
0001
0100
0000
0010
0000
0100
0000
0001
0000
1000
0000
0000
0000
,
0001
0000
0010
0001
0010
0000
0100
0000
1000
0000
0001
0000
0100
0000
0010
0000
,
0100
0000
0001
1000
0001
0000
0010
0000
0100
0000
1000
0000
0010
0000
0100
0000
,
0001
0000
1000
0010
1000
0000
0001
0000
0100
0000
0010
0000
1000
0000
0001
0000
,
0010
0000
0001
0000
0100
0000
0010
0000
1000
0001
1000
0001
1000
0000
0000
0000
,
0100
0000
0001
0100
0001
0000
1000
0000
0010
0000
0100
0000
0001
0000
0010
0000
,
0100
0000
1000
0100
1000
0000
0010
0000
0100
0000
0001
0000
1000
0000
0100
0000
,
1100
1000
0001
0011
0010
0001
1000
0010
,
0100
0000
0001
0100
0010
0000
1000
0000
0001
0000
0100
0000
1000
0000
0100
0000
,
0001
0000
0010
0100
1000
0000
0010
0000
0100
0000
0001
0000
1000
0000
0010
0000
,
0100
0000
0001
0100
0010
0000
1000
0000
0001
0000
0010
0000
0100
0000
1000
0000
,
0010
0000
0100
0001
1000
0000
0010
0000
0100
0000
0001
0000
0010
0000
0100
0000
,
1000
0000
0010
0000
0100
0000
0010
0000
1000
0001
1000
0001
1000
0000
0000
0000
,
0010
0000
0100
0001
0010
0000
0001
0000
1001
0000
0000
0000
1000
0000
0100
1000
,
0010
0000
1000
0000
1001
0000
0000
0000
0001
0000
0100
0010
1000
0000
0100
0010
,
0001
0000
0100
0001
1000
0000
0001
0000
0100
0000
0010
1000
0001
0000
0010
0000
,
0100
0000
0001
0000
0100
0000
0100
1000
0001
0000
0010
0000
0100
0000
1000
0000
,
2002
0000
0000
0000
,
0000
0000
0000
0000
,
3003
0000
0000
0000
,
0000
0000
0000
0000
;
#NOTES:
     dance-double:
     :
     Easy:
     9:
     :
00000000
00000000
00000000
00000000
,
00000000
00000000
00000000
00000000
,
00000000
00000000
00000000
00000000
,
00000000
00000000
00000000
00000000
,
00000000
00000000
00000000
00000000
,
00000000
00000000
00000000
00000000
,
00000000
00000000
00000000
00000000
,
00000000
00000000
00000000
00000000
,
00000000
00000000
00000000
00000000
,
00000000
00000000
00000000
00000000
,
00000001
00000000
00000100
00000000
00000010
00001000
00000000
00001000
,
00000000
00000001
00000100
00001000
,
00010000
00000000
00000000
00011000
00000000
00000000
00000000
00001000
,
00000000
00001000
01000000
00000000
00010000
00000000
00000000
00000000
,
02200000
00000000
00000000
00000000
03300000
00000000
00000000
01100000
,
00000000
00100000
10000000
00000000
00100000
00000000
00000000
00000000
,
01000000
00000000
00000000
00001000
00000000
00000000
00010000
00000000
,
00000000
00010000
00001000
00000000
00011000
00000000
00000000
00000000
,
00000100
00000000
00001000
00000000
00000010
00000100
00000000
00000100
,
00000000
00000001
00000010
00001000
,
00000010
00000000
00000000
00000010
00000000
00000000
00000000
00000100
,
00000000
00000100
00010000
00000000
00001000
00000000
00000000
00000000
,
00022000
00000000
00000000
00000000
00033000
00000000
00000000
00011000
,
00000000
00010000
00001000
00000000
00100000
00000000
00000000
00000000
,
00010000
00000000
00000000
00010000
00000000
00000000
10000000
00000000
,
00000000
10000000
01000000
00000000
01100000
00000000
00000000
00000000
,
00100000
00010000
01000000
00000000
,
00010000
01000000
00001000
00000000
,
00010000
00001000
00010000
00001000
,
00010000
00000010
00010000
00000000
,
00000100
00001000
00000010
00000000
,
00001000
00000001
00000010
00000000
,
00000001
00000010
00000001
00000010
,
00000100
00001000
00000100
00000000
,
00001000
00000010
00010000
00000000
,
00001000
00010000
00001000
00000000
,
01000000
00010000
01000000
00010000
,
00100000
00010000
00100000
00000000
,
01000000
10000000
00010000
00000000
,
01000000
00001000
00010000
00000000
,
00001000
00010000
00000100
00001000
,
00000010
00000100
00000001
00000000
,
00001001
00000000
00000000
00000000
00000000
00000000
00000000
00000110
,
00000000
00000000
00001000
00000000
,
00010000
00000000
00000000
00000000
00000000
00000000
00000000
00011000
,
00000000
00000000
00000000
00000000
,
01100000
00000000
00000000
00000000
00000000
00000000
00000000
10010000
,
00000000
00000000
01000000
00000000
,
00020000
00000000
00000000
00030000
,
00001000
00001000
00001000
00000000
,
00001000
00000000
00010000
00000000
00000010
00000100
00000000
00000100
,
00000000
00000010
00000001
00000010
,
00001000
00000000
00000000
00001000
00000000
00000000
00000000
00000100
,
00000000
00000100
00010000
00000000
00001000
00000000
00000000
00000000
,
00022000
00000000
00000000
00000000
00033000
00000000
00000000
00011000
,
00000000
00010000
00001000
00100000
,
00010000
00000000
00000000
00010000
00000000
00000000
10000000
00000000
,
00000000
10000000
00100000
01000000
,
00010000
00000000
01000000
00000000
00001000
00010000
00000000
00010000
,
00000000
00000010
00001000
00000100
,
00000010
00000000
00000000
00000010
00000000
00000000
00000000
00000110
,
00000000
00000001
00001000
00000001
,
00000100
00000000
00001000
00000000
00010000
00000000
00000000
00011000
,
00000000
00010000
00001000
01000000
,
00010000
00000000
00000000
00100000
00000000
00000000
01000000
00000000
,
00000000
10000000
00010000
00000000
,
00100000
00000000
01000000
00000000
,
00010000
00000000
00011000
00000000
,
00100000
00100000
00100000
00000000
,
00000010
00000010
00000010
00000000
,
00000010
00000000
00000100
00000000
,
00001000
00000000
00011000
00000000
,
00000100
00000100
00000100
00000000
,
01000000
01000000
01000000
00000000
,
00010000
01000000
00010000
00000000
,
00100000
00010000
00100000
00000000
,
01000000
00010000
01000000
00010000
,
00001000
00010000
00001000
00000000
,
00000010
00000001
00000010
00000000
,
00000001
00000100
00000001
00000000
,
00000100
00001000
00000100
00001000
,
00010000
00001000
00010000
00000000
,
00010000
00001000
01000000
00010000
,
00100000
00000000
00010000
00000000
10000000
01000000
10000000
00000000
,
00100000
01000000
00010000
00100000
,
00001000
00010000
00001000
00000000
00010000
00001000
00010000
00000000
,
00000100
00001000
00000001
00000100
,
00000010
00000000
00001000
00000000
00000100
00000010
00000100
00000000
,
00001000
00000100
00010000
00000100
,
00010000
00001000
00010000
00000000
00011000
00000000
00000000
00000000
,
00001000
00010000
00000010
00001000
,
00000100
00000000
00001000
00000000
00000001
00000010
00000001
00000000
,
00000100
00000010
00001000
00000100
,
00010000
00001000
00010000
00000000
00001000
00010000
00001000
00000000
,
00100000
00010000
10000000
00100000
,
01000000
00000000
00010000
00000000
00100000
01000000
00100000
00000000
,
00010000
00100000
00001000
00100000
,
00001000
00010000
00001000
00010000
00001000
00000000
00000000
00000000
,
00011000
00000000
00000000
00000000
,
00000000
00000000
00000000
00000000
;
#NOTES:
     dance-double:
     :
     Medium:
     12:
     :
00000000
00000000
00000000
00000000
,
00000000
00000000
00000000
00000000
,
00000000
00000000
00000000
00000000
,
00000000
00000000
00000000
00000000
,
00000000
00000000
00000000
00000000
,
00000000
00000000
00000000
00000000
,
00000000
00000000
00000000
00000000
,
00000000
00000000
00000000
00000000
,
00000000
00000000
00000000
00000000
,
00000000
00000000
00000000
00000000
,
00000010
00000000
00000001
00000000
00000100
00000010
00000000
00000010
,
00000000
00001000
00000100
00000000
00010000
00001000
00010000
00000000
,
00001000
00010000
00000000
00010000
00001000
00000000
00001000
00100000
,
00000000
00010000
00100000
00000000
01000000
10000000
00010000
00000000
,
01000000
00000000
00000000
00100000
00000000
00000000
01000000
00000000
00100000
00000000
10000000
00000000
00000000
00000000
10010000
00000000
,
00000000
10000000
00100000
00000000
01000000
00001000
00010000
00000000
,
00010000
00001000
00000000
00001000
00010000
00000000
00000100
00001000
,
00000000
00000100
00000010
00000000
00000001
00001000
00000001
00000000
,
00000020
00000000
00000230
00000000
00001300
00000010
00000000
00000010
,
00000000
00000010
00000100
00000000
00001000
00010000
00001000
00000000
,
00100000
00010000
00000000
01000000
00010000
00000000
00100000
00010000
,
00000000
10000000
01000000
00000000
00100000
00000000
00100000
00000000
,
00001000
00000000
00011000
00000000
00001000
00000100
00000000
00000100
,
00000000
00000001
00001000
00000000
00000100
00000010
00000001
00000000
,
00000100
00000000
00000000
00001010
00000000
00000000
00010100
00000000
,
00000000
00001000
00010000
00000000
00100000
10000000
00100000
00000000
,
01000000
01010000
00100000
00101000
,
00001000
00011000
01000000
01010000
,
00100000
00101000
00010000
00011000
,
00001000
00101000
00010000
00110000
,
00001000
00011000
00000100
00010100
,
00001000
00001010
00000100
00001100
,
00010000
00010010
00001000
00001100
,
00000100
00000000
00010100
00000000
00001000
00010000
00001000
00000000
,
00000010
00001010
00000100
00010100
,
00010000
00011000
00000010
00001010
,
00000100
00010100
00001000
00011000
,
00010000
00010100
00001000
00001100
,
00010000
00011000
00100000
00101000
,
00010000
01010000
00100000
00110000
,
00001000
01001000
00010000
00110000
,
00100000
00000000
00101000
00000000
00010000
00001000
00010000
00000000
,
00001000
00000000
00000010
00000000
00000100
00000010
00000000
00001000
,
00000000
00000010
00000100
00000000
00010000
00000000
00001000
00000000
,
01000000
00000000
00100000
00000000
00010000
00100000
00000000
01000000
,
00000000
00010000
00100000
00000000
00001000
00000000
00010000
00000000
,
00000100
00000000
00000010
00000000
00001000
00000010
00000000
00000100
,
00000000
00001000
00000010
00000000
00010000
00000000
00001000
00000000
,
01000000
00100000
00010000
00000000
00100000
10000000
01000000
00000000
,
00100000
00010000
00100000
00001000
00010000
00001000
00010000
00000000
,
00100000
00000000
10000000
00000000
01000000
00100000
00000000
00100000
,
00000000
00010000
01000000
00000000
00001000
00010000
00001000
00000000
,
00010000
00001000
00000000
00001000
00010000
00000000
00010000
00000010
,
00000000
00001000
00000010
00000000
00000100
00000001
00001000
00000000
,
00000100
00000000
00000000
00000010
00000000
00000000
00000100
00000000
00000010
00000000
00000001
00000000
00000000
00000000
00001001
00000000
,
00000000
00000001
00000010
00000000
00000100
00010000
00001000
00000000
,
00001000
00010000
00000000
00010000
00001000
00000000
01000000
00010000
,
00000000
01000000
00100000
00000000
10000000
00010000
10000000
00000000
,
00200000
00000000
02300000
00000000
03010000
00100000
00000000
00100000
,
00000000
00100000
01000000
00000000
00010000
00001000
00010000
00000000
,
00000010
00001000
00000000
00000100
00001000
00000000
00000010
00001000
,
00000000
00000001
00000100
00000000
00000010
00000000
00000010
00000000
,
00010000
00000000
00011000
00000000
00010000
01000000
00000000
01000000
,
00000000
10000000
00010000
00000000
01000000
00100000
10000000
00000000
,
01000000
00000000
00000000
00110000
00000000
00000000
01001000
00000000
,
00000000
00010000
00001000
00000000
00000010
00000001
00000010
00000000
,
00000001
00000000
00000110
00000000
,
00001000
00000000
00010000
00000000
,
00100000
01000000
00100000
00000000
01000000
00000000
01000000
00100000
,
00000000
00100000
01000000
00000000
00100000
00100000
00100000
00000000
,
10000000
00000000
01100000
00000000
,
00010000
00000000
00001000
00000000
,
00000010
00000100
00000010
00000000
00000100
00000000
00000100
00000010
,
00000000
00000010
00000100
00000000
00000010
00000010
00000010
00000000
,
00000001
00001000
00000001
00001000
00000100
00001000
00000000
00001100
,
00000000
00000100
00010000
00000000
00001000
00010000
00001000
00000000
,
00100000
00000000
00100000
00000000
01000000
10000000
00000000
10010000
,
00000000
00100000
01000000
00000000
00100000
00000000
00010000
00000000
,
00002000
00003000
00000200
00000300
,
00000002
00000003
00000010
00000010
,
00000100
00000000
00001000
00000000
00000100
00010000
00000000
00011000
,
00000000
00001000
01000000
00000000
00110000
00000000
00000000
00000000
,
10000000
11000000
00100000
00110000
,
01000000
01001000
00010000
00110000
,
00100000
00011000
01000000
00011000
,
00000100
00000000
00010010
00000000
00010000
00001000
00010000
00000000
,
00001000
00101000
00010000
00010010
,
00001000
00001100
00000100
00010100
,
00001000
00001010
00000100
00000101
,
00000010
00000100
00001000
00000001
00000100
00000010
00000100
00000000
,
00000001
00000101
00000010
00001010
,
00000100
00010100
00001000
00001010
,
00000010
00011000
00000100
00011000
,
01000000
00000000
00101000
00000000
00001000
00010000
00001000
00000000
,
00010000
00010010
00001000
00101000
,
00010000
01010000
01000000
01001000
,
00010000
00110000
01000000
11000000
,
00100000
01000000
00010000
10000000
01000000
00100000
01000000
00000000
,
20020000
00000000
00000000
00000000
,
00000000
00000000
00000000
00000000
,
30030000
00000000
00000000
00000000
,
00000000
00000000
00000000
00000000
;
#NOTES:
     dance-double:
     :
     Hard:
     16:
     :
00000000
00000000
00000000
00000000
,
00000000
00000000
00000000
00000000
,
00000000
00000000
00000000
00000000
,
00000000
00000000
00000000
00000000
,
00000000
00000000
00000000
00000000
,
00000000
00000000
00000000
00000000
,
00000000
00000000
00000000
00000000
,
00000000
00000000
00000000
00000000
,
00000000
00000000
00000000
00000000
,
00000000
00000000
00000000
00000000
,
00100000
00000000
10010000
00000000
01000000
01000000
00000000
01100000
,
00000000
10000000
01000000
00010000
00001000
00000010
00000001
00000000
,
00000100
00000010
00001000
00000100
00010000
00000000
00001000
00000010
,
00000000
00000000
00001000
00000000
00010000
00000000
00001000
00010000
00001000
00000000
00000100
00000000
00000001
00000000
00000000
00000000
,
00000010
00000000
00000000
00000100
00000000
00000000
00001000
00000000
00000100
00000000
00000010
00000000
00000000
00000000
00000110
00000000
,
00000000
00000001
00000100
00001000
00010000
00100000
10000000
00000000
,
11000000
00000000
00000000
00110000
00000000
00000000
00011000
00000000
,
00000000
00001000
00010000
01000000
00100000
00001000
00000000
00001000
,
00010000
00000100
00001000
00000000
00000100
00001000
00000010
00000000
00000100
00000000
00000010
00000000
00000000
00000000
00001001
00000000
,
00000000
00000001
00000010
00001000
00010000
01000000
10000000
00000000
,
00100000
01000000
00000000
00100000
01000000
00000000
00000000
10010000
,
00000000
10000000
00100000
00010000
00001000
00000100
00000001
00000000
,
00000010
00000010
00000010
00000000
00000001
00001000
00000000
00000110
,
00000000
00000100
00000010
00001000
00000100
00010000
00001000
00100000
,
00010000
01000000
00010000
00000000
00000000
00000000
10000000
00100000
10000000
00000000
00000000
00000000
00010000
10000000
00010000
00000000
,
00000000
10000000
00100000
01000000
00010000
00100000
00001000
00000000
,
00010000
00000100
00001100
00001000
00000010
00000100
00000110
00000001
,
00000010
00000100
00001100
00001000
00000100
00010000
00011000
00100000
,
00010000
01000000
01100000
00100000
10000000
00010000
10010000
01000000
,
00100000
00010000
00110000
00100000
00001000
00010000
00010010
00001000
,
00000100
00000010
00000011
00000001
00000100
00000010
00001010
00000100
,
00010000
00001000
00011000
00010000
00001000
00100000
00110000
00010000
,
01000000
00100000
10100000
00010000
00100000
01000000
01100000
00100000
,
00001000
00000000
00010000
00001000
00010000
00000000
00000100
00001000
00000100
00000000
00001000
00000010
00001000
00000000
00000000
00000000
,
00000001
00000000
00000010
00000000
00000011
00000000
00000100
00000000
00001000
00000000
00000010
00001000
00000010
00000000
00010000
00000000
,
00000100
00000000
00010000
00000000
00011000
00000000
00001000
00000000
01000000
00000000
00010000
00100000
00010000
00000000
01000000
00000000
,
00100000
00000000
10000000
00000000
10010000
00000000
01000000
00000000
00100000
00000000
00010000
00100000
00010000
00000000
01000000
00000000
,
00001000
00000000
00010000
00000000
00011000
00000000
00001000
00000000
00010000
00000000
00000100
00001000
00000100
00000000
00000010
00000000
,
00000001
00001000
00000110
00000000
00000010
00001000
00011000
00000000
,
01000000
00100000
10010000
00000000
10000000
00100000
01010000
00000000
,
00010000
00000000
00100000
00000000
00010000
00000000
00001000
00000000
00000100
00000000
00001000
00000100
00001000
00000100
00000010
00000001
,
00000010
00001000
00010000
00001000
01000000
00010000
00100000
00000000
,
22000000
00000000
00000000
00000000
00000000
00000000
33000000
00220000
,
00000000
00000000
00000000
00330000
,
00002020
00000000
00000000
00000000
00000000
00000000
00003030
00000202
,
00000000
00000000
00000000
00000303
,
00001001
00000000
00000000
00000010
00000100
00000000
00000010
00001000
,
00000000
00000000
00000100
00000000
00010000
00000000
00000000
00000000
00010000
00000000
00001000
00000000
00010000
00000000
00001000
00100000
,
00001000
00100000
00010000
01000000
10000000
01000000
00010000
00100000
,
00010000
00100000
00010000
00100000
00001000
00010000
00001000
00010000
00000100
00000000
00001000
00000000
00001010
00000000
00000000
00000000
,
00000010
00000000
00001001
00000000
00000100
00000100
00000000
00000110
,
00000000
00000001
00000100
00001000
00010000
00100000
10000000
00000000
,
01000000
00100000
00010000
01000000
00001000
00000000
00010000
00100000
,
00000000
00000000
00010000
00000000
00001000
00000000
00010000
00001000
00010000
00000000
01000000
00000000
10000000
00000000
00000000
00000000
,
00100000
00000000
00000000
01000000
00000000
00000000
00010000
00000000
01000000
00000000
00100000
00000000
00000000
00000000
01100000
00000000
,
00000000
10000000
01000000
00010000
00001000
00000010
00000001
00000000
,
00000101
00000000
00000000
00001010
00000000
00000000
00011000
00000000
,
00000000
00010000
00001000
00000100
00000010
00010000
00000000
00010000
,
00001000
01000000
00010000
00000000
01000000
00010000
00100000
00000000
01000000
00000000
00100000
00000000
00000000
00000000
10010000
00000000
,
00000000
10000000
00100000
00010000
00001000
00000100
00000001
00000000
,
00000010
00000100
00000000
00000010
00000100
00000000
00000000
00001001
,
00000000
00000001
00000010
00001000
00010000
01000000
10000000
00000000
,
00100000
00100000
00100000
00000000
10000000
00010000
00000000
01100000
,
00000000
01000000
00100000
00010000
01000000
00001000
00010000
00000010
,
00001000
00000100
00001000
00000000
00000000
00000000
00000001
00000010
00000001
00000000
00000000
00000000
00001000
00000001
00001000
00000000
,
00000000
00000001
00000010
00000100
00001000
00000010
00010000
00000000
,
00001010
00000000
00000000
00010000
00110000
00000000
00000000
00001000
,
00001100
00000000
00010000
00000000
01010000
00000000
00000000
00100000
,
01000000
00010000
00001000
00000010
00000100
00001000
00000010
00000100
,
00000000
00001000
00010000
00100000
01000000
00100000
00010000
00000000
,
00001010
00000000
00000000
00010000
01010000
00000000
00000000
00010000
,
00110000
00000000
00001000
00000000
00001010
00000000
00000000
00000010
,
00000100
00001000
00010000
00100000
01000000
00010000
00100000
01000000
,
00000000
00010000
00001000
00000010
00001000
00010000
00001000
00000000
,
00010000
00100000
10000000
00100000
00010000
00001000
00000000
00011000
,
00000000
00000000
00000010
00001000
00000100
00000000
00000010
00000000
00000001
00000000
00000100
00000000
00001000
00000000
00000100
00000000
,
00000101
00000000
00000010
00000000
00001010
00001000
00000000
00000100
,
00010000
00000100
00001000
00000100
00010000
00001000
00100000
00000000
,
00010000
01000000
10000000
00000000
10000000
01000000
00010000
00000000
,
00001000
00000100
00000001
00000000
00000010
00000000
00000010
00000000
,
00000011
00000000
00000011
00000000
00001000
00000010
00000000
00001010
,
00000000
00000100
00010000
00001000
00100000
00010000
01000000
00000000
,
00100000
00000000
10000000
00010000
10000000
00000000
01000000
00000000
00100000
00000000
00010000
00000000
01000000
00000000
00010000
00000000
,
00100000
00000000
00001000
00010000
00001000
00000000
00000010
00000000
00000100
00000000
00001000
00000000
00000001
00000000
00000010
00000000
,
00000100
00000000
00001000
00000010
00001000
00000000
00000001
00000000
00000100
00000000
00000010
00000000
00010000
00000000
00001000
00000000
,
00100000
00000000
00010000
00000000
01000000
00000000
00100000
00000000
10000000
00010000
10000000
00010000
10000000
00000000
00000000
00000000
,
01000000
00000000
00100000
00010000
00100000
00000000
01000000
00000000
00010000
00000000
01000000
00000000
00100000
00000000
00001000
00000000
,
00010000
00000000
00000010
00001000
00000010
00000000
00000100
00000000
00001000
00000000
00000100
00000000
00000001
00000000
00000010
00000000
,
00000011
00000001
00001000
00001100
00000100
00010000
00001000
01000000
,
00100000
00000000
00010000
00000000
00000010
00000000
00001000
00000000
00000100
00000010
00000100
00000010
00000100
00000000
00000000
00000000
,
00000010
00000000
00000001
00001000
00000001
00000000
00000100
00000000
00000010
00000000
00001000
00000000
00000100
00000000
00001000
00000000
,
00000010
00000000
00010000
00001000
00010000
00000000
00100000
00000000
01000000
00000000
00010000
00000000
10000000
00000000
00100000
00000000
,
01000000
00000000
00010000
00100000
00010000
00000000
10000000
00000000
01000000
00000000
00100000
00000000
00001000
00000000
00010000
00000000
,
00000010
00000000
00001000
00000000
00000100
00000000
00000010
00000000
00000001
00001000
00000001
00001000
00000001
00000000
00000000
00000000
,
00000100
00000000
00000010
00001000
00000010
00000000
00000100
00000000
00001000
00000000
00000100
00000000
00000010
00000000
00010000
00000000
,
00001000
00000000
00100000
00010000
00100000
00000000
01000000
00000000
00010000
00000000
01000000
00000000
10000000
00000000
00100000
00000000
,
10000000
01000000
10000000
00000000
00010000
00100000
00010000
00000000
00100000
00001000
00010000
00000000
00000100
00001000
00000100
00000000
,
00000010
00000000
00000001
00001000
00000001
00000000
00000100
00000000
00001000
00000000
00010000
00000000
00001000
00000000
00000000
00000000
,
00022000
00000000
00000000
00000000
,
00000000
00000000
00000000
00000000
,
00033000
00000000
00000000
00000000
,
00000000
00000000
00000000
00000000
;
