
//----- song ID: panh -----//
#TITLE:PANIC HOLIC;
#ARTIST:C-Show;
#BANNER:PANIC HOLIC.png;
#BACKGROUND:PANIC HOLIC-bg.png;
#CDTITLE:./CDTitles/SDVX BOOTH.png;
#MUSIC:PANIC HOLIC.ogg;
#SAMPLESTART:81.85;
#SAMPLELENGTH:15;
#BPMS:0=220,172=110,196=220;
#NOTES:
     dance-single:
     :
     Beginner:
     4:
     :
0000
0000
0000
0000
,
0000
0000
0000
0000
,
0000
0000
0000
0000
,
0001
0000
0010
0000
,
0001
0000
0010
0000
,
0100
0000
0100
0000
,
0100
0000
0000
0000
,
1000
0000
0010
0000
,
1000
0000
0010
0000
,
0100
0000
0100
0000
,
0100
0000
0000
0000
,
1001
0000
0000
0000
,
0000
0000
0000
0000
,
1001
0000
0000
0000
,
0000
0000
0000
0000
,
1001
0000
0000
0000
,
0000
0000
0000
0000
,
1001
0000
0000
0000
,
0000
0000
0000
0000
,
1000
0000
0010
0000
,
1000
0000
0100
0000
,
0010
0000
0001
0000
,
0010
0000
0000
0000
,
0001
0000
0010
0000
,
0001
0000
0100
0000
,
0010
0000
1000
0000
,
0010
0000
0000
0000
,
1000
1000
1000
0000
,
0100
0000
0010
0000
,
0010
0000
0100
0000
,
0001
0000
0000
0000
,
0001
0001
0001
0000
,
0100
0000
0010
0000
,
0010
0000
0100
0000
,
1000
0000
0000
0000
,
1000
0000
0010
0000
,
0100
0100
0100
0000
,
0010
0000
0010
0000
,
0001
0000
0000
0000
,
0001
0000
0100
0000
,
0010
0010
0010
0000
,
0100
0000
0100
0000
,
1000
0000
0000
0000
,
1001
0000
0000
0000
,
0010
0010
0010
0000
,
1001
0000
0000
0000
,
0100
0100
0100
0000
,
1001
0000
0000
0000
,
0010
0010
0010
0000
,
1000
0000
0000
0000
,
0001
0000
0000
0000
,
0100
0000
0000
0000
,
0010
0000
0000
0000
,
1001
0000
0000
0000
,
0000
0000
0000
0000
,
1001
0000
0000
0000
,
0000
0000
0000
0000
,
1001
0000
0000
0000
,
0000
0000
0000
0000
,
1001
0000
0000
0000
,
0010
0010
0010
0000
,
0001
0000
0001
0000
,
0100
0100
0100
0000
,
1000
0000
1000
0000
,
0010
0000
1000
0000
,
0001
0000
0100
0000
,
0010
0000
1000
0000
,
0100
0000
0010
0000
,
0001
0000
0000
0000
,
0001
0001
0001
0000
,
0100
0000
0010
0000
,
0100
0100
0100
0000
,
0100
0000
0000
0000
,
1000
1000
1000
0000
,
0010
0000
0100
0000
,
0010
0010
0010
0000
,
1000
0000
0001
0000
,
1001
0000
0000
0000
,
1001
0000
0000
0000
,
1001
0000
0000
0000
,
0000
0000
0000
0000
,
0110
0000
0000
0000
,
0110
0000
0000
0000
,
0110
0000
0000
0000
,
0000
0000
0000
0000
,
1000
0000
0100
0000
,
0010
0000
0001
0000
,
1001
0000
0000
0000
,
0000
0000
0000
0000
;
#NOTES:
     dance-single:
     :
     Easy:
     9:
     :
0000
0000
0000
0000
,
0000
0000
0000
0000
,
0000
0000
0000
0000
,
0001
0010
0001
0100
,
0001
0010
0001
0100
,
0010
1000
0001
0100
,
0020
0000
0130
0000
,
1000
0010
1000
0100
,
1000
0010
1000
0100
,
0010
0001
0100
0010
,
1000
0000
1000
0001
0000
0000
0000
0000
,
1001
0001
0100
0000
,
0010
1000
0100
0000
,
1000
0001
0010
0001
,
0100
0000
0000
0110
0000
0000
0000
0000
,
1001
1000
0100
0000
,
0010
0001
0100
0000
,
0001
0100
0010
1000
,
0002
0000
0000
0100
0000
0103
0000
0000
,
0010
1000
0010
1000
,
0100
0010
0001
1000
,
0001
0100
0001
0100
,
0010
1000
0001
0100
,
0001
0010
1000
0010
,
0001
0100
1000
0100
,
0001
0010
0100
1000
,
0100
0010
0002
0003
,
0100
0010
0100
0000
0001
0000
1000
0000
,
0100
1000
0010
0100
,
0001
1000
0001
0000
0100
0000
0010
0000
,
1000
0100
0010
0000
,
0100
0010
0100
0000
1000
0000
0001
0000
,
0010
0001
0100
0010
,
1000
0001
1000
0000
0001
0000
0010
0000
,
0100
0100
0100
0000
,
1000
1000
0010
0010
,
0100
0000
0100
0000
0001
0100
0001
0000
,
0001
0001
0010
0010
,
0100
0000
0100
0000
1000
0100
1000
0000
,
0010
0010
0100
0100
,
0001
0001
1000
1000
,
1100
0000
0101
0000
,
1001
0000
0000
0000
,
0020
1000
0100
1030
,
0200
0001
0010
0301
,
0002
0010
0100
1003
,
2000
0010
0100
3001
,
0020
1030
0200
0301
,
0010
0100
0010
1000
0100
0100
0100
0000
,
1001
1000
0010
0000
,
1001
0001
0010
0000
,
0001
0100
0010
1000
,
1010
0000
0000
1010
0000
0000
1010
0000
,
1001
0000
0000
0000
,
0000
0000
0000
0110
,
1001
0000
0000
0000
,
0100
0000
0000
0010
0000
0000
0100
0000
,
1001
0000
0000
0000
,
0010
0001
0100
0010
,
1000
0000
0000
0000
,
0010
0000
0100
0000
0000
0010
0000
0000
,
1001
0000
0000
0000
,
0110
0000
0000
0000
,
1001
0000
0000
0000
,
0110
0000
0000
0000
,
1000
0100
0010
0001
,
1000
0010
0100
0001
,
1000
0100
1000
0001
,
1000
1000
2000
3000
,
0001
0100
0010
1000
,
0100
1000
0001
0100
,
0001
0010
0100
1000
,
0001
1000
0001
1000
0001
0000
0000
0000
,
1000
0010
0100
0001
,
0010
0001
1000
0010
,
1000
0100
0010
0001
,
1000
0001
1000
0001
0000
1000
0000
0000
,
0010
0010
1000
1000
,
0100
0100
0101
0000
,
0010
0010
0001
0001
,
0100
0100
1100
0000
,
0010
0010
1001
0000
,
0100
0100
1001
0000
,
0001
0010
0100
1000
,
0110
0110
1001
0000
,
1000
0010
1000
0000
,
0001
0010
0001
0000
,
1001
0000
0000
0000
,
0000
0000
0000
0000
;
#NOTES:
     dance-single:
     :
     Medium:
     12:
     :
0000
0000
0000
0000
,
0000
0000
0000
0000
,
0000
0000
0000
0000
,
0001
0010
0001
0000
0100
0001
0100
0000
,
0001
0010
0100
0000
1000
0001
1000
0000
,
0010
1000
0010
0000
1000
0100
1000
0000
,
0020
0000
0100
0130
,
1000
0100
1000
0000
0010
1000
0010
0000
,
1000
0100
0010
0000
0001
1000
0001
0000
,
0100
0001
0100
0000
0001
0010
0001
0000
,
1000
0000
0002
2000
0000
0000
3003
0000
,
0001
0100
0010
0000
1000
0000
0001
0000
,
1000
0010
0100
0000
0001
0000
1000
0000
,
0001
0010
0100
0000
1000
0100
0010
0000
,
0001
0000
2000
0002
0000
0000
3003
0000
,
1000
0001
0100
0000
0010
0000
1000
0000
,
0001
1000
0010
0000
0100
0000
0010
0000
,
1000
0100
0010
0000
0001
0100
0010
0000
,
0110
0000
0000
1001
0000
1001
0000
0000
,
0001
1000
0001
1000
0100
0010
0100
0000
,
1000
0001
0010
0001
1000
0010
1000
0000
,
0001
0100
0001
1000
0010
1000
0100
0000
,
0010
0000
0001
1000
0000
0001
1000
0000
,
0001
0100
0010
0000
1000
0010
0100
0000
,
0001
0010
0100
0000
1000
0100
0010
0000
,
0001
1000
0010
0100
0001
1000
0010
0100
,
0001
0000
0010
0100
0000
0010
0200
0000
,
1300
0001
0010
0000
0001
0100
0010
0000
,
1000
0001
0010
0000
0001
0100
0010
1000
,
0001
0010
0100
0000
1000
0010
0100
0000
,
0002
0000
1000
1003
0000
0000
1001
0000
,
1000
0001
0100
0000
0001
0010
0100
0000
,
1000
0001
0100
0000
0010
1000
0100
0000
,
0010
0001
0100
0000
0010
1000
0100
0000
,
0020
0000
0001
0001
0000
0001
0031
0000
,
0001
0010
0001
0000
0100
0001
0100
0000
,
0001
0010
0001
0000
0100
0001
0100
0000
,
0010
1000
0010
0000
1000
0100
1000
0000
,
0020
0000
0100
0130
0000
0000
0110
0000
,
1000
0010
0100
0000
0001
0100
0001
0000
,
0010
0001
1000
0000
0100
1000
0100
0000
,
1100
0000
0101
0000
,
1001
0000
0000
0000
,
1001
0000
0000
0000
0000
0010
0100
0001
0000
0100
0010
1000
0002
0000
0000
0000
,
1003
0000
0100
0000
0001
0000
0100
0000
1000
0010
0100
0010
2000
0000
0000
0000
,
3001
0000
0000
0000
0000
0010
0100
1000
0000
0010
0100
0001
1000
0001
1000
0000
,
0010
0000
0001
0000
0010
0000
1000
0000
0001
0000
0100
0010
0000
0100
0010
0000
,
0110
0000
0000
0000
0000
0100
0001
1000
0000
0010
1000
0001
0020
0000
0000
0000
,
0130
0000
0001
0000
0100
0000
1000
0000
0010
0100
0001
1000
0002
0000
0000
0000
,
1003
0000
0001
0000
0100
0010
0100
0000
,
0001
0000
1000
0000
0100
0010
0100
0000
,
1000
0100
1000
0100
0010
0001
0010
0001
,
1000
0000
0000
0001
0000
0000
1000
0000
,
1001
0000
1000
0100
0000
0010
0001
0010
,
0000
0001
0100
0000
0001
0000
1000
0000
,
1001
0000
0010
1000
0000
0100
0010
0001
,
0100
0001
0010
0100
0010
0000
0000
0000
,
1001
0000
0001
0100
0000
0010
1000
0010
,
0000
1000
0001
0000
0010
0000
0100
0000
,
0110
0000
1000
0010
0000
0100
0001
0000
,
0010
0001
1000
0100
0000
1000
0000
0000
,
1010
0000
0100
0100
0000
0100
0100
0000
,
0011
0000
0100
0100
0000
0100
0100
0000
,
1100
0000
0010
0010
0000
0010
0010
0000
,
0101
0000
0010
0010
0000
0110
0000
0000
,
0001
0101
1000
1100
,
0001
0101
1000
1100
,
0001
0010
0100
1000
,
0010
0010
0010
0000
0020
0000
0030
0000
,
1000
0000
0001
0100
0000
0001
0010
0001
,
0000
1000
0010
0000
1010
0000
0011
0000
,
1000
0000
0001
0100
0000
0001
0010
0001
,
1000
0100
0010
0001
2000
0000
3000
0000
,
0001
0000
1000
0100
0000
1000
0010
1000
,
0000
0001
0010
0000
0011
0000
1010
0000
,
0001
0000
0100
0001
0000
0010
0001
0100
,
0010
1000
0010
0100
0000
0110
0000
0000
,
0000
1000
0000
1000
0000
1010
0000
1010
,
0000
0001
0000
0001
0000
0101
0000
0101
,
0000
0010
0000
0010
0000
0011
0000
0011
,
0000
0100
0000
0100
0000
1100
0000
1100
,
0000
0010
0000
1010
0000
0010
0000
1010
,
0000
0100
0000
0101
0000
0100
0000
0101
,
0000
1001
0000
0110
0000
1001
0000
0100
,
0010
1000
0001
0100
0000
0110
0000
0000
,
1001
1000
0100
0010
,
0001
0000
1000
0000
0010
0100
0000
0000
,
0110
0000
0000
0000
,
0000
0000
0000
0000
;
#NOTES:
     dance-single:
     :
     Hard:
     16:
     :
0000
0000
0000
0000
,
0000
0000
0000
0000
,
0000
0000
0000
0000
,
0001
0010
0001
0100
0001
0010
0001
0100
,
0001
1000
0001
0100
0001
1000
0001
0100
,
0010
1000
0010
0100
0001
1000
0001
0100
,
0010
0000
0000
0000
0010
0000
1000
0000
0001
0000
0000
0001
0000
0000
0001
0000
,
1000
0100
1000
0010
1000
0100
1000
0010
,
1000
0100
1000
0001
1000
0100
1000
0001
,
0100
0010
0100
0001
1000
0010
1000
0001
,
1000
0000
0000
0000
2000
0000
0002
0000
0000
0000
3003
0000
0001
0010
0100
1000
,
0001
0010
0001
0100
0010
1000
0100
1000
,
0001
0100
0010
0000
0100
0000
0010
0000
1000
0000
0100
0000
1000
0000
1000
0000
,
0100
0010
0001
0100
0010
0100
0001
1000
,
1100
0000
0010
0110
0000
1000
0001
1000
,
0001
0010
0100
1000
0010
0100
0010
1000
,
0100
1000
0001
0000
1000
0000
0001
0000
0010
0000
0001
0000
0100
0000
0010
0000
,
1000
0100
0100
1000
0001
0100
0001
0010
,
0100
0000
0100
1000
0000
1000
0001
1000
,
0010
0100
0010
1000
0001
0100
0001
1000
,
0100
0010
0001
0000
1000
0000
0001
0000
0010
0000
0001
0000
0100
0000
0010
0000
,
1000
0100
0010
0100
1000
0010
0100
0010
,
1000
0001
0100
0010
0000
0100
0010
0100
,
0001
0010
0100
1000
0001
0010
0100
1000
,
0010
1000
0001
0100
0010
1000
0001
0100
,
0001
0000
0010
0000
0001
0000
0100
0000
0001
0010
0100
0010
0001
0010
0100
0010
,
0001
1000
0100
1000
0000
1000
0020
0000
,
1030
0000
0001
0100
0010
0000
1000
0000
0010
0000
0100
0000
0001
0000
0010
0000
,
0001
0000
0010
0100
1000
0000
0001
0000
1000
0000
0010
0000
1000
0000
0010
0000
,
1000
0000
0001
0100
0010
0000
1000
0000
0010
0000
0100
0000
0001
0000
1000
0000
,
0001
0010
0100
1000
0000
1000
0100
1000
,
0010
0000
0100
0001
1000
0000
0001
0000
0010
0000
0001
0000
1000
0000
0100
0000
,
0010
0000
0001
1000
0010
0000
0100
0000
0001
0000
1000
0000
0100
0000
0010
0000
,
0001
0000
0100
0010
1000
0000
0001
0000
1000
0000
0010
0000
0100
0000
0001
0000
,
0100
0001
0010
0001
0000
0001
0200
0000
,
0301
0100
1000
0100
0001
0100
1000
0100
,
0001
0010
1000
0010
0001
0010
1000
0010
,
0001
0100
1000
0100
0001
0010
1000
0010
,
0002
0000
1000
1000
0000
0100
0103
0000
,
1000
0100
1000
0100
0001
0100
0001
0100
,
1000
0010
1000
0010
0001
0010
0001
0010
,
1010
0000
1100
0000
,
1001
0000
0000
0000
,
1001
0000
0001
0001
0000
0010
0010
0010
0000
0100
0100
0100
1000
0000
0001
0000
,
1001
0000
0000
0000
0001
0010
0100
0000
1000
0000
0000
0000
1000
0010
0100
0000
0001
0000
0100
0000
0100
0000
0100
0000
0200
0000
0000
0000
0300
0000
0000
0000
,
1001
0000
1000
1000
0000
0010
0010
0010
0000
0100
0100
0100
0001
0000
1000
0000
,
1001
0000
0000
0000
1000
0100
0010
0000
0001
0000
0000
0000
1000
0010
0100
0000
0002
0000
0000
0000
0100
0000
0100
0000
0000
0000
0100
0000
0103
0000
0000
0000
,
1001
0000
0001
0100
0010
0100
0100
0100
1000
0010
0010
0010
0001
0000
2000
0000
,
3001
0000
0000
0000
1000
0001
0010
0000
0100
0000
0000
0000
1000
0010
0100
0000
0010
0000
0100
0000
0100
0000
0100
0000
0200
0000
0000
0000
0000
0000
0000
0000
,
0310
0000
1000
0000
0001
0100
0100
0100
,
0001
0000
0010
0000
0100
1000
1000
1000
,
0001
0001
0100
0100
0010
0010
1000
1000
,
0001
0000
0100
0010
0000
0100
0010
0000
,
1001
0000
0000
0000
,
0000
0000
0000
0110
,
1001
0000
0000
0000
,
0011
0000
0000
1100
0000
0000
0110
0000
,
1001
0000
0000
0000
,
0100
0010
0010
0100
0010
0100
0001
1000
,
1001
0000
0000
0000
,
1010
0000
0101
0000
0000
1001
0000
0000
,
1001
0000
0001
0010
0000
0100
1000
0000
,
1001
0000
1000
0010
0000
0100
0001
0000
,
1001
0000
0001
0010
0000
0100
1000
0000
,
1001
0000
1000
0010
0000
0110
0000
0000
,
0011
0100
1010
0001
,
1100
0010
0101
1000
,
1000
1000
0100
0100
0010
0010
0001
0001
,
0100
0000
0100
0000
0100
0000
0100
0000
0100
0001
1000
0100
2000
0000
3000
0000
,
1001
0000
1100
0100
0010
0100
1000
0100
,
1000
1000
0010
0010
0100
0100
0001
0001
,
1001
0000
0001
0100
0010
0100
0001
0100
,
0010
0010
0010
0010
0220
0000
0330
0000
,
1001
0000
1010
1000
0010
0100
0001
0100
,
0001
0001
0010
0010
0100
0100
1000
1000
,
1001
0000
1000
0100
1000
0010
1000
0100
,
0010
0001
0100
0001
0000
1001
0000
0000
,
0001
0001
0010
0010
1000
1000
0100
0100
,
0001
0001
0010
0010
1000
1000
0100
0100
,
0001
0001
0100
0100
1000
1000
0010
0010
,
0001
0001
0100
0100
1000
0000
1001
0000
,
0010
0010
1000
1000
1001
1001
1001
0000
,
0010
0010
0001
0001
1001
1001
1001
0000
,
0001
0010
0100
1000
0001
0100
0010
1000
,
0001
0010
0100
1000
0001
0010
0100
1000
0000
0000
1001
0000
0000
0000
0000
0000
,
1001
2000
3200
0320
,
0032
0000
2003
0000
3100
0010
0000
0000
,
1001
0000
0000
0000
,
0000
0000
0000
0000
;
#NOTES:
     dance-double:
     :
     Easy:
     9:
     :
00000000
00000000
00000000
00000000
,
00000000
00000000
00000000
00000000
,
00000000
00000000
00000000
00000000
,
10000000
01000000
10000000
01000000
,
10000000
00100000
01000000
00010000
,
00100000
00001000
00100000
00001000
,
00020000
00000000
00031000
00000000
,
00001000
00010000
00001000
00010000
,
00000100
00001000
00000010
00001000
,
00000100
00000010
00000001
00000010
,
00000100
00000000
00001000
00000001
00000000
00000000
00000000
00000000
,
00001001
00000001
00000100
00000000
,
00000010
00010000
00001000
00000000
,
01000000
00010000
00100000
00010000
,
01000000
00000000
00000000
01100000
00000000
00000000
00000000
00000000
,
10010000
10000000
00100000
00000000
,
01000000
00010000
00100000
00000000
,
00001000
00010000
00001000
00010000
,
00000200
00000000
00000000
00000010
00000000
00000310
00000000
00000000
,
00000001
00000100
00000010
00001000
,
00000100
00000010
00000100
00010000
,
00001000
01000000
00010000
00100000
,
00010000
01000000
00100000
00000000
,
10000000
01000000
00100000
00001000
,
01000000
00010000
00100000
00001000
,
00010000
00000010
00001000
00000010
,
00000100
00000001
00002000
00003000
,
00000001
00001000
00000001
00000000
00000010
00000000
00000100
00000000
,
00001000
00000010
00000100
00001000
,
00010000
00001000
00010000
00000000
00001000
00000000
00100000
00000000
,
00010000
01000000
00010000
00000000
,
10000000
00010000
10000000
00000000
00100000
00000000
01000000
00000000
,
00010000
00100000
01000000
00010000
,
00001000
00010000
00001000
00000000
00010000
00000000
00000010
00000000
,
00001000
00001000
00001000
00000000
,
00000001
00000001
00000100
00000100
,
00000010
00000010
00001000
00001000
,
00000100
00000100
00010000
00010000
,
00001000
00000000
00000000
00011000
00000000
00000000
00001000
00000000
,
00100000
00100000
00010000
00010000
,
01000000
01000000
00100000
00100000
,
10100000
00000000
11000000
00000000
,
10010000
00000000
00000000
00000000
,
02000000
00100000
00010000
03010000
,
00200000
00001000
00010000
00310000
,
00000200
00010000
00001000
00001300
,
00000020
00001000
00000100
00000130
,
00000002
00000103
00002000
00003100
,
00010000
00000000
00001000
00000000
00010000
00010000
00010000
00000000
,
00011000
00001000
00100000
00000000
,
01010000
00010000
10000000
00000000
,
01000000
00100000
01000000
00010000
,
00001000
00000000
00000000
00010000
00000000
00000000
00001000
00000000
,
00011000
00000000
00000000
00000000
,
00000000
00000000
00000000
00000110
,
00001001
00000000
00000000
00000000
,
00010000
00000000
00000000
00001000
00000000
00000000
00010000
00000000
,
00011000
00000000
00000000
00000000
,
10000000
01000000
00010000
01000000
,
10000000
00000000
00000000
00000000
,
00001000
00000000
00010000
00000000
00000000
00001000
00000000
00000000
,
00011000
00000000
00000000
00000000
,
00000110
00000000
00000000
00000000
,
00011000
00000000
00000000
00000000
,
01100000
00000000
00000000
00000000
,
10000000
01000000
10000000
01000000
,
00100000
00010000
00100000
00010000
,
00001000
00000100
00001000
00000100
,
00000010
00000010
00000020
00000030
,
00000001
00000100
00001000
00000100
,
00000001
00000010
00001000
00000010
,
00000001
00000100
00001000
00010000
,
00001000
00010000
00001000
00010000
00001000
00000000
00000000
00000000
,
00010000
00100000
10000000
00100000
,
00010000
00001000
00010000
01000000
,
10000000
01000000
00010000
00001000
,
00010000
00001000
00010000
00001000
00000000
00010000
00000000
00000000
,
00000010
00000010
00000100
00000100
,
00000001
00000001
00000101
00000000
,
00001000
00001000
00000010
00000010
,
00010000
00010000
00011000
00000000
,
01000000
01000000
01010000
00000000
,
00100000
00100000
10100000
00000000
,
01000000
00010000
00100000
00001000
,
00010000
00000100
00000110
00000000
,
00000001
00000010
00001000
00000000
,
00010000
01000000
10000000
00000000
,
10010000
00000000
00000000
00000000
,
00000000
00000000
00000000
00000000
;
#NOTES:
     dance-double:
     :
     Medium:
     12:
     :
00000000
00000000
00000000
00000000
,
00000000
00000000
00000000
00000000
,
00000000
00000000
00000000
00000000
,
10000000
01000000
10000000
00000000
00100000
10000000
00100000
00000000
,
01000000
00010000
00100000
00000000
00001000
00010000
00001000
00000000
,
00010000
00000100
00001000
00000000
00000100
00001000
00000010
00000000
,
00000200
00000000
00000010
00000310
,
00000001
00000010
00000001
00000000
00000100
00000001
00000100
00000000
,
00000010
00001000
00000100
00000000
00010000
00001000
00010000
00000000
,
00001000
00100000
00010000
00000000
00100000
00010000
01000000
00000000
,
00100000
00000000
20000000
00020000
00000000
00000000
30030000
00000000
,
10000000
01000000
00100000
00000000
00010000
00000000
01000000
00000000
,
00001000
00010000
00001000
00000000
00010000
00000000
00000010
00000000
,
00001000
00000010
00000100
00000000
00000001
00000010
00000100
00000000
,
00001000
00000000
00002000
00000002
00000000
00000000
00003003
00000000
,
00000001
00000100
00000010
00000000
00001000
00000000
00000100
00000000
,
00010000
00001000
00010000
00000000
00001000
00000000
00100000
00000000
,
00010000
01000000
00100000
00000000
10000000
01000000
00100000
00000000
,
01100000
00000000
00000000
10010000
00000000
10010000
00000000
00000000
,
10000000
00100000
01000000
00100000
01000000
00010000
01000000
00000000
,
00010000
00100000
00001000
00010000
00001000
01000000
00001000
00000000
,
00010000
00000100
00001000
00000010
00001000
00000100
00000010
00000000
,
00000001
00000000
00001000
00000001
00000000
00001000
00000001
00000000
,
00000100
00000010
00001000
00000000
00000100
00010000
00001000
00000000
,
00100000
00010000
01000000
00000000
00100000
10000000
01000000
00000000
,
10000000
01000000
10000000
01000000
00100000
00010000
00100000
00010000
,
00100000
00000000
00001000
00010000
00000000
00001000
00020000
00000000
,
00030100
00001000
00000010
00000000
00000100
00000001
00000010
00000000
,
00000100
00010000
00001000
00000000
00010000
00001000
00010000
00000000
,
00001000
01000000
00010000
00000000
00100000
00010000
01000000
00000000
,
00100000
00000000
10000000
00010000
00000000
00000000
10010000
00000000
,
01000000
10000000
00100000
00000000
01000000
00010000
00100000
00000000
,
00010000
01000000
00001000
00000000
00010000
00001000
00010000
00000000
,
00001000
00010000
00000010
00000000
00001000
00000010
00000100
00000000
,
00000002
00000000
00000010
00000010
00000000
00000010
00000013
00000000
,
00001000
00000010
00001000
00000000
00000100
00001000
00000100
00000000
,
00001000
00000010
00001000
00000000
00000100
00010000
00001000
00000000
,
00100000
00010000
00100000
00000000
00010000
01000000
00010000
00000000
,
00200000
00000000
00010000
00310000
00000000
00000000
10010000
00000000
,
00100000
10000000
00100000
00000000
01000000
00010000
00100000
00000000
,
00001000
00010000
00001000
00000000
00010000
00000000
00000100
00000000
,
00001100
00000000
00000011
00000000
,
00001001
00000000
00000000
00000000
,
00001001
00000000
00000000
00000000
00000000
00000010
00000001
00000010
00000000
00000100
00010000
00001000
00010000
00000000
00000000
00000000
,
00001000
00000000
00000010
00000000
00001000
00000000
00010000
00000000
01000000
00100000
00010000
00100000
02000000
00000000
00000000
00000000
,
13000000
00000000
00000000
00000000
00000000
00100000
10000000
00100000
00000000
01000000
00001000
00010000
00001000
00000000
00010000
00000000
,
00100000
00000000
00010000
00000000
00001000
00000000
00010000
00000000
00000010
00000000
00001000
00000100
00000000
00000010
00000001
00000000
,
00001001
00000000
00000000
00000000
00000000
00000100
00000001
00001000
00000000
00000100
00010000
00001000
02000000
00000000
00000000
00000000
,
03010000
00000000
00100000
00000000
00001000
00000000
00010000
00000000
00000010
00001000
00000010
00010000
00002000
00000000
00000000
00000000
,
00013000
00000000
00001000
00000000
01000000
00010000
01000000
00000000
,
00100000
00000000
10000000
00000000
01000000
00100000
01000000
00000000
,
00100000
00001000
00100000
00001000
00010000
00000100
00010000
00000100
,
00001000
00000000
00000000
00000001
00000000
00000000
00001000
00000000
,
00001001
00000000
00000001
00000100
00000000
00001000
00010000
00001000
,
00000000
00010000
00100000
00000000
10000000
00000000
00010000
00000000
,
10010000
00000000
10000000
01000000
00000000
00010000
00001000
00010000
,
00000100
00001000
00000010
00001000
00000010
00000000
00000000
00000000
,
00001001
00000000
00000001
00000010
00000000
00001000
00010000
00001000
,
00000000
00010000
00100000
00000000
10000000
00000000
00100000
00000000
,
10010000
00000000
10000000
00100000
00000000
00010000
00001000
00000000
,
00010000
00000100
00001000
00000100
00000000
00000010
00000000
00000000
,
00000011
00000000
00000001
00000001
00000000
00000001
00000001
00000000
,
00001100
00000000
00001000
00001000
00000000
00001000
00001000
00000000
,
00010100
00000000
00000100
00000100
00000000
00000100
00000100
00000000
,
00011000
00000000
00010000
00010000
00000000
00011000
00000000
00000000
,
00100000
00110000
10000000
11000000
,
00010000
01010000
00001000
00011000
,
00010000
00000010
00001000
00000100
,
00000010
00000010
00000010
00000000
00000020
00000000
00000030
00000000
,
00000001
00000000
00000100
00000010
00000000
00000100
00000010
00000100
,
00000000
00000100
00001000
00000000
00011000
00000000
00011000
00000000
,
00010000
00000000
01000000
00100000
00000000
01000000
00100000
00000000
,
00010000
10000000
00010000
10000000
00020000
00000000
00030000
00000000
,
10000000
00000000
01000000
00100000
00000000
01000000
00100000
01000000
,
00000000
01000000
00010000
00000000
00011000
00000000
00011000
00000000
,
00001000
00000000
00000100
00000010
00000000
00000100
00000010
00000000
,
00001000
00000001
00001000
00000001
00000000
00001001
00000000
00000000
,
00000000
00000001
00000000
00000010
00000000
00000100
00000000
00000110
,
00000000
00001000
00000000
00000010
00000000
00010000
00000000
00011000
,
00000000
00001000
00000000
00100000
00000000
00010000
00000000
01010000
,
00000000
00100000
00000000
01000000
00000000
10000000
00000000
11000000
,
00000000
00100000
00000000
00100000
00000000
00110000
00000000
00110000
,
00000000
00001000
00000000
00001000
00000000
00011000
00000000
00011000
,
00000000
00000100
00000000
00000010
00000000
00000011
00000000
00001000
,
00000001
00000010
00000100
00000010
00000000
00000110
00000000
00000000
,
00001001
00000001
00000100
00001000
,
00010000
00000000
00100000
00000000
00010000
00001000
00000000
00000000
,
00011000
00000000
00000000
00000000
,
00000000
00000000
00000000
00000000
;
#NOTES:
     dance-double:
     :
     Hard:
     16:
     :
00000000
00000000
00000000
00000000
,
00000000
00000000
00000000
00000000
,
00000000
00000000
00000000
00000000
,
10000000
01000000
10000000
01000000
10000000
00100000
10000000
00100000
,
01000000
00010000
01000000
00010000
00100000
00010000
00100000
00001000
,
00010000
00001000
00010000
00001000
00010000
00000010
00010000
00000010
,
00000100
00000000
00000000
00000000
00000100
00000000
00000001
00000000
00001000
00000000
00000000
00001000
00000000
00000000
00001000
00000000
,
00000001
00000100
00000001
00000100
00000001
00000010
00000001
00000010
,
00000100
00001000
00000100
00001000
00000010
00001000
00000010
00010000
,
00001000
00010000
00001000
00010000
00001000
00100000
00001000
00100000
,
01000000
00000000
00000000
00000000
20000000
00000000
00020000
00000000
00000000
00000000
30030000
00000000
00010000
00100000
01000000
10000000
,
00010000
00100000
00010000
01000000
00010000
00100000
00001000
00010000
,
00000100
00001000
00000100
00000000
00000010
00000000
00000001
00000000
00001000
00000000
00000001
00000000
00000100
00000000
00000100
00000000
,
00000010
00001000
00000100
00001000
00000100
00010000
00001000
01000000
,
00010000
00000000
00100000
00100000
00000000
01000000
01000000
00000000
,
10000000
00100000
10000000
01000000
10000000
00100000
01000000
00010000
,
00100000
01000000
00100000
00001000
00010000
00001000
00000100
00000010
,
00001000
00000001
00000001
00000100
00000001
00000010
00000100
00001000
,
00010000
00000000
00010000
00100000
00000000
00100000
01000000
00000000
,
10000000
01000000
00010000
01000000
10000000
00010000
00100000
00001000
,
00010000
00001000
00010000
00000000
00000010
00000000
00001000
00000000
00000100
00000000
00001000
00000000
00000010
00000000
00000100
00000000
,
00000001
00000100
00001000
00000100
00000001
00001000
00000100
00000010
,
00000100
00010000
00001000
00010000
00000000
00010000
00001000
00000000
,
00100000
00010000
00100000
00010000
10000000
01000000
10000000
01000000
,
10000000
00100000
01000000
00010000
00100000
00001000
00010000
00000100
,
00001000
00000000
00000010
00000000
00000100
00000000
00000001
00000000
00000100
00000010
00001000
00000010
00000100
00000010
00001000
00000010
,
00000100
00000000
00001000
00010000
00000000
00010000
00002000
00000000
,
00103000
00000000
00010000
01000000
00010000
00000000
10000000
00000000
00100000
00000000
10000000
00000000
01000000
00000000
00100000
00000000
,
00010000
00000000
00100000
00001000
00100000
00000000
00001000
00000000
00010000
00000000
00000010
00000000
00001000
00000000
00000010
00000000
,
00000100
00000000
00000001
00000010
00000001
00000000
00000100
00000000
00000001
00000000
00000010
00000000
00000100
00000000
00010000
00000000
,
00001000
00000000
00001000
00010000
00000000
00010000
00100000
00100000
,
10000000
00000000
00010000
01000000
00010000
00000000
10000000
00000000
01000000
00000000
00100000
00000000
00001000
00000000
00100000
00000000
,
00010000
00000000
01000000
00100000
01000000
00000000
00010000
00000000
00100000
00000000
00001000
00000000
00010000
00000000
00000010
00000000
,
00001000
00000000
00000100
00000010
00000100
00000000
00000010
00000000
00000001
00000000
00001000
00000000
00000100
00000000
00000010
00000000
,
00000001
00000100
00000010
00000100
00000000
00000100
00002000
00000000
,
00013000
00100000
10000000
00100000
00010000
00100000
10000000
01000000
,
00010000
01000000
10000000
01000000
00010000
00001000
00010000
00000100
,
00001000
00000100
00000001
00000100
00001000
00000010
00000001
00000010
,
00002000
00000000
00000001
00000001
00000000
00000100
00003100
00000000
,
00000010
00000100
00000010
00000100
00001000
00010000
00001000
00010000
,
01000000
00100000
01000000
00100000
01000000
10000000
00100000
00000000
,
00110000
00000000
00011000
00000000
,
00001100
00000000
00000000
00000000
,
00001001
00000000
00000001
00000001
00000000
00000010
00000010
00000010
00000000
00001000
00001000
00001000
00010000
00000000
01000000
00000000
,
01100000
00000000
00000000
00000000
00010000
01000000
00100000
00000000
10000000
00000000
00000000
00000000
10000000
01000000
00100000
00000000
00010000
00000000
01000000
00000000
01000000
00000000
01000000
00000000
02000000
00000000
00000000
00000000
03000000
00000000
00000000
00000000
,
10010000
00000000
10000000
10000000
00000000
00100000
00100000
00100000
00000000
00010000
00010000
00010000
00001000
00000000
00000100
00000000
,
00000110
00000000
00000000
00000000
00001000
00000100
00000010
00000000
00000001
00000000
00000000
00000000
00000001
00000100
00000010
00000000
00002000
00000000
00000000
00000000
00000100
00000000
00000100
00000000
00000000
00000000
00000100
00000000
00003100
00000000
00000000
00000000
,
00001001
00000000
00001000
00000010
00010000
00001000
00001000
00001000
00100000
00010000
00010000
00010000
01000000
00000000
00020000
00000000
,
00130000
00000000
00000000
00000000
01000000
10000000
00100000
00000000
01000000
00000000
00000000
00000000
00010000
00100000
00001000
00000000
00010000
00000000
00001000
00000000
00001000
00000000
00001000
00000000
00002000
00000000
00000000
00000000
00000000
00000000
00000000
00000000
,
00003010
00000000
00000001
00000000
00000100
00000010
00000010
00000010
,
00000100
00000000
00001000
00000000
00010000
00001000
00001000
00001000
,
00100000
00100000
00010000
00010000
10000000
10000000
01000000
01000000
,
10000000
00000000
00100000
01000000
00000000
00100000
01000000
00000000
,
01100000
00000000
00000000
00000000
,
00000000
00000000
00000000
00001000
,
00011000
00000000
00000000
00000000
,
00001100
00000000
00000000
00000011
00000000
00000000
00000110
00000000
,
00001001
00000000
00000000
00000000
,
00010000
00001000
00001000
00010000
00001000
00010000
00001000
00000000
,
00011000
00000000
00000000
00000000
,
00110000
00000000
11000000
00000000
00000000
01100000
00000000
00000000
,
10010000
00000000
10000000
01000000
00000000
00100000
00010000
00000000
,
00011000
00000000
00001000
00000100
00000000
00000010
00000001
00000000
,
00001001
00000000
00000001
00000100
00000000
00000010
00001000
00000000
,
00011000
00000000
00010000
01000000
00000000
10100000
00000000
00000000
,
11000000
01000000
00110000
00100000
,
00011000
00001000
00001010
00001000
,
00000001
00000001
00000010
00000010
00001000
00001000
00010000
00010000
,
00001000
00000000
00010000
00000000
00001000
00000000
00010000
00000000
00001000
00010000
00001000
00010000
00002000
00000000
00003000
00000000
,
00011000
00000000
00010000
01000000
00100000
01000000
10000000
00100000
,
01000000
01000000
00001000
00001000
00010000
00010000
00000100
00000100
,
00001100
00000000
00000010
00000001
00000100
00000010
00000100
00001000
,
00000100
00000100
00000010
00000010
00000220
00000000
00000330
00000000
,
00001001
00000000
00000010
00000100
00001000
00000100
00000010
00001000
,
00000100
00000100
00010000
00010000
00001000
00001000
00100000
00100000
,
00110000
00000000
00100000
00010000
10000000
00100000
00010000
00100000
,
10000000
01000000
10000000
00100000
00000000
10010000
00000000
00000000
,
10000000
10000000
00100000
00100000
00010000
00010000
00001000
00001000
,
00000100
00000100
00000001
00000001
00001000
00000001
00001001
00000000
,
00000001
00000001
00000010
00000010
00001000
00001000
00010000
00010000
,
01000000
01000000
10000000
10000000
00010000
10000000
10010000
00000000
,
01000000
01000000
00100000
00100000
00001000
00001000
00011000
00000000
,
00000100
00000100
00001000
00001000
00000010
00000010
00000110
00000000
,
00000001
00000100
00000001
00000100
00001000
00010000
00100000
01000000
,
00010000
00100000
01000000
00000000
10000000
01000000
00100000
00010000
00000000
00000000
10010000
00000000
00000000
00000000
00000000
00000000
,
01100000
02000000
03200000
00320000
,
00032000
00000000
00003200
00000000
00000310
00000001
00000000
00000000
,
00001001
00000000
00000000
00000000
,
00000000
00000000
00000000
00000000
;
