
//----- song ID: otog -----//
#TITLE:御伽噺に幕切れを;
#ARTIST:夜叉姫神楽;
#TITLETRANSLIT:Otogibanashi ni makugire wo;
#ARTISTTRANSLIT:Yasha-hime Kagura;
#BANNER:Otogibanashi ni makugire wo.png;
#BACKGROUND:Otogibanashi ni makugire wo-bg.png;
#CDTITLE:./CDTitles/pop'n music peace.png;
#MUSIC:Otogibanashi ni makugire wo.ogg;
#SAMPLESTART:63.556;
#SAMPLELENGTH:15;
#BPMS:0=165,32=160,33=147.783,34=131,36=164.835,40=203;
#NOTES:
     dance-single:
     :
     Beginner:
     4:
     :
0000
0000
0000
0000
,
0000
0000
0000
0000
,
0000
0000
0000
0000
,
0000
0000
0000
0000
,
0000
0000
0000
0000
,
0000
0000
0000
0000
,
0000
0000
0000
0000
,
0000
0000
0000
0000
,
0000
0000
0000
0000
,
0000
0000
0000
0000
,
0001
0000
0001
0000
,
1000
0000
1000
0000
,
0010
0000
0010
0000
,
0100
0000
0100
0000
,
0001
0000
0010
0000
,
0001
0000
0010
0000
,
0100
0000
1000
0000
,
1001
0000
0000
0000
,
0010
0010
0010
0000
,
1000
1000
1000
0000
,
0001
0001
0001
0000
,
0100
0100
0100
0000
,
0010
0000
1000
0000
,
0010
0000
1000
0000
,
0001
0000
0010
0000
,
1000
0000
0001
0000
,
1000
0000
0010
0000
,
0110
0000
0000
0000
,
0010
0000
0010
0000
,
0100
0100
0100
0000
,
0001
0000
0001
0000
,
1000
1000
1000
0000
,
0010
0000
0100
0000
,
0010
0000
1000
0000
,
0001
0000
0010
0000
,
0001
0000
0100
0000
,
0010
0000
1000
0000
,
0001
0001
0001
0000
,
0100
0000
0010
0000
,
1000
1000
1000
0000
,
0010
0000
0100
0000
,
0010
0000
1000
0000
,
0001
0000
0010
0000
,
0110
0000
0000
0000
,
2000
0000
0000
0000
,
0000
0000
3000
0000
,
0002
0000
0000
0000
,
0003
0000
0100
0000
,
0010
0000
0010
0000
,
0100
0000
0100
0000
,
0001
0000
1000
0000
,
1001
0000
0000
0000
,
0010
0000
0001
0000
,
0010
0000
0001
0000
,
1000
0000
0100
0000
,
0010
0000
0100
0000
,
1000
0000
0001
0000
,
1000
0000
0010
0000
,
0100
0000
0001
0000
,
0100
0000
0010
0000
,
1000
0000
0100
0000
,
1000
0000
0100
0000
,
0010
0000
0001
0000
,
1000
0000
0001
0000
,
1001
0000
0000
0000
,
0110
0000
0000
0000
,
1000
0000
1000
0000
,
0010
0000
0010
0000
,
0110
0000
0000
0000
,
1001
0000
0000
0000
,
0200
0000
0000
0000
,
0000
0000
0300
0000
,
1000
0000
1000
0000
,
0001
0000
0001
0000
,
0010
0000
0010
0000
,
0100
0000
0100
0000
,
1000
1000
1000
0000
,
0010
0010
0010
0000
,
0100
0000
0010
0000
,
0100
0000
0001
0000
,
0100
0100
0100
0000
,
0010
0000
1000
0000
,
0100
0100
0100
0000
,
0110
0000
0000
0000
,
2002
0000
0000
0000
,
0000
0000
0000
0000
,
0000
0000
0000
0000
,
0000
0000
0000
0000
,
0000
0000
0000
0000
,
0000
0000
0000
0000
,
0000
0000
0000
0000
,
3003
0000
0000
0000
,
0000
0000
0000
0000
;
#NOTES:
     dance-single:
     :
     Easy:
     7:
     :
0000
0000
0000
0000
,
0000
0000
0000
0000
,
0000
0000
0000
0000
,
0000
0000
0000
0000
,
0000
0000
0000
0000
,
0000
0000
0000
0000
,
2000
0000
0000
3000
,
0002
0000
0000
0003
,
0020
0000
0000
0000
,
0000
0000
0000
0030
,
0100
0100
1000
0100
,
0001
0100
1000
0000
,
0010
0010
0001
0100
,
1000
0100
0001
0000
,
1000
1000
0010
0100
,
0001
0100
0010
1000
,
0001
0000
0001
0000
1000
0000
0000
1001
,
0000
1001
0000
1001
0000
0000
0000
0000
,
0010
1000
0001
0001
,
1000
0100
0010
0010
,
0001
0100
0010
0010
,
1000
0010
0100
0100
,
0001
1000
0010
0100
,
0001
1000
0010
0100
,
0001
0000
0100
0100
0000
0010
0010
0000
,
1000
0100
0001
0100
,
1000
1000
0010
0010
,
0110
0000
1001
0000
,
0010
0001
0010
0000
,
0100
1000
0001
0100
,
0010
1000
0010
0000
,
0100
0001
1000
0100
,
0010
0010
0001
1000
,
0100
0010
0001
0100
,
0010
0010
1000
0001
,
0010
0100
1000
0001
,
0100
0010
1000
0000
,
0001
0010
0001
0010
,
0100
1000
0001
0000
,
0100
0010
0100
0010
,
1000
0001
0100
0100
,
0010
1000
0001
0001
,
0010
0100
1000
1000
,
1001
0000
0110
0000
,
2000
0000
0000
3000
,
0002
0000
0000
0003
,
0200
0000
0000
0300
,
0020
0000
0000
0030
,
0001
0000
0001
0000
,
0100
0000
0100
0000
,
0110
0000
0001
0001
0000
1000
0000
0200
,
0000
0300
0000
0000
,
0010
0001
1000
0100
,
1000
0010
0100
0010
,
0110
0000
1001
0000
,
0100
0010
0100
1000
,
0001
0100
0010
0100
,
0001
1000
0100
1000
,
0010
0000
0100
0100
0000
0001
0001
0000
,
0000
0010
0001
0010
,
0100
0100
1000
1001
,
0010
0010
0100
0100
,
0110
0000
1001
0000
,
0001
0010
0100
1000
,
0001
0000
0001
0000
,
0100
0000
0100
0000
,
0010
1000
0010
0100
,
0001
0010
0001
1000
,
1001
0000
0110
0000
,
0002
0000
0000
0003
,
0200
0000
0000
0300
,
0010
0010
0010
0000
,
0001
0100
0010
0010
,
1000
0100
0010
0010
,
0001
1000
0100
0100
,
0010
0001
0100
0100
,
0010
1000
0010
0100
,
0001
0010
0001
0100
,
1000
0000
0010
0010
0000
0100
0100
0000
,
0001
0100
1000
0100
,
0010
0100
0010
0001
,
1000
0010
1000
0100
,
0010
0001
0100
0010
,
1000
0010
0100
0000
,
2002
0000
0000
0000
,
0000
0000
0000
0000
,
0000
0000
0000
0000
,
0000
0000
0000
0000
,
0000
0000
0000
0000
,
0000
0000
0000
0000
,
0000
0000
0000
0000
,
3003
0000
0000
0000
,
0000
0000
0000
0000
;
#NOTES:
     dance-single:
     :
     Medium:
     10:
     :
0000
0000
0000
0000
,
0000
0000
0000
0000
,
0000
0000
0000
0000
,
0000
0000
0000
0000
,
0000
0000
0000
0000
,
0000
0000
0000
0000
,
2000
0000
0000
0000
,
3020
0000
0000
0000
,
0230
0000
0302
0000
,
0023
0000
0000
0000
,
0130
0000
1000
1000
,
0010
0000
0010
0000
0100
0001
0100
0000
,
0001
0001
0010
0010
,
0100
0000
0100
0000
1000
0010
1000
0000
,
0001
0000
0100
0000
0010
0100
0010
0000
,
1000
0100
1000
0000
0010
0000
0100
0000
,
0001
0000
1000
0000
0100
0010
0000
0110
,
0000
1001
0000
0110
0000
0000
0000
0000
,
0010
0000
1000
0000
0010
1000
0010
0000
,
0100
0000
0001
0000
0100
0001
0100
0000
,
0001
0000
1000
0000
0100
1000
0100
0000
,
0010
0000
0001
0000
0100
0001
0100
0000
,
0001
0010
0001
0000
1000
0000
0010
0000
,
1000
0100
1000
0000
0001
0000
0010
0000
,
0100
0000
1000
0001
0000
0100
0001
0000
,
0010
0001
0010
0000
0100
1000
0100
0000
,
0010
0000
0001
0000
1000
0010
1000
0000
,
0001
0000
0000
0000
0001
0000
0000
0000
0001
0000
0000
0000
0100
0000
0000
0000
0000
0000
0010
0000
0000
1000
0000
0000
,
0010
0000
1000
0100
1000
0000
0010
0001
,
0000
0100
0000
0100
0000
0010
0000
0010
,
0000
0000
1000
0100
1000
0000
0001
0010
,
0000
0100
0000
0100
0000
1000
0000
1000
,
0000
0010
1000
0000
0001
0100
0001
0000
,
1000
0100
1000
0000
0010
0000
0010
0000
,
0100
0001
0100
0000
0010
1000
0010
0000
,
1000
0000
0100
0000
0010
0000
0001
0010
,
0001
0000
0100
0010
0100
0000
0010
1000
,
0000
1000
0000
0100
0000
0100
0000
0110
,
0000
0000
0001
0010
0001
0000
1000
0100
,
0000
0100
0000
0010
0000
0010
0000
0110
,
0000
0010
0001
0000
1000
0010
1000
0000
,
0001
0100
0001
0000
0100
0000
0100
0000
,
0010
1000
0010
0000
0100
0010
0100
0000
,
0010
0010
0010
1000
1000
1000
,
0002
0000
0000
0000
,
0203
0000
0320
0000
,
2030
0000
3200
0000
,
0320
0031
0200
1300
,
0010
0010
0001
0001
,
1000
1000
0010
0010
,
1001
0000
0100
0100
0000
0110
0000
1001
,
0000
0000
0200
0000
0302
0000
1003
1000
,
0000
0000
0010
0000
1000
0000
0100
0020
,
0000
0130
1000
0100
,
0010
0000
0010
0000
0001
0000
0001
0200
,
0000
0000
0310
0000
1000
0000
0001
0020
,
0000
0000
0130
0000
1000
0000
0001
0200
,
0000
0310
1000
0001
,
1000
0000
0010
0010
0000
0100
0100
0000
,
0000
0000
1000
0000
1000
0000
0001
0020
,
0000
0000
0031
0000
0100
0000
0100
0002
,
0000
0000
0013
0000
0100
0000
1000
0200
,
0000
0000
0310
0000
0001
0000
0010
0002
,
0000
0103
0100
0100
,
0010
0000
0010
0000
1000
0100
1000
0000
,
0001
0000
0001
0000
0010
0000
0010
0100
,
0000
1000
0000
0001
0000
0100
0000
0010
,
0000
1000
1000
0001
,
0001
0100
1000
0000
1000
0100
0001
0000
,
0020
0000
0000
0000
0230
0000
0000
2300
,
0000
0000
0000
0000
,
3010
0000
0010
0000
0100
0000
0100
0001
,
0000
0001
1000
0000
0010
0000
0010
1000
,
0000
0001
0100
0000
0010
0000
0010
1000
,
0000
0001
1000
0000
0100
0000
0100
0010
,
0000
0001
0010
0000
0001
0000
0001
1000
,
0000
1000
0010
0010
,
0100
0100
0010
0010
,
0001
0000
0100
0001
0000
1000
0010
0000
,
0100
0001
0100
0000
0010
1000
0010
0000
,
1000
0000
0100
0010
0001
0000
1001
0000
,
0010
0010
0100
0100
,
0001
0000
0100
0010
1000
0000
1001
0000
,
0100
0000
0000
0000
0100
0000
0000
0000
0100
0000
0000
0000
0010
0000
0000
0000
0000
0000
0000
0000
0000
0220
0000
0000
,
0000
0000
0000
0000
,
0000
0000
0000
0000
,
0000
0000
0000
0000
,
0000
0000
0000
0000
,
0000
0000
0000
0000
,
0000
0000
0000
0000
,
0000
0000
0000
0000
,
0330
0000
0000
0000
,
0000
0000
0000
0000
;
#NOTES:
     dance-single:
     :
     Hard:
     13:
     :
0000
0000
0000
0000
,
0000
0000
0000
0000
,
0000
0000
0000
0000
,
0000
0000
0000
0000
,
0000
0000
0000
0000
,
0000
0000
0000
0000
,
0002
0000
0000
0000
,
2003
0000
0000
0000
,
3002
0023
0230
2300
,
3002
0000
0000
0000
,
0103
0100
0000
0000
0001
0010
0100
0000
,
1000
0010
0100
0000
0001
1000
0001
0100
,
0000
0010
0010
0000
1000
0010
0100
0000
,
0001
1000
0100
0000
0010
0010
0000
0011
,
0000
1000
0100
1000
0010
0100
0001
0100
,
0010
1000
0100
1000
0001
0100
0010
1000
,
0000
0001
0100
0001
1000
0100
0000
1010
,
0000
0101
0000
1001
0000
0100
0100
0010
,
0000
1000
0001
0000
0010
0001
0010
0100
,
0000
0010
0001
0000
1000
0100
1000
0001
,
0000
0100
0010
0000
0100
0001
0100
0010
,
0000
1000
0100
0000
1000
0010
1000
0001
,
0000
0001
1000
0000
0001
0100
0001
0000
,
1000
0010
1000
0000
0001
0010
0001
0000
,
1000
0000
0010
0100
0000
0001
0100
0000
,
0010
1000
0100
0010
0001
0100
0010
0000
,
0100
0000
0001
0000
0010
0100
0010
0000
,
0001
0000
0000
0000
0100
0000
0000
0000
1000
0000
0000
0000
0100
0000
0000
0000
0000
0000
0001
0000
0000
0010
0000
0000
,
0000
0100
1000
0100
0010
0001
1000
0010
,
0000
1010
0000
0100
0000
0101
0000
0010
,
0000
1000
0001
0100
0001
0000
1000
0010
,
0000
0101
0000
0100
0000
1001
1000
0100
,
0000
0010
0001
0010
0100
1000
0001
1000
,
0100
0010
0001
1000
0100
0010
0100
0010
,
0000
0100
1000
0100
0010
0001
1000
0010
,
1000
0001
0100
0010
1000
0001
0100
0010
,
0000
1000
0001
0100
0001
0000
1000
0010
,
0000
0100
0000
0101
0000
0010
0000
1010
,
0000
1000
0100
0010
0100
0000
1000
0001
,
0000
0010
0000
1010
0000
0100
0001
1000
,
0000
0010
1000
0010
0100
0001
0100
0010
,
1000
0001
0010
0100
1000
0001
0100
0001
,
0000
1000
0001
1000
0100
0010
0001
0100
,
0010
1000
0001
0010
1000
0010
,
0002
0000
0000
1003
,
2000
0000
3020
0000
,
0230
0301
0002
1003
,
0120
0001
0100
1030
,
0001
0100
0001
0000
0100
1000
0100
0000
,
1000
0010
1000
0000
0010
0001
0010
0000
,
1001
0000
0101
0101
0000
0110
0000
1010
,
0000
1001
1002
0000
0203
0000
0310
1010
,
0000
0000
1000
0000
0001
0010
0100
2000
,
0000
0001
3001
0000
0100
0010
1000
0001
,
1000
0100
0001
0000
1000
0010
0001
0200
,
0000
0000
0310
0000
1010
0000
1001
0002
,
0000
0100
0103
0000
0010
1000
0010
0200
,
0000
0001
0301
0000
1000
0100
1000
0001
,
0010
0000
0001
0011
0000
1000
1001
0000
,
0010
0100
0001
0000
1001
0000
0100
0020
,
0000
0000
0031
0000
1000
0100
0010
0002
,
0000
0100
0103
0000
0010
1000
0100
2000
,
0000
0000
3001
0000
0011
0000
0100
1000
,
0000
0000
0010
0100
0010
0100
0001
0000
,
1000
0100
1000
0000
0001
0010
0100
0010
,
0001
1000
0010
0000
0100
0001
1000
0001
,
0000
0100
0010
1000
0000
0100
0010
0001
,
0000
1000
0100
1000
0100
0010
0001
0000
,
0100
0100
0010
1000
0001
0001
0010
0100
,
2000
0000
0000
0000
3002
0000
0000
0203
,
0000
0000
0000
0000
,
0301
0000
0001
0000
1000
0010
1000
0010
,
0000
1000
0001
0000
0100
0010
0100
0001
,
0000
0010
0100
0000
1000
0001
0010
0001
,
0000
0100
0001
0000
1000
0010
1000
0100
,
0000
0010
0001
0000
1000
0100
1000
0010
,
0000
0010
0100
0000
0001
0010
0001
0000
,
0010
1000
0010
0000
1000
0100
1000
0000
,
0001
0000
0011
0010
0000
1100
0100
0000
,
1000
0001
0100
0010
1000
0001
0100
0000
,
0010
1000
0100
1000
0010
0000
1010
0000
,
0001
0100
1000
0000
0001
0010
1000
0000
,
0001
0100
0010
0100
0001
0000
0101
0000
,
1000
0000
0000
0000
0010
0000
0000
0000
0100
0000
0000
0000
0001
0000
0000
0000
0000
0000
1000
0000
0000
2002
0000
0000
,
0000
0000
0000
0000
,
0000
0000
0000
0000
,
0000
0000
0000
0000
,
0000
0000
0000
0000
,
0000
0000
0000
0000
,
0000
0000
0000
0000
,
0000
0000
0000
0000
,
3003
0000
0000
0000
,
0000
0000
0000
0000
;
#NOTES:
     dance-double:
     :
     Easy:
     7:
     :
00000000
00000000
00000000
00000000
,
00000000
00000000
00000000
00000000
,
00000000
00000000
00000000
00000000
,
00000000
00000000
00000000
00000000
,
00000000
00000000
00000000
00000000
,
00000000
00000000
00000000
00000000
,
00000020
00000000
00000000
00000030
,
00000002
00000000
00000000
00000003
,
00000200
00000000
00000000
00000000
,
00000000
00000000
00000000
00000300
,
00001000
00001000
00010000
01000000
,
10000000
01000000
00010000
00000000
,
00001000
00001000
00000100
00000001
,
00000100
00001000
00010000
00000000
,
00001000
00010000
00001000
01000000
,
00010000
10000000
00100000
01000000
,
00010000
00000000
00100000
00000000
01000000
00000000
00000000
00011000
,
00000000
00011000
00000000
00011000
00000000
00000000
00000000
00000000
,
00000100
00001000
00000001
00000001
,
00000010
00001000
00010000
00010000
,
00100000
10000000
01000000
01000000
,
00100000
00010000
00100000
00100000
,
00001000
00010000
00000100
00001000
,
00000001
00000100
00000010
00001000
,
00000100
00000000
00010000
00010000
00000000
00001000
00001000
00000000
,
00010000
01000000
10000000
00100000
,
10000000
10000000
00010000
00010000
,
10010000
00000000
00011000
00000000
,
00000010
00001000
00000010
00000000
,
00001000
00000001
00000010
00000100
,
00001000
00000100
00010000
00000000
,
00001000
01000000
00010000
10000000
,
00100000
00100000
10000000
01000000
,
00010000
00001000
00000100
00000001
,
00000010
00000010
00000001
00000100
,
00000001
00000010
00001000
00010000
,
00100000
10000000
01000000
00000000
,
00100000
00010000
00100000
01000000
,
10000000
00010000
00100000
00000000
,
00001000
00010000
00001000
00010000
,
00000010
00001000
00000001
00000001
,
00000100
00000010
00001000
00001000
,
00000100
00010000
00001000
00100000
,
01100000
00000000
10010000
00000000
,
02000000
00000000
00000000
03000000
,
00002000
00000000
00000000
00003000
,
00020000
00000000
00000000
00030000
,
00000020
00000000
00001030
00000000
,
00000001
00000000
00000001
00000000
,
00000100
00000000
00001000
00000000
,
00011000
00000000
00010000
00010000
00000000
00001000
00000000
02000000
,
00000000
03000000
00000000
00000000
,
00010000
10000000
00100000
01000000
,
00010000
00100000
00001000
00010000
,
00011000
00000000
00001001
00000000
,
00000010
00000100
00000010
00001000
,
00000001
00000100
00001000
00010000
,
01000000
10000000
00010000
10000000
,
00100000
00000000
01000000
01000000
00000000
00001000
00001000
00000000
,
00000000
00010000
00001000
00010000
,
00000010
00000010
00001000
00000001
,
00000100
00000100
00001000
00001000
,
00011000
00000000
10010000
00000000
,
10000000
00010000
01000000
00100000
,
00010000
00000000
00001000
00000000
,
00000010
00000000
00000001
00000000
,
00001000
00000100
00001000
00000001
,
00000100
00001000
00010000
00001000
,
00011000
00000000
01100000
00000000
,
20000000
00000000
00000000
30000000
,
00020000
00000000
00000000
00030000
,
01000000
01000000
00001000
00001000
,
00010000
00000100
00001000
00001000
,
00000001
00000010
00000100
00000100
,
00001000
00000100
00010000
00010000
,
00001000
01000000
00010000
00010000
,
10000000
00100000
10000000
01000000
,
00010000
00001000
00010000
00001000
,
00000100
00000000
00000001
00000001
00000000
00001000
00001000
00000000
,
00000010
00001000
00000001
00000100
,
00000001
00000100
00001000
00010000
,
01000000
00010000
01000000
10000000
,
00100000
00010000
00001000
00000010
,
00000001
00001000
00000001
00000000
,
00002002
00000000
00000000
00000000
,
00000000
00000000
00000000
00000000
,
00000000
00000000
00000000
00000000
,
00000000
00000000
00000000
00000000
,
00000000
00000000
00000000
00000000
,
00000000
00000000
00000000
00000000
,
00000000
00000000
00000000
00000000
,
00003003
00000000
00000000
00000000
,
00000000
00000000
00000000
00000000
;
#NOTES:
     dance-double:
     :
     Medium:
     10:
     :
00000000
00000000
00000000
00000000
,
00000000
00000000
00000000
00000000
,
00000000
00000000
00000000
00000000
,
00000000
00000000
00000000
00000000
,
00000000
00000000
00000000
00000000
,
00000000
00000000
00000000
00000000
,
00000002
00000000
00000000
00000000
,
00000203
00000000
00000000
00000000
,
00002300
00000000
00023000
00000000
,
00032000
00000000
00000000
00000000
,
00013000
00000000
00010000
00010000
,
00001000
00000000
00001000
00000000
00100000
00010000
00100000
00000000
,
01000000
01000000
10000000
10000000
,
00010000
00010000
01000000
00001000
,
00010000
00000000
00000100
00000000
00001000
00000010
00001000
00000000
,
00000001
00000100
00000001
00000000
00001000
00000000
00000010
00000000
,
00001000
00000000
00000100
00000000
00010000
00001000
00000000
00110000
,
00000000
01100000
00000000
11000000
00000000
00000000
00000000
00000000
,
00010000
00000000
10000000
00000000
01000000
00100000
01000000
00000000
,
10000000
00000000
00100000
00000000
01000000
00010000
01000000
00000000
,
00001000
00000000
00010000
00000000
00000010
00001000
00000010
00000000
,
00000100
00000000
00000001
00000000
00001000
00000100
00001000
00000000
,
00000001
00000100
00000001
00000000
00000010
00000000
00001000
00000000
,
00100000
00010000
00100000
00000000
10000000
00000000
01000000
00000000
,
00010000
00000000
00001000
00000100
00000000
00000001
00000010
00000000
,
00000001
00000100
00000001
00000000
00001000
00000010
00001000
00000000
,
00000001
00000000
00000100
00000000
00001000
00010000
01000000
00000000
,
10000000
00000000
00000000
00000000
10000000
00000000
00000000
00000000
10000000
00000000
00000000
00000000
00010000
00000000
00000000
00000000
00000000
00000000
01000000
00000000
00000000
00100000
00000000
00000000
,
01000000
00000000
00010000
00100000
00010000
00000000
01000000
00001000
,
00000000
00010000
00000000
00010000
00000000
00000010
00000000
00000010
,
00000000
00000000
00001000
00000100
00001000
00000000
00000001
00000100
,
00000000
00000010
00000000
00000010
00000000
00001000
00000000
00001000
,
00000000
00000100
00010000
00000000
00001000
00010000
00001000
00000000
,
00100000
00010000
00100000
00000000
01000000
00000000
01000000
00000000
,
10000000
00100000
10000000
00000000
00010000
01000000
00010000
00000000
,
10000000
00000000
00100000
00000000
00010000
00000000
00001000
00010000
,
00001000
00000000
00000010
00000001
00000010
00000000
00000100
00001000
,
00000000
00000001
00000000
00001000
00000000
00000100
00000000
00011000
,
00000000
00000000
01000000
00010000
01000000
00000000
00100000
10000000
,
00000000
01000000
00000000
00010000
00000000
00001000
00000000
00011000
,
00000000
00010000
00000100
00000000
00001000
00000010
00001000
00000000
,
00000001
00000100
00000001
00000000
00000010
00000000
00000010
00000000
,
00000001
00000100
00001000
00000000
00010000
01000000
10000000
00000000
,
00100000
00100000
00100000
01000000
01000000
01000000
,
00002000
00000000
00000000
00000000
,
00023000
00000000
00030200
00000000
,
00002300
00000000
00003002
00000000
,
00000023
00000130
00002000
00003010
,
00000100
00000001
00001000
00000100
,
00010000
00001000
01000000
00010000
,
10010000
00000000
01000000
01000000
00000000
11000000
00000000
10010000
,
00000000
00000000
00200000
00000000
00320000
00000000
01030000
01000000
,
00000000
00000000
00001000
00000000
00010000
00000000
00000010
00002000
,
00000000
00003100
00000100
00000010
,
00000001
00000000
00000010
00000000
00001000
00000000
00010000
00200000
,
00000000
00000000
10300000
00000000
01000000
00000000
00100000
00020000
,
00000000
00000000
10030000
00000000
00100000
00000000
01000000
00002000
,
00000000
00013000
00000100
00001000
,
00000010
00000000
00000100
00000100
00000000
00000001
00000001
00000000
,
00000000
00000000
00001000
00000000
00000100
00000000
00010000
00002000
,
00000000
00000000
01003000
00000000
00010000
00000000
10000000
02000000
,
00000000
00000000
03100000
00000000
00010000
00000000
10000000
00200000
,
00000000
00000000
00310000
00000000
00001000
00000000
00000010
00000002
,
00000000
00001003
00001000
00000001
,
00000100
00000000
00000010
00000000
00001000
00000100
00001000
00000000
,
00000100
00000000
00010000
00000000
00001000
00000000
00100000
00010000
,
00000000
01000000
00000000
00100000
00000000
10000000
00000000
01000000
,
00000000
00010000
10000000
00100000
,
10000000
01000000
00010000
00000000
00001000
00000100
00000001
00000000
,
00002000
00000000
00000000
00000000
00003020
00000000
00000000
00020030
,
00000000
00000000
00000000
00000000
,
00031000
00000000
00001000
00000000
00100000
00000000
00100000
01000000
,
00000000
01000000
10000000
00000000
00010000
00000000
00010000
01000000
,
00000000
00001000
00010000
00000000
00000010
00000000
00000010
00001000
,
00000000
00000100
00000010
00000000
00000001
00000000
00000001
00000100
,
00000000
00001000
00010000
00000000
01000000
00000000
01000000
10000000
,
00000000
10000000
00010000
00010000
,
01000000
01000000
00001000
00010000
,
00000100
00000000
00001000
00000010
00000000
00000100
00000010
00000000
,
00001000
00000100
00001000
00000000
00000001
00000010
00000001
00000000
,
00001000
00000000
00000001
00000100
00001000
00000000
00010000
00000000
,
01000000
01000000
10000000
10000000
,
00010000
00000000
10000000
01000000
00010000
00000000
00001000
00000000
,
00000100
00000000
00000000
00000000
00000001
00000000
00000000
00000000
00000100
00000000
00000000
00000000
00001000
00000000
00000000
00000000
00000000
00000000
00000000
00000000
00000000
00022000
00000000
00000000
,
00000000
00000000
00000000
00000000
,
00000000
00000000
00000000
00000000
,
00000000
00000000
00000000
00000000
,
00000000
00000000
00000000
00000000
,
00000000
00000000
00000000
00000000
,
00000000
00000000
00000000
00000000
,
00000000
00000000
00000000
00000000
,
00033000
00000000
00000000
00000000
,
00000000
00000000
00000000
00000000
;
#NOTES:
     dance-double:
     :
     Hard:
     13:
     :
00000000
00000000
00000000
00000000
,
00000000
00000000
00000000
00000000
,
00000000
00000000
00000000
00000000
,
00000000
00000000
00000000
00000000
,
00000000
00000000
00000000
00000000
,
00000000
00000000
00000000
00000000
,
20000000
00000000
00000000
00000000
,
32000000
00000000
00000000
00000000
,
03020000
00032000
00003200
00000302
,
00002003
00000000
00000000
00000000
,
00003010
00000010
00000000
00000000
00000100
00000001
00000100
00000000
,
00000010
00001000
00000100
00000000
00010000
00001000
00100000
00010000
,
00000000
01000000
01000000
00000000
00100000
10000000
01000000
00000000
,
10000000
00010000
01000000
00000000
00001000
00001000
00000000
00011000
,
00000000
00000100
00001000
00000100
00000010
00000001
00000100
00000010
,
00001000
00000001
00000010
00001000
00010000
00100000
10000000
01000000
,
00000000
00100000
00010000
00100000
01000000
10000000
00000000
01010000
,
00000000
00011000
00000000
00001100
00000000
00000010
00000010
00001000
,
00000000
00000001
00000100
00000000
00000010
00001000
00000100
00010000
,
00000000
00001000
00100000
00000000
00010000
01000000
00100000
10000000
,
00000000
00010000
00100000
00000000
00001000
00010000
00000010
00001000
,
00000000
00000001
00000010
00000000
00000100
00001000
00000001
00000100
,
00000000
00000100
00000010
00000000
00010000
00001000
00010000
00000000
,
00001000
00100000
00010000
00000000
01000000
00010000
01000000
00000000
,
00100000
00000000
10000000
01000000
00000000
00010000
01000000
00000000
,
00100000
10000000
01000000
00010000
00001000
00000100
00000001
00000000
,
00001000
00000000
00000010
00000000
00001000
00000100
00001000
00000000
,
00000001
00000000
00000000
00000000
00000010
00000000
00000000
00000000
00001000
00000000
00000000
00000000
00010000
00000000
00000000
00000000
00000000
00000000
00100000
00000000
00000000
10000000
00000000
00000000
,
00000000
00010000
01000000
00010000
10000000
01000000
00010000
00001000
,
00000000
00011000
00000000
00000100
00000000
00001100
00000000
00000010
,
00000000
00000001
00001000
00000010
00001000
00000000
00000100
00010000
,
00000000
00011000
00000000
00100000
00000000
00010000
10000000
01000000
,
00000000
10000000
00100000
10000000
00010000
01000000
00001000
00010000
,
00000100
00001000
00000010
00000100
00000001
00001000
00000100
00001000
,
00000000
00000001
00000010
00000001
00001000
00000010
00010000
00001000
,
00100000
00010000
01000000
00100000
10000000
00010000
01000000
00100000
,
00000000
10000000
01000000
00010000
00001000
00000000
00000100
00000001
,
00000000
00001000
00000000
00000101
00000000
00000010
00000000
00001010
,
00000000
00001000
00000001
00000100
00001000
00000000
00010000
01000000
,
00000000
10000000
00000000
11000000
00000000
00100000
01000000
00010000
,
00000000
10000000
00010000
01000000
00100000
10000000
00100000
00010000
,
00001000
00000010
00000001
00001000
00000010
00000100
00000001
00000100
,
00000000
00000001
00001000
00000010
00001000
00000001
00000100
00001000
,
00010000
00001000
00000100
00001000
00010000
01000000
,
20000000
00000000
00000000
30020000
,
00230000
00000000
02300000
00000000
,
03010000
00001000
00000100
00000001
,
00001000
00000001
00000100
00000010
,
00001000
00000100
00001000
00000000
00000100
00010000
00000100
00000000
,
00010000
00001000
00010000
00000000
00001000
01000000
00001000
00000000
,
01010000
00000000
10100000
10100000
00000000
10010000
00000000
01100000
,
00000000
10100000
10200000
00000000
02300000
00000000
03010000
00010000
,
00000000
00000000
00100000
00000000
01000000
10000000
01000000
00200000
,
00000000
00010000
00310000
00000000
01000000
00001000
00010000
00000100
,
00001000
00000001
00000010
00000000
00000100
00001000
00000001
00000200
,
00000000
00000000
00001300
00000000
00011000
00000000
00110000
00200000
,
00000000
01000000
01300000
00000000
10000000
00100000
10000000
00020000
,
00000000
01000000
01030000
00000000
00001000
00010000
00000010
00001000
,
00000100
00000000
00000010
00000011
00000000
00000001
00001001
00000000
,
00001000
00000100
00010000
00000000
00011000
00000000
00100000
00020000
,
00000000
00000000
01030000
00000000
00100000
10000000
00100000
02000000
,
00000000
00010000
03010000
00000000
10000000
00100000
00010000
00002000
,
00000000
00000000
00003010
00000000
00000011
00000000
00000001
00000100
,
00000000
00000000
00000010
00001000
00000010
00001000
00000100
00000000
,
00010000
00001000
00010000
00000000
00001000
00100000
00010000
00100000
,
00001000
01000000
00010000
00000000
01000000
00100000
10000000
00100000
,
00000000
10000000
01000000
00010000
00000000
00001000
00000100
00000001
,
00000000
00001000
00000100
00010000
00001000
00100000
00010000
00000000
,
01000000
01000000
00001000
00010000
00000100
00000100
00001000
00000010
,
00000200
00000000
00000000
00000000
00000302
00000000
00000000
00002003
,
00000000
00000000
00000000
00000000
,
00003010
00000000
00000010
00000000
00000100
00000001
00000100
00000001
,
00000000
00001000
00000100
00000000
00000010
00000001
00000100
00001000
,
00000000
00010000
01000000
00000000
10000000
00100000
10000000
01000000
,
00000000
00100000
00010000
00000000
10000000
00100000
00010000
00001000
,
00000000
00000010
00000001
00000000
00000100
00000010
00000100
00000001
,
00000000
00000001
00001000
00000000
00000100
00010000
00000100
00000000
,
00010000
00001000
00010000
00000000
00001000
00100000
00001000
00000000
,
00100000
00000000
00010000
01010000
00000000
10000000
11000000
00000000
,
00100000
10000000
00010000
01000000
00001000
00010000
00000010
00000000
,
00001000
00000100
00000001
00000100
00001000
00000000
00011000
00000000
,
00100000
10000000
01000000
00000000
00100000
00010000
01000000
00000000
,
00001000
00010000
00100000
00010000
00001000
00000000
00011000
00000000
,
00010000
00000000
00000000
00000000
00001000
00000000
00000000
00000000
00000100
00000000
00000000
00000000
00000001
00000000
00000000
00000000
00000000
00000000
00001000
00000000
00000000
00002002
00000000
00000000
,
00000000
00000000
00000000
00000000
,
00000000
00000000
00000000
00000000
,
00000000
00000000
00000000
00000000
,
00000000
00000000
00000000
00000000
,
00000000
00000000
00000000
00000000
,
00000000
00000000
00000000
00000000
,
00000000
00000000
00000000
00000000
,
00003003
00000000
00000000
00000000
,
00000000
00000000
00000000
00000000
;
