
//----- song ID: onyx -----//
#TITLE:ONYX;
#ARTIST:SOUND HOLIC Vs. ZYTOKINE feat. Nana Takahashi;
#BANNER:ONYX.png;
#BACKGROUND:ONYX-bg.png;
#CDTITLE:./CDTitles/bm IIDX ULTIMATE MOBILE.png;
#MUSIC:ONYX.ogg;
#SAMPLESTART:47.055;
#SAMPLELENGTH:15;
#BPMS:0=200;
#NOTES:
     dance-single:
     :
     Beginner:
     4:
     :
0000
0000
0000
0000
,
0000
0000
0000
0000
,
0000
0000
0000
0000
,
0000
0000
0000
0000
,
0000
0000
0000
0000
,
0000
0000
0000
0000
,
0001
0000
0010
0000
,
0100
0000
0010
0000
,
0001
0000
0100
0000
,
0010
0000
0000
0000
,
1000
0000
0100
0000
,
0010
0000
0100
0000
,
1000
0000
0010
0000
,
0100
0000
0000
0000
,
0001
0000
0100
0000
,
0010
0000
0100
0000
,
1000
0000
0100
0000
,
1000
0000
0000
0000
,
1000
0000
0100
0000
,
0010
0000
0100
0000
,
0001
0000
0100
0000
,
0001
0000
0000
0000
,
0010
0000
0001
0000
,
0100
0000
0001
0000
,
0010
0000
0100
0000
,
1000
0000
0000
0000
,
0010
0000
1000
0000
,
0100
0000
1000
0000
,
0010
0000
0100
0000
,
0001
0000
0000
0000
,
0020
0000
0000
0000
,
0030
0000
0000
0000
,
0001
0001
0001
0000
,
0100
0100
0100
0000
,
0020
0000
0000
0000
,
0030
0000
0000
0000
,
1000
1000
1000
0000
,
0100
0100
0100
0000
,
1001
0000
0000
0000
,
0010
0000
0001
0000
,
0100
0001
0100
0000
,
0010
0000
1000
0000
,
0100
0000
0100
0000
,
0010
0000
1000
0000
,
0100
1000
0100
0000
,
0010
0000
0001
0000
,
0100
0000
0100
0000
,
1001
0000
0000
0000
,
0010
0010
0010
0000
,
1001
0000
0000
0000
,
0100
0100
0100
0000
,
0001
0000
0100
0000
,
1000
0000
0010
0000
,
0001
0000
0010
0000
,
1000
0000
0100
0000
,
0002
0000
0000
0000
,
0003
0000
0000
0000
,
2000
0000
0000
0000
,
3000
0000
0000
0000
,
1000
0000
0001
0000
,
1000
0000
1000
0000
,
0010
0000
1000
0000
,
0100
0000
0000
0000
,
0001
0000
1000
0000
,
0001
0000
0001
0000
,
0010
0000
0001
0000
,
0100
0000
0000
0000
,
0020
0000
0000
0000
,
0030
0000
0000
0000
,
2000
0000
0000
0000
,
3000
0000
0000
0000
,
0002
0000
0000
0000
,
0003
0000
0000
0000
,
0200
0000
0000
0000
,
0300
0000
0000
0000
,
0001
0000
0100
0000
,
0010
1000
0010
0000
,
1000
0000
0100
0000
,
0001
0000
0100
0000
,
1000
0000
0010
0000
,
0100
0001
0100
0000
,
0001
0000
0010
0000
,
1000
0000
0010
0000
,
0001
0000
1000
0000
,
0001
0001
0001
0000
,
0100
0000
0010
0000
,
0100
0100
0100
0000
,
1000
0000
0001
0000
,
1000
1000
1000
0000
,
0100
0000
0010
0000
,
0001
1000
0001
0000
,
1001
0000
0000
0000
,
1001
0000
0000
0000
,
0100
0000
0010
0000
,
1000
0100
1000
0000
,
1001
0000
0000
0000
,
1001
0000
0000
0000
,
0100
0000
0010
0000
,
0001
0100
0001
0000
,
1001
0000
0000
0000
,
0110
0000
0000
0000
,
2002
0000
0000
0000
,
0000
0000
3003
0000
,
0000
0000
0000
0000
;
#NOTES:
     dance-single:
     :
     Easy:
     8:
     :
0000
0000
0000
0000
,
0000
0000
0000
0000
,
0000
0000
0000
0000
,
0000
0000
0000
0000
,
0000
0000
0000
0000
,
0000
0000
0000
0000
,
1000
0100
1000
0100
,
0010
0001
0010
0000
,
0001
0100
0001
0100
,
0010
1000
0010
0000
,
1000
0001
1000
0001
,
0100
0010
0100
0000
,
0010
0100
0010
0100
,
0001
1000
0001
0000
,
1000
0100
1000
0000
,
1000
0010
1000
0000
,
0100
0010
0001
0100
,
0010
1000
0001
0000
,
0001
0100
0001
0000
,
0001
0010
0001
0000
,
0100
0010
1000
0100
,
0010
0001
1000
0000
,
1000
0001
1000
0010
,
1000
0100
1000
0000
,
0010
0001
0010
1000
,
0001
1000
0010
0000
,
0001
1000
0001
0010
,
0001
0100
0001
0000
,
0010
1000
0010
0001
,
1000
0001
0010
0000
,
0200
0000
1300
0000
,
0002
0000
0013
0000
,
0001
1000
0010
0100
,
0001
1000
0010
0100
,
0020
0000
1030
0000
,
0002
0000
0103
0000
,
0010
0000
0000
0100
0000
0000
0010
0000
,
0000
0000
1000
0000
0001
1000
0000
2002
,
0000
0000
0000
3003
,
1000
0010
0100
0001
,
1000
0000
0010
0000
0100
0001
0100
0000
,
0010
1000
0100
0001
,
0100
1000
0001
0000
,
0001
0100
0010
1000
,
0001
0000
0100
0000
0010
1000
0010
0000
,
1000
0001
0010
1000
,
0010
0001
1000
0000
,
1010
0000
1100
0000
,
0010
0001
0100
0000
,
0011
0000
0101
0000
,
0010
1000
0100
0000
,
1000
0100
0001
0000
,
0001
0100
1000
0000
,
0001
0010
1000
0010
,
0001
0000
1000
0000
,
2002
0000
0000
3003
,
0100
0100
0100
0000
,
2002
0000
0000
3003
,
0010
0010
0010
0000
,
1000
0001
1000
0001
,
1000
1000
0001
0001
,
0100
0010
0100
0010
,
0100
0100
0010
0010
,
1000
0010
0100
0001
,
1000
1000
0010
0010
,
0100
0001
0010
0100
,
1000
0100
0010
0000
,
0002
0000
0003
0000
,
0001
0010
0001
0000
,
0020
0000
0030
0000
,
0010
1000
0010
0000
,
2000
0000
3000
0000
,
1000
0100
1000
0000
,
0200
0000
0300
0000
,
0110
0000
0000
0000
,
0001
0100
0010
1000
,
0100
0010
0001
0000
,
1000
0100
0010
0001
,
0100
0010
1000
0000
,
0001
0100
1000
0000
,
1000
0100
0001
0000
,
1000
0100
0001
0100
,
1000
0001
1000
0000
,
0010
0010
0100
0100
,
0010
0100
0110
0000
,
1000
1000
0001
0001
,
1000
0001
1001
0000
,
0001
0100
0010
0100
,
0001
1000
0010
0100
,
0001
0010
0001
0010
,
0100
1000
0100
0000
,
1000
0100
0010
0001
,
0100
0010
1000
0000
,
0001
0100
0010
1000
,
0100
0010
0001
0000
,
1000
0100
0001
0100
,
1000
0001
0010
0000
,
0001
0100
1000
0100
,
0001
0010
0100
0000
,
1000
0010
0100
0001
,
0010
0000
0000
0100
0000
0010
0000
0200
,
0000
0000
0000
0000
,
0000
0000
0300
0000
,
0000
0000
0000
0000
;
#NOTES:
     dance-single:
     :
     Medium:
     11:
     :
0000
0000
0000
0000
,
0000
0000
0000
0000
,
0000
0000
0000
0000
,
0000
0000
0000
0000
,
0000
0000
0000
0000
,
0000
0000
0000
0000
,
0010
0100
0010
0100
,
0001
0000
1000
0000
0001
1000
0001
0000
,
0010
0100
0010
0100
,
1000
0000
0001
0000
1000
0001
1000
0000
,
0001
0100
0001
0100
,
0010
0000
1000
0000
0010
1000
0010
0000
,
1000
0100
1000
0100
,
0010
0000
0001
0000
0010
0001
0010
0000
,
0001
0100
0001
0100
,
1000
0000
0100
0000
0001
1000
0001
1000
,
0000
0100
1000
0100
0000
0000
1000
0100
,
0000
0001
0000
0100
1000
0001
1000
0000
,
0010
0001
0010
0001
,
1000
0000
0100
0000
1000
0100
1000
0010
,
0000
1000
0010
1000
,
0001
0100
0001
0000
0100
0001
0100
0000
,
0010
1000
0001
0100
,
0001
0000
0010
0000
0100
1000
0100
0010
,
0000
0001
0000
0101
0000
1000
0000
1100
,
0000
0010
0000
0100
0001
0100
0001
0000
,
0010
0100
0010
0001
,
1000
0000
0010
0000
0100
0001
0100
0001
,
0000
0001
1000
0001
,
0010
0100
1000
0000
0010
0100
0001
0000
,
2000
0010
3010
0000
,
0002
0000
0100
0000
0103
0000
0100
0010
,
0000
0010
2000
0000
3200
0000
0302
0000
,
0203
0000
1300
0001
0000
1001
0000
0000
,
2000
0100
3100
0000
,
0002
0000
0010
0000
0013
0000
0010
0100
,
0000
0100
2000
0000
3020
0000
0032
0000
,
0023
0000
1030
0001
0000
1000
0000
1001
,
0000
0100
0010
0000
0000
0000
0000
0000
,
1000
0000
0100
0000
0010
0001
0000
1000
,
0100
0000
0010
0001
0000
0100
0000
1010
,
0000
0000
0010
0000
0100
0001
0000
1000
,
0010
0000
0100
0001
0000
0110
0000
1001
,
0000
0000
0100
0000
0010
1000
0000
0001
,
0100
0000
0010
1000
0000
0100
0000
0011
,
0000
0010
0100
0000
1000
0001
0010
0000
,
0100
1000
0100
0000
1000
0100
0010
0001
,
0000
0000
0010
0000
0100
1000
0000
0100
,
0010
0000
0100
0000
1000
0100
0010
0001
,
0100
0000
0010
0000
0100
0001
0000
0100
,
0010
0000
0100
0001
0000
1000
0000
1001
,
0000
0010
0100
0020
0000
0000
0030
0010
,
0100
0010
0000
1000
0000
0100
0000
0020
,
0000
1000
0100
0031
,
0100
0001
0010
0000
0001
0100
0010
1000
,
0001
0010
0000
0001
0000
0000
1000
0010
,
0000
1000
0000
0000
1001
0000
0000
0000
,
0001
0100
0000
0001
0000
0000
1000
0100
,
0000
1000
0000
0000
1001
0000
0000
0000
,
0010
0000
1000
0000
0010
1000
0010
0000
,
0100
0001
0100
0100
,
0010
0000
0001
0000
0010
0001
0010
0000
,
0100
1000
0100
0100
,
0001
0000
0010
0000
0100
1000
0100
0000
,
1000
0010
0100
0100
,
1000
0000
0010
0000
0100
0001
0100
0000
,
0001
0010
0100
0100
,
0002
0010
1003
0000
,
0002
0100
1003
0000
,
2000
0010
3001
0000
,
2000
0100
3001
0000
,
0010
1000
0010
1000
,
0001
0100
0001
0100
,
2002
0000
0000
0000
0000
0000
3003
1001
,
0000
0000
0000
0000
0010
0100
0000
0010
,
1000
0000
0100
0000
0010
0001
0100
0000
,
0001
0000
0010
0000
0100
1000
0010
0000
,
0100
0000
0001
0000
1000
0010
0100
0000
,
0001
0000
0010
0100
0000
1000
0000
0001
,
0000
0100
0010
1000
0000
0000
0000
1000
,
0001
0010
0000
0100
0000
1000
0000
2001
,
0000
0000
0020
3030
,
0100
0010
0100
0000
0001
1000
0001
0000
,
0010
0010
0100
0100
,
1000
1000
1001
0000
,
0010
0010
0100
0100
,
0001
0001
1001
0000
,
1000
1000
0010
0010
,
0001
0001
0010
0010
,
1000
0100
1000
0000
0100
0000
0001
0000
,
0100
1000
0100
0000
2000
0000
0000
0000
,
3000
0010
0100
1001
,
0000
0010
0100
1001
,
0000
0000
0001
0000
0100
0000
1000
0010
,
0000
1000
0100
0000
0010
0100
0010
0000
,
0000
1000
0001
0110
,
0000
1000
0001
0110
,
0000
0000
1000
0000
0100
0000
0001
0010
,
0000
0001
0100
0000
0010
0100
0010
2000
,
0000
3100
0002
0103
,
0010
0100
0000
0010
0000
0010
0000
2002
,
0000
0000
0000
0000
,
0000
0000
3003
0000
,
0000
0000
0000
0000
;
#NOTES:
     dance-single:
     :
     Hard:
     14:
     :
0000
0000
0000
0000
,
0000
0000
0000
0000
,
0000
0000
0000
0000
,
0000
0000
0000
0000
,
0000
0000
0000
0000
,
0000
0000
0000
0000
,
0100
0000
1000
0000
0010
0100
0010
0000
,
1000
0001
0010
0001
0100
0010
1000
0000
,
0100
0000
0001
0000
0010
0100
0010
0000
,
0001
1000
0010
1000
0100
0010
0001
0000
,
0100
0000
1000
0000
0001
0100
0001
0000
,
1000
0100
0010
0001
0010
0100
1000
0000
,
0100
0000
0001
0000
1000
0100
1000
0000
,
0001
0100
0010
1000
0010
0100
0001
0000
,
0020
0130
0200
1300
,
0001
1000
0001
1000
0010
0100
0010
1000
,
0000
1000
0001
1000
0000
0000
0100
0010
,
0000
0011
0000
1001
0000
0000
0100
0020
,
0000
0001
0100
1030
,
0100
0010
0001
0000
0100
0001
0010
0001
,
0000
0001
2000
0000
3020
0000
0130
0010
,
1000
0100
0001
0100
1000
0001
0010
0000
,
0001
1000
0001
1000
0100
1000
0100
0010
,
0000
0010
0001
0010
0001
0100
0001
0100
,
0000
0100
0010
0100
0010
1000
0010
1000
,
0000
1000
0001
0100
0010
1000
0001
0000
,
1000
0100
1000
0100
0010
0001
0010
0001
,
0000
0001
1000
0001
0100
0010
0100
0010
,
0000
0010
1000
0010
0100
0001
0100
0001
,
0010
0100
1000
0100
0010
0001
0100
1000
,
0100
0000
0100
0000
0010
1000
0000
0001
,
0010
0000
0010
0000
0001
0100
0000
0011
,
0000
0001
0100
1000
0100
0001
1000
0010
,
0001
0010
0001
0010
1000
0001
0100
0001
,
0010
0000
0010
0000
0100
1000
0000
0001
,
0100
0000
0100
0000
0001
0010
0000
0001
,
0010
0001
0010
1000
0010
0001
1000
0100
,
0001
0100
1000
0001
0010
0100
1000
0001
,
0000
0001
1000
0000
0000
0000
0000
0000
,
0001
0010
0001
1000
0100
0010
0001
0100
,
0010
1000
0001
0100
0001
1000
0100
0010
,
0001
1000
0100
1000
0010
1000
0100
0001
,
0100
1000
0010
0100
0000
0110
0000
1001
,
0000
0100
0001
0010
0001
1000
0100
0010
,
0001
0100
0010
1000
0001
0100
0010
1000
,
0100
1000
0001
0100
1000
0100
0001
1000
,
0000
0010
0100
0010
0000
0110
0000
1001
,
0000
0010
1000
0001
0100
0010
1000
0100
,
0010
0001
1000
0100
1000
0001
0100
0010
,
1000
0001
0100
0001
0010
0001
0100
1000
,
0100
0001
0010
0100
0000
0110
0000
1001
,
0000
0100
1000
0020
0000
0000
0030
0001
,
0010
1000
0000
1010
0000
0101
0000
1001
,
0000
0100
0010
0001
0100
0010
0001
0010
,
1000
0001
0100
0010
1000
0001
1000
0000
,
0001
0100
0000
0001
0100
0000
0001
0010
,
0000
0001
0010
0000
1001
0000
0000
0000
,
1000
0100
0000
1000
0100
0000
1000
0010
,
0000
1000
0010
0000
1000
0100
0010
0001
,
0100
1000
0010
0100
0001
0010
0001
1000
,
0010
0100
0010
1000
0100
0010
0001
1000
,
0010
0001
0100
0001
1000
0010
0100
0001
,
0010
0100
1000
0100
0010
0001
0100
0010
,
1000
0100
0001
1000
0010
0100
0010
1000
,
0100
0010
0001
1000
0010
0100
0001
0100
,
0001
0010
1000
0001
0100
0001
1000
0010
,
0100
0001
0010
0100
1000
0100
0010
0001
,
0010
0010
0110
0000
,
1000
0001
1000
0000
1001
0000
0000
0000
,
1000
1000
1100
0000
,
0001
0010
0001
0000
0011
0000
0000
0000
,
0010
1000
0010
1000
,
0001
0100
0001
0100
,
0010
1000
0001
0100
0010
1000
0001
0100
,
0000
0000
0000
0000
0100
0010
0000
1001
,
0000
0100
0001
1000
0001
0100
0010
1000
,
0100
0010
0001
0010
0100
1000
0010
0100
,
0001
1000
0010
0001
0010
1000
0001
0100
,
1000
0100
0001
0010
0000
0110
0000
1001
,
0000
0010
0001
0200
0000
0000
0300
1000
,
0100
0001
0000
0101
0000
1010
0000
1001
,
0000
0010
0100
1000
0010
0100
1000
0100
,
0001
1000
0010
0100
0001
1000
0001
1000
,
0010
0000
0010
0000
0010
0000
0010
1000
,
0100
0100
1001
0000
,
0010
0000
0010
0000
0010
0000
0010
0001
,
0100
0010
0100
0010
0100
0000
0000
0000
,
0001
0000
0001
0000
0001
0000
0001
0010
,
0100
0000
0100
0000
0100
0000
0100
1000
,
0010
1000
0010
1000
0001
0100
0001
0100
,
0001
0010
0100
1000
0010
0100
0001
1000
,
0000
0000
0001
0010
1000
0010
0001
1000
,
0000
0000
0001
0010
1000
0010
0001
1000
,
0000
0010
0100
0010
1000
0010
1000
0010
,
0100
0001
0100
0010
1000
0100
0010
0001
,
0000
0000
1000
0010
0001
0010
1000
0001
,
0000
0000
1000
0010
0001
0010
1000
0001
,
0000
0000
1000
0010
0001
0010
1000
0001
,
0100
0001
0100
0001
0010
0100
1000
0001
,
0000
1001
0110
1001
,
1000
0100
0000
0101
0000
1010
0000
2002
,
0000
0000
0000
0000
,
0000
0000
3003
0000
,
0000
0000
0000
0000
;
#NOTES:
     dance-single:
     :
     Challenge:
     17:
     :
0000
0000
0000
0000
,
0000
0000
0000
0000
,
0000
0000
0000
0000
,
0000
0000
0000
0000
,
0000
0000
0000
0000
,
0000
0000
0000
0000
,
0000
1000
0001
0100
0010
0100
0100
0100
,
0001
1000
0010
0100
0010
1000
0001
1000
,
0000
0010
1000
0100
0010
0100
0100
0100
,
1000
0001
0010
0100
0010
0001
1000
0001
,
0000
0100
0010
1000
0001
1000
1000
1000
,
0100
0010
0001
0100
0010
1000
0001
0100
,
0000
0001
0010
0001
0100
0001
0001
0001
,
0010
0001
0010
0000
0100
1000
0100
0000
1000
0001
1000
0001
1000
0000
0010
0000
,
0100
0010
1000
0010
0100
0001
0010
0100
,
1000
0001
1000
0100
0010
0001
0100
0010
,
1000
0100
0001
0100
1000
0100
0001
0100
,
1000
0010
0100
0001
0010
0001
1000
1000
,
0010
0100
0001
0100
0010
1000
0100
0010
,
0001
1000
0001
0010
0100
1000
0010
0100
,
0001
0010
1000
0010
0001
0010
1000
0010
,
0001
0000
0100
0010
0100
0000
0010
1000
0001
1000
0010
0000
0100
0000
0001
0000
,
0010
0100
1000
0010
0100
0010
1000
0100
,
0010
0001
0100
0010
1000
0010
0100
0001
,
0010
0100
1000
0001
0100
0001
1000
0100
,
0010
0001
0100
0010
1000
0010
0100
0001
,
0010
0001
1000
0010
0100
0001
1000
0100
,
0010
0100
1000
0001
0100
0010
1000
0001
,
0010
0100
1000
0001
0010
0100
1000
0001
,
0100
0000
0010
1000
0010
0000
0100
0000
0001
1000
0010
1000
0001
0000
0100
0000
,
0020
1000
1000
0000
0100
0100
0000
1000
,
2030
0001
0001
0000
0100
0100
0000
3001
,
0000
0001
1000
1000
0010
0010
0010
0010
,
0100
0100
0100
0100
0001
0001
0001
0002
,
0000
0100
0100
0000
1000
1000
0000
0100
,
0203
0010
0010
0000
0001
0001
0000
0310
,
1000
0010
0010
0001
0010
0010
1000
0100
,
0100
0000
0001
0000
0100
0000
1000
0000
0001
0010
0100
0010
0001
0000
1000
0000
,
0000
0001
1000
0000
0000
0000
0000
0000
,
0001
0000
0100
0001
0100
0000
0010
0000
1000
0000
0001
0000
0010
0000
0100
1000
,
0100
0000
1000
0000
0010
0000
0100
0000
0001
0000
1000
0001
1000
0000
0100
0000
,
0010
0000
0001
0000
1000
0010
1000
0000
0001
0000
0010
0000
0100
0000
0010
0001
,
0010
0001
1000
0010
0000
0110
0000
1001
,
1000
0000
0100
1000
0100
0000
1000
0000
0001
0000
0010
0000
0001
0000
0100
0001
,
0100
0010
1000
0001
0010
0100
1000
0010
,
0100
0000
0001
1000
0001
0000
0100
0000
0010
0000
1000
0100
1000
0000
0001
0000
,
0000
0000
0010
0000
0001
0100
0001
0000
1000
0010
1000
0001
1000
0000
0100
0000
,
1000
0001
1000
0001
1000
0000
0010
0000
0100
0001
0100
0001
0100
0000
0001
0000
,
0010
0001
0010
0001
0010
0000
0100
0000
1000
0010
0100
0000
0001
0000
0010
0000
,
0100
1000
0100
1000
0100
0000
0010
0000
0001
1000
0001
1000
0001
0000
0100
0000
,
0010
1000
0010
1000
0010
0000
0100
0000
0001
0000
0010
0100
1000
0000
0001
0000
,
1000
0000
0001
0100
0010
0000
1000
0000
1000
0000
0001
0010
0100
0000
1000
0000
,
1000
0000
0001
0100
0010
0000
1000
0000
0100
0010
0001
0010
0100
0000
2000
0000
,
0000
3010
0010
0020
0100
0230
0001
0301
,
1000
0010
1000
0000
0001
0100
0001
0000
0100
0010
0100
0010
0100
0000
0010
0000
,
1000
0100
0000
0100
0001
0000
1000
0100
,
0000
0000
0100
0001
0010
0000
0001
0000
1001
0000
0000
0000
0000
0000
0000
0000
,
0001
0000
0000
0100
0000
0000
0010
0000
1000
0000
0010
0000
1000
0000
0000
0000
0000
0000
0001
0000
0100
0000
0001
0000
,
0100
0010
1000
0001
1000
0100
0010
0110
,
0000
0000
0100
0010
0001
0000
1000
0000
0001
0000
0100
0000
0010
0000
0100
0000
,
0000
0000
0100
0010
1000
0000
0001
0000
1000
0000
0100
0000
0010
0000
0001
0000
,
0000
0000
0001
0010
0100
0000
1000
0000
0010
0000
0100
0000
0010
0000
1000
0000
,
0100
1000
0100
0000
0010
0001
0010
0000
0001
0100
0010
1000
0010
0000
1000
0000
,
0000
0000
0100
1000
0001
0000
0100
0000
0010
0000
0100
0000
0001
0000
0010
0000
,
0000
0000
0001
1000
0010
0000
0100
0000
0001
0000
1000
0000
0100
0000
0010
0000
,
0001
0100
0001
0000
1000
0010
1000
0000
0001
1000
0001
0000
0100
0010
0100
0000
,
0001
0100
0010
0000
1000
0100
0010
0000
0001
1000
0100
1000
0001
0000
0010
0000
,
0000
0000
0001
0010
0100
1000
0000
1000
,
0001
0000
0010
0000
0100
0000
1000
0001
1000
0000
0010
0000
0000
0000
1001
0000
,
0000
1000
0010
0100
0001
1000
0010
0100
,
0001
0010
0001
0000
0010
0100
1000
0000
0000
0000
1010
0000
0000
0000
1001
0000
,
0000
0100
0100
0100
,
0010
0000
1000
0001
1000
0001
0001
0010
,
0000
0000
0001
1000
0001
0000
0100
0000
0001
1000
0001
0000
0010
0000
0100
0000
,
0000
0000
0000
0000
0110
0110
0000
1001
,
0001
0000
1000
0100
0010
0000
0001
0000
0100
0000
0001
0010
0100
0000
1000
0000
,
0010
0000
0100
0001
1000
0000
0100
0000
0010
0000
0100
1000
0001
0000
0100
0000
,
0010
0000
1000
0001
0010
0000
0100
0000
1000
0000
0001
1000
0010
0000
0100
0000
,
0001
0010
0001
0010
0001
0000
0100
0000
0000
0000
0100
0010
1000
0010
0100
0000
,
0000
0000
0001
0010
0100
0010
0001
0000
0000
0000
1000
0100
0010
0000
0001
0000
,
0100
0000
0001
0000
0100
0000
0001
0000
0000
0000
1000
0000
0010
0000
1000
0000
0010
0000
1000
0000
0000
1001
0000
0000
,
0000
0001
0100
0010
1000
0001
0010
0100
,
1000
0010
1000
0000
0001
0100
0001
0000
1000
0001
1000
0001
1000
0000
0010
0000
,
1000
0000
1000
0000
1010
0000
1010
0001
,
0001
0011
0011
0000
,
0101
0100
0101
0000
1100
0100
1100
1000
,
0100
1000
0001
1000
0100
0000
0010
0000
0110
0000
0000
0000
0000
0000
0000
0000
,
1000
0010
1010
0000
0001
0100
0101
0000
,
0010
0001
0011
0000
0100
1000
1100
0000
,
0001
1000
0100
1000
0001
0000
0100
0000
0010
0000
0010
0000
0010
0000
0010
0000
,
1000
0001
1000
0100
1000
0001
1000
0100
0010
0001
0010
0001
0010
0000
0001
0000
,
0000
0000
0001
0100
0010
0000
1000
0000
0010
0100
0001
0000
1000
0000
1001
0000
,
0000
0000
1000
0100
0010
0000
0001
0000
0010
0100
1000
0000
0001
0000
1001
0000
,
0000
0000
1000
0001
0100
0000
0001
1000
0100
0000
1000
0001
0010
0000
0100
0000
,
1000
0010
1000
0000
0001
0100
0001
0000
0010
0001
0010
0100
1000
0000
0001
0000
,
0000
0000
1000
0100
0010
0000
0001
0000
0010
0100
1000
0000
0001
0000
1001
0000
,
0000
0000
0001
0100
0010
0000
1000
0000
0010
0100
0001
0000
1000
0000
1001
0000
,
0000
0000
0001
1000
0100
0000
1000
0001
0100
0000
0001
1000
0010
0000
0100
0000
,
0001
0010
0001
0000
1000
0100
1000
0000
0010
1000
0010
0100
0001
0000
1000
0000
,
0000
0000
0001
0100
0010
0000
0100
0010
1000
0000
0100
0010
0001
0000
0010
0001
,
1000
0100
1000
0100
1000
0000
0001
0010
0001
0010
0001
0000
1000
0000
2002
0000
,
0000
0000
0000
0000
,
0000
0000
3003
0000
,
0000
0000
0000
0000
;
#NOTES:
     dance-double:
     :
     Easy:
     8:
     :
00000000
00000000
00000000
00000000
,
00000000
00000000
00000000
00000000
,
00000000
00000000
00000000
00000000
,
00000000
00000000
00000000
00000000
,
00000000
00000000
00000000
00000000
,
00000000
00000000
00000000
00000000
,
10000000
01000000
10000000
01000000
,
00100000
00010000
00100000
00000000
,
00001000
00010000
00001000
00010000
,
00000100
00001000
00000100
00000000
,
00000010
00000001
00000010
00000001
,
00000100
00000010
00000100
00000000
,
00000010
00010000
00000010
00010000
,
00001000
00010000
00001000
00000000
,
00100000
00010000
01000000
00000000
,
00100000
10000000
01000000
00000000
,
00100000
00001000
00010000
00001000
,
00010000
00000100
00001000
00000000
,
00000010
00001000
00000100
00000000
,
00000010
00000001
00000100
00000000
,
00000010
00010000
00001000
00010000
,
00001000
01000000
00010000
00000000
,
00100000
01000000
10000000
01000000
,
00100000
00010000
00100000
00000000
,
00001000
00010000
00000010
00010000
,
00000100
00001000
00000010
00000000
,
00000100
00000001
00000010
00000001
,
00000100
00000010
00001000
00000000
,
00000100
00010000
00000100
00010000
,
00001000
00010000
00001000
00000000
,
00100000
00100000
00010000
00000000
,
10000000
10000000
01000000
00000000
,
00100000
01000000
00100000
00010000
,
00100000
00001000
00010000
00000000
,
00000010
00000010
00001000
00000000
,
00000001
00000001
00000100
00000000
,
00000010
00000000
00000000
00000010
00000000
00000000
00010000
00000000
,
00000000
00000000
00010000
00000000
00001000
00010000
00000000
00022000
,
00000000
00000000
00000000
00033000
,
00100000
00010000
01000000
00100000
,
10000000
01000000
00100000
00010000
,
00100000
00001000
00010000
00001000
,
00000010
00000000
00000100
00001000
00000000
00000000
00000000
00000000
,
00000001
00000010
00000100
00001000
,
00000100
00010000
00001000
00100000
,
00001000
00010000
01000000
00100000
,
00010000
01000000
00100000
00100000
,
10000000
01000000
00100000
00000000
,
01000000
00100000
00010000
00000000
,
00100000
00001000
00010000
00000010
,
00001000
00000100
00000010
00000000
,
00000001
00000010
00000100
00000000
,
00000010
00000100
00001000
00000000
,
00000010
00010000
00001000
00100000
,
00010000
01000000
00100000
00000000
,
10000000
00000000
00000000
10000000
00000000
00000000
01000000
00000000
,
00000000
01000000
00000000
00000000
01100000
00000000
00000000
00000000
,
00010000
00000000
00000000
00010000
00000000
00000000
00010000
00000000
,
00001000
00001000
00001000
00000000
,
00000100
00000001
00000100
00000001
,
00000010
00000100
00001000
00000100
,
00010000
00001000
01000000
00010000
,
00100000
00100000
01000000
01000000
,
00100000
00010000
00100000
00010000
,
10000000
00100000
01000000
00010000
,
01000000
00001000
00010000
00000100
,
00001000
00001000
00000001
00000001
,
00000020
00000000
00000030
00000000
,
00000200
00000000
00000300
00000000
,
00020000
00000000
00030000
00000000
,
00002000
00000000
00003000
00000000
,
02000000
00000000
03000000
00000000
,
00200000
00000000
00300000
00000000
,
20000000
00000000
30000000
00000000
,
01100000
00000000
00000000
00000000
,
10000000
00100000
00010000
00100000
,
10000000
01000000
00100000
00010000
,
00100000
00001000
00010000
00000010
,
00001000
00000100
00000010
00000000
,
00000001
00000100
00001000
00000100
,
00000001
00000010
00000100
00001000
,
00000100
00010000
00001000
00100000
,
00010000
01000000
00100000
00000000
,
10000000
10000000
01000000
00000000
,
00100000
00100000
00010000
00000000
,
00001000
00001000
00000100
00000000
,
00000010
00000010
00000010
00000000
,
00000001
00000001
00000100
00000100
,
00000010
00000010
00010000
00010000
,
00001000
00010000
00001000
00010000
,
01000000
00100000
01000000
00100000
,
00010000
01000000
00100000
00000000
,
10000000
01000000
00100000
00000000
,
00001000
00010000
00000100
00001000
,
00000010
00000100
00000001
00000000
,
00000010
00000100
00001000
00000000
,
00000010
00000100
00000001
00000000
,
00000010
00000100
00001000
00000100
,
00010000
00001000
00100000
00000000
,
00010000
00010000
01000000
00000000
,
10000000
00000000
00000000
01000000
00000000
01000000
00000000
20020000
,
00000000
00000000
00000000
00000000
,
00000000
00000000
30030000
00000000
,
00000000
00000000
00000000
00000000
;
#NOTES:
     dance-double:
     :
     Medium:
     11:
     :
00000000
00000000
00000000
00000000
,
00000000
00000000
00000000
00000000
,
00000000
00000000
00000000
00000000
,
00000000
00000000
00000000
00000000
,
00000000
00000000
00000000
00000000
,
00000000
00000000
00000000
00000000
,
00100000
10000000
00100000
10000000
,
01000000
00000000
00100000
00000000
01000000
00100000
01000000
00000000
,
00100000
00001000
00100000
00001000
,
00010000
00000000
00001000
00000000
00010000
00001000
00010000
00000000
,
00000100
00001000
00000100
00001000
,
00000010
00000000
00000100
00000000
00000010
00000100
00000010
00000000
,
00000100
00000001
00000100
00000001
,
00000010
00000000
00000001
00000000
00000010
00000001
00000010
00000000
,
00000100
00001000
00000100
00010000
,
00001000
00000000
00100000
00000000
00001000
00010000
00001000
00010000
,
00000000
00001000
01000000
00010000
00000000
00000000
00100000
00010000
,
00000000
01000000
00000000
00100000
10000000
00100000
10000000
00000000
,
01000000
00010000
01000000
00010000
,
00001000
00000000
00010000
00000000
00001000
00010000
00001000
00010000
,
00000000
00010000
00000100
00001000
,
00000010
00000100
00000001
00000000
00000010
00000100
00001000
00000000
,
00000001
00000000
00000100
00000000
00001000
00010000
00001000
00000000
,
00100000
00000000
00010000
00000000
00100000
00000000
01000000
10000000
,
00000000
00100000
00000000
00100000
00000000
00010000
00000000
00010000
,
00000000
00001000
00000000
00001000
00000100
00000000
00000110
00000000
,
00001000
00000001
00000010
00000100
,
00001000
00000000
00000010
00000000
00000100
00000010
00001000
00000100
,
00000000
00010000
00001000
00100000
,
00010000
00100000
00010000
00000000
10000000
01000000
10000000
00000000
,
00200000
00010000
00310000
00000000
,
00002000
00010000
00013000
00000000
,
00000100
00001000
00000100
00000000
00001000
00000010
00001000
00000000
,
00000001
00000100
00000001
00000000
00000010
00000001
00000010
00000000
,
00000200
00001000
00001300
00000000
,
00020000
00001000
00031000
00000000
,
01000000
00000000
00010000
00100000
00000000
00010000
00100000
00000000
,
01000000
00000000
01100000
00000000
10000000
00010000
10000000
00010000
,
00000000
00010000
10000000
00000000
00000000
00000000
00000000
00000000
,
10000000
00000000
00100000
00000000
01000000
00010000
00000000
00100000
,
00001000
00000000
00010000
00000100
00000000
00001000
00000000
00001000
,
00000000
00000000
00000100
00000000
00010000
00000100
00000000
00001000
,
00000100
00000000
00000010
00000001
00000000
00000110
00000000
00001001
,
00000000
00000000
00000010
00000000
00000100
00001000
00000000
00000010
,
00010000
00000000
00001000
01000000
00000000
00010000
00000000
00010000
,
00000000
00000000
01000000
00000000
00001000
01000000
00010000
01000000
,
00000000
00100000
10000000
00000000
01000000
00000000
00100000
00010000
,
00000000
00000000
00100000
00000000
01000000
00010000
01000000
00000000
,
00010000
00000000
00001000
00010000
00001000
00000000
00011000
00000000
,
00000000
00000000
00000010
00000000
00000100
00001000
00000100
00000000
,
00001000
00000000
00010000
00001000
00000000
00000010
00000000
00001000
,
00000000
00010000
00000000
02000000
00000000
00000000
00000000
03100000
,
01000000
00100000
00000000
00010000
00000000
10000000
00000000
00200000
,
00000000
00000000
00010000
00300000
,
01000000
00010000
00100000
00001000
00010000
00000010
00001000
00000100
,
00000010
00000001
00000000
00000010
00000001
00000000
00000100
00001000
,
00000000
00000100
00001000
00000000
00010000
00000000
00100000
00000000
,
10000000
01000000
00000000
10000000
01000000
00000000
00100000
00010000
,
00000000
00100000
00001000
00000000
00011000
00000000
00000000
00000000
,
00000100
00000000
00001000
00000000
00000010
00000100
00000010
00000000
,
00000001
00000010
00001000
00000100
,
00000010
00000000
00001000
00000000
00010000
00001000
00010000
00000000
,
01000000
00100000
00010000
10000000
,
01000000
00000000
00010000
00000000
01000000
00100000
01000000
00000000
,
00100000
00001000
00010000
00000010
,
00001000
00000000
00000100
00000000
00000010
00000001
00000010
00000000
,
00000001
00001000
00000100
00010000
,
00002000
00010000
00013000
00000000
,
00020000
00001000
00031000
00000000
,
02000000
00010000
03001000
00000000
,
00000200
00001000
00010300
00000000
,
00100000
00010000
01000000
00001000
,
00010000
00000100
00001000
00000010
,
00020000
00000000
00000000
00000000
00000000
00000000
00000000
00031000
,
00000000
00000000
00000000
00000000
00010000
00001000
00000000
00010000
,
00001000
00000000
01000000
00000000
00010000
00100000
01000000
00000000
,
10000000
00000000
00100000
00000000
01000000
00010000
01000000
00000000
,
00010000
00000000
00100000
00000000
00001000
00010000
00000100
00000000
,
00001000
00000000
00000010
00000100
00000000
00000001
00000000
00000011
,
00000000
00001000
00010000
00001000
00000000
00000000
00000000
00010000
,
00001000
00010000
00000000
00100000
00000000
10000000
00000000
20010000
,
00000000
00000000
02000000
33000000
,
01000000
00100000
00010000
00000000
00100000
00001000
00010000
00000000
,
00000100
00001000
00000100
00001000
,
00000010
00000010
00000110
00000000
,
00000001
00000100
00000001
00000100
,
00001000
00001000
00011000
00000000
,
01000000
00010000
00100000
00010000
,
10000000
01000000
00100000
00010000
,
00001000
00000100
00001000
00000000
00000010
00000000
00000100
00000000
,
00000001
00001000
00000001
00000000
00002002
00000000
00000000
00000000
,
00003003
00000001
00001000
00000110
,
00000000
00001000
00010000
00011000
,
00100000
00010000
01000000
00000000
00100000
10000000
01000000
00000000
,
00100000
01000000
00100000
01000000
00100000
00000000
01100000
00000000
,
00000000
10000000
00010000
01100000
,
00000000
00010000
00001000
00011000
,
00000010
00001000
00000100
00000000
00000010
00000001
00000100
00000000
,
00000010
00000100
00000010
00000100
00000010
00000000
00000110
00000000
,
00000020
00000130
00002000
00013000
,
00100000
00100000
00000000
10000000
00000000
00010000
00000000
20020000
,
00000000
00000000
00000000
00000000
,
00000000
00000000
30030000
00000000
,
00000000
00000000
00000000
00000000
;
#NOTES:
     dance-double:
     :
     Hard:
     14:
     :
00000000
00000000
00000000
00000000
,
00000000
00000000
00000000
00000000
,
00000000
00000000
00000000
00000000
,
00000000
00000000
00000000
00000000
,
00000000
00000000
00000000
00000000
,
00000000
00000000
00000000
00000000
,
00000010
00000000
00000001
00000000
00000100
00000010
00001000
00000000
,
00000100
00001000
00000100
00001000
00000100
00010000
00001000
00000000
,
00100000
00000000
00001000
00000000
00010000
00001000
01000000
00000000
,
00010000
01000000
00010000
01000000
00100000
10000000
00100000
00000000
,
01000000
00000000
00010000
00000000
00100000
01000000
10000000
00000000
,
01000000
00100000
01000000
00100000
00010000
00100000
00010000
00000000
,
00100000
00000000
00001000
00000000
00010000
00000010
00001000
00000000
,
00000010
00000100
00000010
00000100
00000001
00001000
00000001
00000000
,
00000001
00000010
00000100
00000000
00001000
00000100
00000010
00000000
,
00000100
00001000
00000100
00010000
00001000
00010000
00001000
00000000
,
00100000
00010000
01000000
00000000
00010000
00100000
01000000
00000000
,
10000000
00100000
10000000
00100000
01000000
00010000
00100000
00000000
,
01000000
00100000
00010000
00000000
01000000
00001000
00010000
00000000
,
00001000
00010000
00000100
00010000
00000100
00001000
00000010
00000000
,
00000100
00000010
00001000
00000000
00000001
00000010
00000100
00000000
,
00001000
00000010
00000001
00000010
00001000
00000010
00010000
00000000
,
00001000
00100000
00001000
00100000
00010000
01000000
00010000
01000000
,
00000000
01000000
00100000
01000000
00100000
10000000
00100000
10000000
,
00000000
01000000
00100000
00010000
00000000
01000000
00100000
10000000
,
00000000
01000000
00100000
00010000
00100000
00001000
00010000
00001000
,
00010000
00000010
00010000
00000010
00001000
00000010
00001000
00000100
,
00000000
00000010
00000100
00000010
00000001
00000010
00000001
00001000
,
00000000
00000010
00001000
00000010
00001000
00000100
00001000
00000100
,
00000000
00010000
00001000
00010000
00001000
01000000
00010000
00100000
,
00010000
10000000
01000000
00000000
00100000
00010000
00000000
00001000
,
00000100
00001000
00000100
00000000
00000010
00000001
00000000
00000011
,
00000000
00000001
00000100
00000000
00001000
00010000
00001000
00000000
,
00000010
00001000
00000010
00000000
00000001
00001000
00000001
00000000
,
00001000
00000001
00000100
00000000
00000010
00001000
00000000
00010000
,
01000000
00010000
01000000
00000000
00100000
10000000
00000000
10000000
,
00100000
01000000
00010000
00100000
01000000
00100000
00010000
01000000
,
00001000
00010000
00001000
00000100
00000010
00001000
00000001
00000010
,
00000000
00000100
00000010
00000000
00000000
00000000
00000000
00000000
,
00000001
00000100
00000010
00001000
00000100
00000010
00000001
00000100
,
00000010
00001000
00000100
00000010
00000100
00010000
00001000
00100000
,
00010000
01000000
00100000
10000000
01000000
00100000
00010000
01000000
,
00100000
10000000
01000000
00010000
00000000
00010000
00000000
00010000
,
01000000
00100000
00010000
01000000
00100000
10000000
00010000
00100000
,
00001000
00010000
00000100
00001000
00000010
00000100
00000001
00000010
,
00000100
00001000
00000010
00000001
00000010
00001000
00000001
00000100
,
00000010
00001000
00000100
00001000
00000100
00010000
00001000
00010000
,
00000000
00001000
01000000
00010000
00100000
00001000
01000000
00010000
,
00100000
01000000
00010000
01000000
10000000
00100000
01000000
00100000
,
00010000
00001000
00010000
00000010
00001000
00000010
00001000
00000100
,
00000010
00000001
00000010
00000100
00000001
00000100
00001000
00000001
,
00000000
00000001
00000100
00001000
00000000
00001000
00010000
00001000
,
01000000
00010000
00000000
00110000
00000000
01100000
00000000
20020000
,
00000000
00030000
02000000
33000000
,
00100000
10000000
01000000
00010000
00001000
00000010
00000001
00000000
,
00001000
00000001
00000000
00001000
00000001
00000000
00000100
00000010
,
00000000
00000100
00000010
00000000
00001001
00000000
00000000
00000000
,
00000010
00000100
00000000
00000010
00000100
00000000
00001000
00010000
,
00000000
00001000
00010000
00000000
00011000
00000000
00000000
00000000
,
00010000
00001000
01000000
00010000
00100000
01000000
00010000
00000000
,
01000000
10000000
00100000
00000000
01000000
00010000
00100000
00000000
,
01000000
00010000
00001000
00100000
00001000
00010000
00000100
00000000
,
00000001
00000100
00001000
00000000
00000010
00000100
00000001
00000000
,
00001000
00000001
00000100
00000010
00000100
00001000
00010000
00000000
,
00001000
00100000
00010000
00000000
01000000
00010000
00100000
00000000
,
01000000
10000000
01000000
10000000
00010000
00100000
00010000
00100000
,
00001000
00010000
00000100
00001000
00000001
00000010
00000001
00000010
,
00000001
00000000
00000100
00000010
00000100
00000010
00000000
00000000
,
00001000
00000100
00001000
00000100
00000000
00010000
00000000
00010000
,
00000000
00000000
00001000
01000000
00001000
01000000
00001000
00100000
,
00000000
00010000
00100000
01000000
00000000
01000000
00000000
01000000
,
00000000
10000000
00100000
10000000
,
01000000
00010000
00001000
00010000
,
00100000
01000000
00100000
01000000
00100000
00010000
00001000
00010000
,
00000000
00000000
00000000
00000000
00001000
00010000
00000000
00011000
,
00000000
00010000
00000100
00001000
00000010
00010000
00000100
00001000
,
00000010
00000100
00001000
00000100
00000001
00000010
00000100
00000010
,
00001000
00010000
00001000
00100000
00010000
00100000
00010000
01000000
,
00100000
10000000
00100000
01000000
10000000
01000000
00010000
10000000
,
00000000
10000000
01000000
00010000
00000000
00010000
00001000
00010000
,
00000100
00001000
00000000
00001010
00000000
00000110
00000000
00002002
,
00000000
00003000
00000200
00000303
,
00000010
00000001
00000100
00001000
00010000
00100000
10000000
00000000
,
01000000
00000000
01000000
00000000
01100000
00000000
00100000
00010000
,
00001000
00001000
00011000
00000000
,
00000100
00000000
00000100
00000000
00000110
00000000
00000010
00000001
,
00000100
00001000
00000100
00000000
00000110
00000000
00000000
00000000
,
00001000
00000000
00001000
00000000
00010000
00000000
00010000
01000000
,
10000000
00000000
10000000
00000000
00100000
00000000
00100000
00010000
,
00001000
00010000
00001000
00010000
00001000
00001000
00010000
00010000
,
00001000
00010000
00010000
00001000
00001000
00010000
00001000
00011000
,
00000000
00000000
00001000
00000010
00000001
00001000
00000100
00000010
,
00000000
00000000
00000001
00000100
00000010
00000100
00001000
00010000
,
00000000
00010000
00001000
00100000
00010000
00100000
01000000
00100000
,
00010000
10000000
01000000
00100000
00010000
01000000
00100000
00010000
,
00000000
00000000
00010000
00100000
10000000
00010000
01000000
00100000
,
00000000
00000000
10000000
01000000
00100000
01000000
00010000
00001000
,
00000000
00001000
00010000
00000010
00001000
00000010
00000100
00000010
,
00001000
00000001
00000100
00000010
00001000
00000100
00000010
00001000
,
00010000
00011000
00001000
00011000
,
01000000
01000000
00000000
00100000
00000000
00100000
00000000
20020000
,
00000000
00000000
00000000
00000000
,
00000000
00000000
30030000
00000000
,
00000000
00000000
00000000
00000000
;
#NOTES:
     dance-double:
     :
     Challenge:
     17:
     :
00000000
00000000
00000000
00000000
,
00000000
00000000
00000000
00000000
,
00000000
00000000
00000000
00000000
,
00000000
00000000
00000000
00000000
,
00000000
00000000
00000000
00000000
,
00000000
00000000
00000000
00000000
,
00000000
00001000
00010000
00001000
00100000
00010000
00010000
00010000
,
01000000
10000000
01000000
00100000
10000000
01000000
00100000
00010000
,
00000000
00100000
00001000
00010000
00000100
00001000
00001000
00001000
,
00000010
00000100
00000001
00000010
00000100
00010000
00000000
00011000
,
00000000
00001000
01000000
00010000
00100000
01000000
01000000
01000000
,
10000000
00100000
01000000
00010000
00100000
00001000
00010000
00000010
,
00000000
00001000
00000100
00001000
00000001
00000010
00000010
00000010
,
00000001
00000000
00000100
00000000
00001000
00000000
00010000
00000000
00001000
00010000
00001000
00010000
00001000
00000000
00000000
00000000
,
00100000
00010000
01000000
10000000
01000000
00010000
00100000
01000000
,
00010000
00001000
00100000
01000000
00010000
00001000
00000010
00000100
,
00010000
00000010
00001000
00000001
00000100
00001000
00000100
00000001
,
00000010
00000100
00010000
00001000
00100000
00010000
01000000
00000000
,
10000000
01000000
00010000
00100000
01000000
00010000
00001000
00010000
,
00000010
00001000
00000100
00000001
00000100
00001000
00000010
00000100
,
00001000
00010000
00100000
00010000
00001000
00000100
00000001
00000010
,
00000100
00010000
00001000
00100000
00010000
00110000
00000000
11000000
,
10000000
00100000
01000000
00010000
00100000
00001000
00010000
00000100
,
00001000
00000010
00000100
00000001
00000010
00000100
00001000
00001010
,
00000000
00000100
00000001
00000011
00000000
00000010
00000001
00000100
,
00001000
00010000
00001000
00010000
01000000
10000000
01000000
10000000
,
00100000
01000000
00100000
00010000
00100000
01000000
00010000
00100000
,
00001000
00010000
00001000
00000010
00000100
00001000
00000010
00000100
,
00000001
00000100
00001000
00010000
00000100
00000010
00001000
00010000
,
01000000
00000000
01000000
00000000
10000000
00000000
10000000
00000000
00100000
01000000
00100000
01000000
00100000
00000000
00000000
00000000
,
10000000
01000000
01000000
00000000
00100000
00100000
00000000
00001000
,
00001000
00010000
00010000
00000000
00000010
00000010
00000000
00000100
,
00001000
00010000
00001000
00010000
00001000
00000010
00001000
00000010
,
00001000
00010000
00001000
00010000
00001000
00000100
00001000
00000100
,
00000001
00000010
00000010
00000000
00000100
00000100
00000000
00010000
,
00010000
00001000
00001000
00000000
00100000
00100000
00000000
00010000
,
01000000
00100000
00100000
10000000
01000000
00010000
00001000
00010000
,
00010000
00000000
00000010
00000000
00001000
00000000
00000100
00000000
00000010
00000001
00000010
00000001
00000010
00000000
00000001
00000000
,
00000000
00000001
00000100
00000000
00000000
00000000
00000000
00000000
,
00000001
00000000
00000010
00000100
00000010
00000000
00000100
00000000
00001000
00000000
00000010
00000000
00000100
00000000
00001000
00000100
,
00001000
00000000
00010000
00000000
00001000
00000000
01000000
00000000
00010000
00000000
00100000
00010000
00100000
00000000
01000000
00000000
,
10000000
00000000
00100000
00000000
01000000
00100000
01000000
00000000
00100000
00000000
10000000
00000000
01000000
00000000
00100000
00010000
,
00100000
00001000
00010000
00000100
00000000
00010100
00000000
00001100
,
00000000
00000000
00001000
00000100
00001000
00000000
00000010
00000000
00001000
00000000
00000001
00000000
00000100
00000000
00000010
00001000
,
00000010
00000100
00001000
00010000
00100000
01000000
00010000
00100000
,
01000000
00000000
00010000
01000000
00010000
00000000
01000000
00000000
10000000
00000000
00100000
01000000
00100000
00000000
00010000
00000000
,
00001000
00000000
00010000
00000000
01000000
00000000
00010000
00000000
00001000
00010000
00001000
00000000
00010000
00000000
00000100
00000000
,
00000010
00000000
00000100
00001000
00000100
00000000
00000010
00000000
00000001
00000000
00000100
00000000
00000010
00001000
00000010
00000000
,
00000100
00000000
00000010
00010000
00000010
00000000
00010000
00000000
00000100
00000000
00010000
00000000
01000000
00000000
10000000
00000000
,
00100000
00000000
01000000
00010000
01000000
00000000
00100000
00000000
10000000
00000000
01000000
00000000
00100000
00010000
00100000
00000000
,
01000000
00000000
00010000
00001000
00010000
00000000
00000010
00000000
00001000
00000100
00001000
00000100
00000010
00000000
00000001
00000000
,
00000000
00000000
00000001
00000100
00000010
00000000
00001000
00000000
00000000
00000000
00001000
00000100
00010000
00000000
00001000
00000000
,
00100000
00000000
00010000
01000000
00100000
00000000
10000000
00000000
00010000
10000000
00010000
10000000
00010000
00000000
20000000
00000000
,
00000000
00000000
31000000
00100000
00020000
00000000
00031000
00000100
,
00000010
00000001
00000101
00000100
00000110
00001000
00000100
00010000
,
00001000
00010000
00000000
00010000
01000000
00000000
00100000
00001000
,
00000000
00001000
00010000
00000000
00011000
00000000
00000000
00000000
,
00001000
00000000
00000000
00000010
00000000
00000000
00000001
00000000
00000100
00000000
00000010
00000000
00001000
00000000
00000000
00000000
00000000
00000000
00010000
00000000
01000000
00000000
00100000
00000000
,
10000000
01000000
00010000
01000000
10000000
00100000
00010000
00011000
,
00000000
00000000
00001000
00010000
00000010
00000000
00001000
00000000
00000001
00000000
00000100
00000000
00000010
00000000
00001000
00000000
,
00000000
00000000
00001000
00000100
00010000
00000000
00001000
00000000
00100000
00000000
00010000
00000000
01000000
00000000
00100000
00000000
,
00000000
00000000
10000000
01000000
00100000
00000000
00010000
00000000
01000000
00000000
00010000
00000000
00100000
00000000
00001000
00000000
,
00010000
00000100
00010000
00000000
00000100
00001000
00000100
00000000
00001000
00000010
00001000
00000010
00001000
00000000
00000001
00000000
,
00000000
00000000
00000100
00000001
00000010
00000000
00000100
00000000
00010000
00000000
00001000
00000000
00000100
00000000
00001000
00000000
,
00000000
00000000
00010000
00100000
00010000
00000000
00100000
00000000
01000000
00000000
00010000
00000000
00100000
00000000
01000000
00000000
,
10000000
00100000
10000000
00000000
00010000
00000000
01000000
00000000
00001000
00010000
00001000
00000000
00010000
00000000
00000100
00000000
,
00001000
00000010
00000100
00000000
00000001
00000010
00000100
00000000
00001000
00000001
00001000
00000001
00001000
00000000
00000010
00000000
,
00000000
00000000
00000100
00000001
00000010
00000100
00000000
00000100
,
00001000
00000001
00000010
00000100
00000000
00010000
00000000
00011000
,
00000000
00000000
00001000
00010000
00100000
01000000
00001000
00010000
,
00100000
01000000
00000000
01010000
00000000
11000000
00000000
10010000
,
00000000
00000000
00010000
10000000
01000000
00100000
00000000
00100000
,
00010000
10000000
01000000
00100000
00000000
00001000
00000000
00011000
,
00000000
00001000
00010000
00001000
00000100
00000010
00010000
00001000
,
00000000
00000000
00000000
00000000
00000100
00000010
00000000
00001001
,
00000000
00000000
00000001
00000100
00000010
00000000
00001000
00000000
00000010
00000000
00000100
00001000
00010000
00000000
00001000
00000000
,
01000000
00000000
00010000
00100000
01000000
00000000
10000000
00000000
01000000
00000000
00001000
00000000
00000100
00000000
00000001
00000000
,
00000100
00000000
00000010
00000001
00001000
00000000
00000100
00000000
00010000
00000000
00001000
00100000
00010000
00000000
01000000
00000000
,
00100000
00000000
10000000
01000000
00100000
00000000
00010000
00000000
00000000
00000000
01000000
00000000
00001000
00000000
00011000
00000000
,
00000000
00000100
00010000
00011000
00000000
00001000
00000010
00000001
,
00000100
00020000
00000000
00032000
00000000
00203000
00000000
01300000
,
00000000
01000000
10000000
01000000
00010000
00100000
01000000
00010000
,
00001000
00010000
00001000
00000000
00010000
00000010
00010000
00000000
00000010
00001000
00000010
00001000
00000010
00000000
00001000
00000000
,
00000001
00000000
00000011
00000000
00000010
00000000
00000010
00001000
,
00010000
00001000
00011000
00000000
,
00110000
00010000
01010000
00000000
10100000
10000000
11000000
00000000
,
00100000
00001000
00010000
00001000
00011000
00000000
00000000
00000000
,
00000010
00000000
00001000
00000000
00001100
00000000
00000010
00000001
,
00000100
00000000
00001000
00000000
00011000
00000000
00010000
00001000
,
01000000
00000000
00100000
10000000
00100000
00000000
01000000
00000000
00010000
00100000
00010000
00000000
01000000
00000000
00001000
00000000
,
00010000
00000100
00010000
00000100
00001000
00000100
00001000
00000100
00001000
00000010
00001000
00000010
00001000
00000000
00000100
00000000
,
00000000
00000000
00000010
00000001
00000010
00000000
00000100
00000000
00001000
00000000
00000100
00000000
00010000
00000000
00001000
00000000
,
00000000
00000000
01000000
00010000
01000000
00000000
00010000
00000000
00100000
00000000
01000000
00000000
10000000
00000000
00100000
00000000
,
00000000
00000000
01000000
00010000
00100000
00000000
01000000
00000000
10000000
00010000
00100000
00000000
00001000
00000000
00010000
00000000
,
00000010
00001000
00000010
00000000
00001000
00000100
00001000
00000000
00000100
00000010
00000001
00000010
00000100
00000000
00001000
00000000
,
00000000
00000000
00000001
00000100
00000001
00000000
00000010
00000000
00000100
00000000
00010000
00000000
00001000
00000000
00010000
00000000
,
00000000
00000000
01000000
00100000
00010000
00000000
01000000
00000000
00100000
00000000
10000000
00000000
00010000
00000000
01000000
00000000
,
00000000
00000000
00100000
10000000
00010000
00000000
00100000
00000000
01000000
00000000
00010000
00001000
00010000
00000000
00000010
00000000
,
00001000
00000100
00001000
00000000
00000001
00000100
00000001
00000000
00001000
00000010
00010000
00001000
00010000
00000000
00001000
00000000
,
00000000
00000000
01000000
00010000
00100000
00000000
01000000
00000000
10000000
00000000
01000000
00100000
00001000
00000000
00010000
00000000
,
00000100
00001000
00000100
00000010
00000001
00000000
00000100
00000000
00000000
00000000
00001000
00000000
00010000
00000000
00022000
00000000
,
00000000
00000000
00000000
00000000
,
00000000
00000000
00033000
00000000
,
00000000
00000000
00000000
00000000
;
