
//----- song ID: nole -----//
#TITLE:ノルエピネフリン;
#ARTIST:BEMANI Sound Team "U1 overground";
#TITLETRANSLIT:Norepinephrine;
#BANNER:Norepinephrine.png;
#BACKGROUND:Norepinephrine-bg.png;
#CDTITLE:./CDTitles/GITADORA Matixx.png;
#MUSIC:Norepinephrine.ogg;
#SAMPLESTART:43.531;
#SAMPLELENGTH:15;
#BPMS:0=124;
#NOTES:
     dance-single:
     :
     Beginner:
     2:
     :
0000
0000
0000
0000
,
0000
0000
0000
0000
,
0000
0000
0001
0000
,
0010
0000
1000
1000
,
1000
0000
0010
0000
,
0001
0001
0001
0000
,
0100
0000
1000
1000
,
1000
0000
0100
0000
,
0001
0001
0002
0000
,
0003
0000
2000
0000
,
3000
0000
0010
0000
,
0001
0000
0100
0000
,
1000
0000
0002
0000
,
0003
0000
2000
0000
,
3000
0000
0010
0000
,
1000
0000
0100
0000
,
0001
0000
2000
0000
,
3000
0000
0002
0000
,
0003
0000
0010
0010
,
0010
0000
0100
0100
,
0100
0000
0010
0010
,
0010
0000
0100
0100
,
0100
0000
2002
0000
,
3003
0000
2002
0000
,
3003
0000
0010
0010
,
0010
0000
0010
0010
,
0010
0000
2002
0000
,
3003
0000
2002
0000
,
3003
0000
0100
0100
,
0100
0000
0100
0100
,
0100
0000
0002
0000
,
0003
0000
2000
0000
,
3000
0000
0000
0000
,
0000
0000
0010
0000
,
1000
0000
0100
0000
,
0000
0000
0010
0000
,
0001
0000
0100
0000
,
0000
0000
0100
0000
,
1000
0000
0010
0000
,
0000
0000
1000
0000
,
0001
0000
0000
0000
,
0000
0000
0010
0010
,
0010
0000
0100
0100
,
0100
0000
0010
0010
,
0010
0000
0100
0100
,
0100
0000
1000
0000
,
0010
0000
0002
0000
,
0003
0000
0001
0000
,
0100
0000
2000
0000
,
3000
0000
0001
0001
,
0001
0000
1000
1000
,
1000
0000
0010
0010
,
0010
0010
0020
0000
,
0030
0000
2002
0000
,
3003
0000
2002
0000
,
3003
0000
0010
0010
,
0010
0000
0010
0010
,
0010
0000
2002
0000
,
3003
0000
2002
0000
,
3003
0000
0100
0100
,
0100
0000
0100
0100
,
0100
0000
0002
0000
,
0003
0000
1000
0000
,
0001
0001
0000
0000
,
0000
0000
0000
0000
;
#NOTES:
     dance-single:
     :
     Easy:
     6:
     :
0000
0000
0000
0000
,
0000
0000
0000
0000
,
0000
0000
1000
0100
,
0010
0001
1000
1000
,
0001
0100
0010
1000
,
0001
0001
1000
0100
,
0001
0100
1000
1000
,
0001
0100
1000
0100
,
0001
0001
2000
0000
,
0000
3000
0002
0000
,
0000
0003
1000
0010
,
1000
0100
1000
0010
,
1000
0100
1000
0000
0010
0000
1000
0000
,
0100
1000
0010
1000
,
0100
1000
0100
0000
0001
0000
0010
0000
,
0001
0100
0001
0010
,
0001
0100
0001
0000
0010
0000
0001
0000
,
0100
0001
0010
0001
,
0100
0001
0100
0000
0010
0010
0010
0000
,
0100
0100
0100
0000
0010
0010
0010
0000
,
2002
0000
3003
0000
0100
0100
0100
0000
,
0010
0010
0010
0000
0100
0100
0100
0000
,
2002
3003
0200
0000
,
0000
0300
0020
0000
,
0000
0000
0030
0000
1000
0100
1000
0000
,
0001
0100
0001
0000
1000
0010
1000
0000
,
0001
0010
0001
0000
0200
0000
0000
0000
,
0000
0300
0020
0000
,
0000
0000
0030
0000
1000
0010
1000
0000
,
0001
0010
0001
0000
1000
0100
1000
0000
,
0001
0100
0001
0000
1000
0000
0000
0001
,
0000
1000
0001
0010
,
0100
1000
0100
0200
,
0000
0300
0100
0010
,
0001
0000
0100
0010
,
1000
0000
0001
0100
,
1000
0100
0001
0100
,
1000
0100
0002
0003
,
2000
3000
0010
0100
,
0001
0010
1000
0001
,
2000
0000
0000
3000
,
0000
0000
0000
0000
0010
0010
0010
0000
,
1000
1000
1000
0000
0100
0100
0100
0000
,
2002
0000
3003
0000
0010
0010
0010
0000
,
0001
0001
0001
0000
0100
0100
0100
0000
,
2002
3003
0010
1000
,
0100
0000
0010
0000
0001
1000
0002
0000
,
0000
0003
1000
0010
,
0100
0001
1000
0100
,
0010
0001
2000
3000
,
0002
0000
0003
0000
0010
0100
0010
0000
,
0220
0330
0001
0100
,
1000
0001
1000
0000
2002
0000
0000
0000
,
0000
3003
0200
0000
,
0000
0300
0020
0000
,
0000
0000
0030
0000
1000
0100
1000
0000
,
0001
0100
0001
0000
1000
0010
1000
0000
,
0001
0010
0001
0000
0200
0000
0000
0000
,
0000
0300
0020
0000
,
0000
0000
0030
0000
1000
0010
1000
0000
,
0001
0010
0001
0000
1000
0100
1000
0000
,
0001
0100
0001
0000
1000
0000
0000
0001
,
0000
0000
0010
0001
,
0100
0010
0000
0000
,
0000
0000
0000
0000
;
#NOTES:
     dance-single:
     :
     Medium:
     11:
     :
0000
0000
0000
0000
,
0000
0000
0000
0000
,
0000
0000
0000
0000
0000
0000
0000
0000
0001
0000
0000
0100
0000
0000
0100
0000
,
0010
0000
1000
0000
0100
0000
1000
0000
0001
0000
0000
1000
0000
0000
0001
0000
,
1000
0000
0000
0100
0000
0000
0100
0000
0010
0000
0001
0000
0100
0000
0001
0000
,
1000
0001
0100
0000
0010
0000
0010
0000
1000
0000
0000
0010
0000
0000
0010
0000
,
0100
0000
0001
0000
0010
0000
0001
0000
1000
0000
0000
0001
0000
0000
1000
0000
,
0001
0000
0000
0010
0000
0000
0010
0000
0100
0000
1000
0000
0010
0000
1000
0000
,
0001
0000
0000
1000
0000
0000
0001
0000
0001
0000
0001
0000
0000
0010
0000
0010
,
0000
0010
0000
0000
1000
0000
1000
0000
1000
0000
0000
0100
0000
0100
0000
0100
,
0000
0001
0001
0001
1000
0100
0001
0100
,
1000
0100
1000
0100
0001
0100
0010
0100
,
1000
0100
1000
0100
0010
0100
0001
0100
,
1000
0100
0010
0100
0001
0100
0001
0100
,
1000
0001
0100
0000
0001
0100
1000
0100
,
0001
0100
0001
0100
1000
0100
0010
0100
,
0001
0100
0001
0100
0010
0100
1000
0100
,
0001
0100
0010
0100
1000
0100
1000
0100
,
0001
0000
1000
0000
0100
0000
0000
0000
0010
0100
0010
0000
0001
0000
0001
0000
,
0100
0010
0100
0000
0001
0000
0001
0000
0010
0100
0010
0000
0001
0000
0001
0000
,
2002
0000
0000
0000
3003
0000
0000
0000
0010
0100
0010
0000
1000
0000
1000
0000
,
0100
0010
0100
0000
1000
0000
1000
0000
0010
0100
0010
0000
1000
0000
1000
0000
,
2002
3003
0020
0000
,
0000
0030
0200
0000
,
0000
0000
0300
0000
0001
0010
0100
1000
,
0001
1000
0100
0010
0001
1000
0001
0010
,
0100
0000
1000
0000
0001
0100
0001
0000
0020
0000
0000
0000
0000
0000
0000
0000
,
0000
0030
0200
0000
,
0000
0000
0300
0000
1000
0010
0100
0001
,
1000
0001
0100
0010
1000
0001
1000
0010
,
0100
0000
0001
0000
1000
0100
1000
0000
0001
0000
0000
0010
0000
0000
1000
0000
,
0000
0100
0000
0000
0001
0000
0001
0000
1000
0000
0010
0000
0100
0000
0010
0000
,
0000
1000
0000
1000
0000
1000
0000
0000
0010
0000
0100
0000
0002
0000
0000
0000
,
0000
0000
0003
0000
0010
0001
1000
0000
,
0010
0010
0000
0100
0010
0100
0000
0001
,
0000
1000
0000
0000
0001
0010
0010
1000
,
0010
0010
0001
0010
0010
1000
0010
0010
,
0001
0000
0100
0010
2000
0000
3000
0001
,
0010
0100
1000
0001
0100
0010
0000
1000
,
0000
0100
0000
0000
0001
0100
1000
0010
,
0002
0000
0000
0003
,
0000
0000
0000
0000
0000
0000
0000
0000
0010
0100
0010
0000
0001
0000
0001
0000
,
0100
0010
0100
0000
0001
0000
0001
0000
0010
0100
0010
0000
0001
0000
0001
0000
,
2002
0000
0000
0000
3003
0000
0000
0000
0010
0100
0010
0000
1000
0000
1000
0000
,
0100
0010
0100
0000
1000
0000
1000
0000
0010
0100
0010
0000
1000
0000
1000
0000
,
2002
0000
3003
0000
0100
0001
0010
0001
,
0100
0000
0010
0000
1000
0000
0100
0000
0010
0100
0010
0100
0020
0000
0000
0000
,
0000
0000
0000
0000
0030
0001
0100
0010
,
1000
0100
0010
0001
0100
0001
1000
0010
,
1000
0000
0100
0000
0010
0000
0001
0000
2000
0000
0000
0000
3000
0000
0001
0100
,
0002
0000
0003
1000
0100
0010
0100
0001
,
0200
0000
0300
0000
1000
0100
0010
0001
,
1000
0000
0001
0100
0001
0100
0001
0000
2002
0000
0000
0000
0000
0000
0000
0000
,
0000
3003
0020
0000
,
0000
0030
0200
0000
,
0000
0000
0300
0000
1000
0010
0100
0001
,
1000
0001
0100
0010
1000
0001
1000
0010
,
0100
0000
0001
0000
1000
0100
1000
0000
0020
0000
0000
0000
0000
0000
0000
0000
,
0000
0030
0200
0000
,
0000
0000
0300
0000
0001
0010
0100
1000
,
0001
1000
0100
0010
0001
1000
0001
0010
,
0100
0000
1000
0000
0001
0100
0001
0000
1000
0000
0000
0010
0000
0000
0002
0000
,
0000
0000
0003
0100
0001
0010
0100
0010
,
0000
0001
0000
0001
0000
0001
0000
2002
0000
0000
3003
0000
0000
0000
0000
0000
,
0000
0000
0000
0000
;
#NOTES:
     dance-single:
     :
     Hard:
     14:
     :
0000
0000
0000
0000
,
0000
0000
0000
0000
,
0000
0000
0000
0000
0000
0000
0000
0000
1000
0100
1000
0100
0000
0010
0100
0010
,
0100
0000
0001
0000
0100
1000
0001
0000
1000
0010
0000
0001
0010
0000
1000
0010
,
1000
0001
1000
0001
0000
0100
0010
0100
0010
0000
0010
0000
0100
0001
0100
0000
,
0010
1000
0100
0000
0011
0000
1100
0000
0001
0100
0001
0100
0000
0010
0100
0010
,
0100
0000
1000
0000
0100
0001
1000
0000
0001
0010
0000
1000
0010
0000
0001
0010
,
0001
1000
0001
1000
0000
0100
0010
0100
0010
0000
0010
0000
0100
1000
0100
0000
,
1000
0100
0000
0001
0100
0000
1000
0100
1000
0000
1000
0000
0000
0010
0000
0010
,
0000
0010
0010
0000
0001
0001
0000
0001
0100
0100
0000
0100
0000
1000
0000
1000
,
0001
0100
0010
1000
0000
0100
1000
0000
0010
0000
0100
0000
0010
1000
0100
0000
,
0010
0000
0100
0000
0010
0001
0100
0001
0010
0000
0100
0000
0010
0001
0100
0000
,
0010
0000
0100
0000
0010
1000
0100
1000
0010
0000
0100
0000
0010
1000
0100
0000
,
0010
0000
0100
0000
0010
0001
0100
0001
0010
0000
0100
0000
0010
0001
0100
0000
,
0010
0000
0100
0000
0010
1000
0100
1000
0001
0000
1000
0000
0001
0100
1000
0000
,
0001
0000
1000
0000
0001
0010
1000
0010
0001
0000
1000
0000
0001
0010
1000
0000
,
0001
0000
1000
0000
0001
0010
1000
0010
0001
0000
1000
0000
0001
0010
1000
0000
,
0001
0000
1000
0000
0001
0100
1000
0100
0001
0000
1000
0000
0001
0100
1000
0000
,
0001
0000
1000
0000
0001
0100
1000
0100
0001
0100
0010
0000
0101
0000
1010
0000
,
1000
0100
0010
0000
1100
0000
0011
0000
0001
0100
0010
0000
0101
0000
1010
0000
,
0200
0000
0000
0000
0300
0000
0000
0000
1000
0010
0100
0000
1100
0000
0101
0000
,
0001
0010
0100
0000
0101
0000
1100
0000
1000
0010
0100
0000
1100
0000
0101
0000
,
2000
3000
0002
0000
,
0000
0003
0020
0000
,
0000
0000
0000
0000
0030
0000
0000
0000
0001
0100
0001
0100
0010
0100
0010
0100
,
1000
0100
1000
0100
0010
0100
0010
0100
0001
0010
0001
0010
0100
0010
0100
0010
,
1000
0010
1000
0010
0100
0010
0100
0010
0002
0000
0000
0000
0000
0000
0000
0000
,
0000
0003
2000
0000
,
0000
0000
0000
0000
3000
0000
0000
0000
1000
0100
1000
0100
0010
0100
0010
0100
,
0001
0100
0001
0100
0010
0100
0010
0100
1000
0010
1000
0010
0100
0010
0100
0010
,
0001
0010
0001
0010
0100
0010
0100
0010
1000
0010
0000
0100
0001
0000
1000
0010
,
0000
0100
0001
0000
1000
0100
0010
0001
1000
0001
0010
0100
1000
0001
1000
0100
,
0000
1000
0010
0001
0010
1000
0000
0001
0010
0000
0100
0000
2000
0000
0000
0000
,
0000
0000
0000
0000
3010
1000
0100
1000
,
0010
0010
0000
0100
0001
0010
0000
0100
,
0000
0010
0000
0000
0002
0010
2003
0010
,
3002
0100
2003
0100
3020
0100
2030
0001
,
3100
0000
0000
0000
0100
0000
0010
0000
0002
0000
0000
0000
0003
0000
1000
0001
,
1000
0100
0010
0001
1000
0010
0100
0001
1000
0000
0010
0000
0000
0000
0001
0000
,
0000
0100
0000
0000
1000
0100
0001
0010
,
2000
0000
0000
0000
0000
0000
0000
0000
0000
0000
0000
0000
3000
0000
0010
1000
,
0100
0010
0001
0100
0010
0100
0000
0100
0001
0100
0010
0000
0101
0000
1010
0000
,
1000
0100
0010
0000
1100
0000
0011
0000
0001
0100
0010
0000
0101
0000
1010
0000
,
0200
0000
0000
0000
0300
0000
0000
0000
1000
0010
0100
0000
1100
0000
0101
0000
,
0001
0010
0100
0000
0101
0000
1100
0000
1000
0010
0100
0000
1100
0000
0101
0000
,
2000
0000
0000
0000
3000
0000
0000
0000
0100
1000
0010
1000
0001
0100
0010
1000
,
0001
0010
0100
1000
0001
0010
0001
0100
0001
1000
0100
0010
0002
0000
0000
0000
,
0000
0000
0000
0000
0000
0000
0000
0000
0003
1000
0001
1000
0100
0000
0010
0100
,
0000
0000
0000
1000
0000
0000
0001
0000
0000
0000
0000
0000
0100
0000
0000
0001
0000
0000
0000
0000
0000
1000
0000
0000
0100
0000
1000
0000
0100
0000
1000
0000
0000
0000
0000
0000
0001
0000
0010
0000
0001
0000
0010
0000
0000
0000
0000
0000
,
0001
0100
0001
0100
0000
0000
0010
1000
0010
1000
0000
0000
0002
0000
0000
0000
0000
0000
0003
0000
0000
1000
0100
1000
,
0200
0000
0000
0000
0300
0000
0010
0000
0001
0100
0010
1000
0001
1000
0010
0100
,
0002
0000
0000
0000
0003
0000
0000
0000
1000
0000
0001
0100
1000
0000
0001
0010
,
1000
0000
0001
0010
1000
0010
0001
0000
0220
0000
0000
0000
0000
0000
0000
0000
,
0000
0330
2000
0000
,
0000
3000
0020
0000
,
0000
0000
0000
0000
0030
0000
0000
0000
1000
0100
1000
0100
0010
0100
0010
0100
,
0001
0100
0001
0100
0010
0100
0010
0100
1000
0010
1000
0010
0100
0010
0100
0010
,
0001
0010
0001
0010
0100
0010
0100
0010
2000
0000
0000
0000
0000
0000
0000
0000
,
0000
3000
0002
0000
,
0000
0000
0000
0000
0003
0000
0000
0000
0001
0100
0001
0100
0010
0100
0010
0100
,
1000
0100
1000
0100
0010
0100
0010
0100
0001
0010
0001
0010
0100
0010
0100
0010
,
1000
0010
1000
0010
0100
0010
0100
0010
0001
0010
0000
0100
1000
0000
0001
0020
,
0000
0000
0000
0000
0030
0100
0010
0001
1000
0001
0010
0100
1000
0001
1000
0100
,
0000
0001
0100
1000
0010
0001
0000
2002
0000
0000
3003
0000
0000
0000
0000
0000
,
0000
0000
0000
0000
;
#NOTES:
     dance-double:
     :
     Easy:
     6:
     :
00000000
00000000
00000000
00000000
,
00000000
00000000
00000000
00000000
,
00000000
00000000
00000001
00000100
,
00001000
00010000
00001000
00001000
,
00010000
01000000
10000000
00100000
,
01000000
01000000
10000000
00100000
,
00010000
00001000
00010000
00010000
,
00001000
00000010
00000001
00000100
,
00000010
00000010
00002000
00000000
,
00000000
00003000
00000002
00000000
,
00000000
00000003
00001000
00000010
,
00000001
00000010
00001000
00000100
,
00010000
00001000
00010000
00000000
00001000
00000000
00010000
00000000
,
00100000
10000000
01000000
00010000
,
01000000
00100000
01000000
00000000
00010000
00000000
00100000
00000000
,
10000000
00100000
00010000
01000000
,
00001000
00010000
00001000
00000000
00010000
00000000
00001000
00000000
,
00000010
00000001
00000100
00001000
,
00000100
00000010
00000100
00000000
00000001
00000001
00000001
00000000
,
00000100
00000100
00000100
00000000
00001000
00001000
00001000
00000000
,
00022000
00000000
00033000
00000000
00010000
00010000
00010000
00000000
,
01000000
01000000
01000000
00000000
10000000
10000000
10000000
00000000
,
20020000
30030000
02000000
00000000
,
00000000
03000000
00200000
00000000
,
00000000
00000000
00300000
00000000
10000000
01000000
10000000
00000000
,
01000000
00010000
01000000
00000000
00010000
00001000
00010000
00000000
,
00001000
00000010
00001000
00000000
00000020
00000000
00000000
00000000
,
00000000
00000030
00000200
00000000
,
00000000
00000000
00000300
00000000
00000001
00000100
00000001
00000000
,
00000100
00001000
00000100
00000000
00001000
00010000
00001000
00000000
,
00010000
00100000
00010000
00000000
00100000
00000000
00000000
10000000
,
00000000
01000000
00010000
00001000
,
00000100
00000001
00000010
00000200
,
00000000
00000300
00000010
00000001
,
00001000
00000000
00000001
00000100
,
00000010
00000000
00000100
00001000
,
00010000
00100000
10000000
01000000
,
00010000
01000000
20000000
30000000
,
00020000
00030000
10000000
00100000
,
00010000
00001000
00000010
00000001
,
00002000
00000000
00000000
00003000
,
00000000
00000000
00000000
00000000
00000001
00000001
00000001
00000000
,
00000100
00000100
00000100
00000000
00001000
00001000
00001000
00000000
,
00022000
00000000
00033000
00000000
00010000
00010000
00010000
00000000
,
01000000
01000000
01000000
00000000
10000000
10000000
10000000
00000000
,
20020000
30030000
00100000
10000000
,
01000000
00010000
00001000
00002000
,
00000000
00003000
00010000
00001000
,
00000100
00000001
00000010
00001000
,
00000010
00000001
00000200
00000300
,
00000020
00000000
00000030
00000000
00010000
00001000
00010000
00000000
,
00022000
00033000
00001000
00010000
,
00100000
10000000
20020000
00000000
,
00000000
30030000
02000000
00000000
,
00000000
03000000
00200000
00000000
,
00000000
00000000
00300000
00000000
10000000
01000000
10000000
00000000
,
01000000
00010000
01000000
00000000
00010000
00001000
00010000
00000000
,
00001000
00000010
00001000
00000000
00000020
00000000
00000000
00000000
,
00000000
00000030
00000200
00000000
,
00000000
00000000
00000300
00000000
00000001
00000100
00000001
00000000
,
00000100
00001000
00000100
00000000
00001000
00010000
00001000
00000000
,
00010000
00100000
00010000
00000000
00100000
00000000
00000000
10000000
,
00000000
00000000
01000000
00010000
,
00001000
00000010
00000000
00000000
,
00000000
00000000
00000000
00000000
;
#NOTES:
     dance-double:
     :
     Medium:
     11:
     :
00000000
00000000
00000000
00000000
,
00000000
00000000
00000000
00000000
,
00000000
00000000
00000000
00000000
00000000
00000000
00000000
00000000
10000000
00000000
00000000
00100000
00000000
00000000
00100000
00000000
,
10000000
00000000
01000000
00000000
00010000
00000000
00000000
00000000
00001000
00000000
00000000
00010000
00000000
00000000
00010000
00000000
,
00000010
00000000
00000000
00001000
00000000
00000000
00001000
00000000
00000100
00000000
00000010
00000000
00000001
00000000
00000000
00000000
,
00001000
00000001
00001000
00000000
00000010
00000000
00000100
00000000
00000001
00000000
00000000
00000010
00000000
00000000
00000010
00000000
,
00000001
00000000
00000100
00000000
00001000
00000000
00000000
00000000
00010000
00000000
00000000
00001000
00000000
00000000
00001000
00000000
,
00100000
00000000
00000000
00010000
00000000
00000000
00010000
00000000
01000000
00000000
00100000
00000000
10000000
00000000
00000000
00000000
,
01000000
00000000
00000000
00100000
00000000
00000000
00100000
00000000
01000000
00000000
01000000
00000000
00000000
00010000
00000000
00010000
,
00000000
00010000
00000000
00000000
00001000
00000000
00001000
00000000
00001000
00000000
00000000
00000010
00000000
00000010
00000000
00000010
,
00000000
00000001
00000001
00000001
00001000
00000100
00000010
00000001
,
00001000
00000001
00001000
00000001
00000100
00000010
00010000
00001000
,
01000000
00100000
01000000
00100000
10000000
01000000
00100000
00010000
,
10000000
00010000
10000000
00010000
10000000
01000000
00010000
00001000
,
00010000
00001000
00010000
00000000
00001000
01000000
00100000
10000000
,
00010000
10000000
00010000
10000000
01000000
00100000
00001000
00010000
,
00000100
00000010
00000100
00000010
00000001
00000100
00000010
00001000
,
00000001
00001000
00000001
00001000
00000001
00000100
00001000
00010000
,
00001000
00000000
00010000
00000000
00001000
00000000
00000000
00000000
00010000
00001000
00010000
00000000
00000010
00000000
00010000
00000000
,
00001000
00010000
00001000
00000000
00100000
00000000
00001000
00000000
00010000
00001000
00010000
00000000
00000010
00000000
00010000
00000000
,
00022000
00000000
00000000
00000000
00033000
00000000
00000000
00000000
00001000
00010000
00001000
00000000
01000000
00000000
00001000
00000000
,
00010000
00001000
00010000
00000000
00000100
00000000
00010000
00000000
00001000
00010000
00001000
00000000
01000000
00000000
00001000
00000000
,
00022000
00033000
00200000
00000000
,
00000000
00300000
02000000
00000000
,
00000000
00000000
03000000
00000000
10000000
00100000
10000000
01000000
,
00010000
00001000
00000100
00000001
00000010
00001000
00000010
00000001
,
00000100
00001000
00010000
00000000
00000020
00000000
00000000
00000000
,
00000000
00000030
00000200
00000000
,
00000000
00000000
00000300
00000000
00000001
00000010
00000001
00000100
,
00001000
00010000
01000000
10000000
00100000
00010000
00100000
10000000
,
01000000
00000000
00010000
00000000
00001000
00000000
00000000
00000000
00010000
00000000
00000000
00001000
00000000
00000000
00000010
00000000
,
00000000
00000001
00000000
00000000
00000100
00000000
00001000
00000000
00000100
00000000
00000001
00000000
00000010
00000000
00001000
00000000
,
00000000
00010000
00000000
00010000
00000000
00010000
00000000
00000000
00100000
00000000
10000000
00000000
00020000
00000000
00000000
00000000
,
00000000
00000000
00030000
00000000
00100000
00010000
01000000
00000000
,
00100000
00100000
00000000
10000000
01000000
00010000
00000000
00001000
,
00000000
00010000
00000000
00000000
00000010
00001000
00001000
00010000
,
00001000
00001000
00000100
00001000
00001000
00010000
00001000
00001000
,
00000010
00000000
00000100
00000010
00002000
00000000
00003000
00000001
,
00000010
00001000
00000010
00000001
00000100
00001000
00000000
00010000
,
00000000
00001000
00000000
00000000
00010000
01000000
10000000
00100000
,
02000000
00000000
00000000
03000000
,
00000000
00000000
00000000
00000000
00000000
00000000
00000000
00000000
00001000
00010000
00001000
00000000
00100000
00000000
00001000
00000000
,
00010000
00001000
00010000
00000000
00000010
00000000
00010000
00000000
00001000
00010000
00001000
00000000
00100000
00000000
00001000
00000000
,
00022000
00000000
00000000
00000000
00033000
00000000
00000000
00000000
00010000
00001000
00010000
00000000
00000100
00000000
00010000
00000000
,
00001000
00010000
00001000
00000000
01000000
00000000
00001000
00000000
00010000
00001000
00010000
00000000
00000100
00000000
00010000
00000000
,
00022000
00000000
00033000
00000000
00001000
00000010
00000001
00000100
,
00001000
00000100
00000001
00000010
00001000
00010000
00002000
00000000
,
00000000
00000000
00000000
00000000
00003000
00010000
00100000
10000000
,
01000000
00010000
01000000
10000000
00100000
01000000
00010000
00100000
,
00001000
00000000
00010000
00000000
00000100
00000000
00001000
00000000
00000002
00000000
00000000
00000000
00000003
00000000
00000100
00000010
,
00000200
00000000
00000300
00000010
00001000
00000100
00000001
00000100
,
00002000
00000000
00003000
00000000
00000001
00000100
00001000
00010000
,
00100000
00000000
01000000
00100000
01000000
00100000
01000000
00000000
20020000
00000000
00000000
00000000
00000000
00000000
00000000
00000000
,
00000000
30030000
02000000
00000000
,
00000000
03000000
00200000
00000000
,
00000000
00000000
00300000
00000000
10000000
01000000
10000000
00100000
,
00010000
00001000
00000010
00000001
00000100
00001000
00000100
00000001
,
00000010
00001000
00010000
00000000
00000200
00000000
00000000
00000000
,
00000000
00000300
00000020
00000000
,
00000000
00000000
00000030
00000000
00000001
00000100
00000001
00000010
,
00001000
00010000
00100000
10000000
01000000
00010000
01000000
10000000
,
00100000
00000000
00010000
00000000
00001000
00000000
00000000
00000000
00010000
00000000
00000000
00001000
00000000
00000000
00000200
00000000
,
00000000
00000000
00000300
00001000
00000100
00000001
00000010
00001000
,
00000000
00010000
00000000
00010000
00000000
00010000
00000000
00022000
00000000
00000000
00033000
00000000
00000000
00000000
00000000
00000000
,
00000000
00000000
00000000
00000000
;
#NOTES:
     dance-double:
     :
     Hard:
     14:
     :
00000000
00000000
00000000
00000000
,
00000000
00000000
00000000
00000000
,
00000000
00000000
00000000
00000000
00000000
00000000
00000000
00000000
00000001
00000100
00000001
00000100
00000000
00000010
00001000
00000010
,
00001000
00000000
00000100
00000000
00010000
00001000
00100000
00000000
00010000
01000000
00000000
10000000
01000000
00000000
00010000
00000000
,
10000000
01000000
10000000
01000000
00000000
00100000
00010000
00100000
00010000
00000000
01000000
00000000
00001000
00010000
00000010
00000000
,
00001000
00000001
00000100
00000000
00001010
00000000
00000101
00000000
00000010
00000100
00000010
00000100
00000000
00001000
00010000
00001000
,
00010000
00000000
00001000
00000000
00010000
01000000
10000000
00000000
00010000
00100000
00000000
10000000
00100000
00000000
00010000
00000000
,
00100000
01000000
00100000
01000000
00000000
00010000
00001000
00010000
00001000
00000000
00010000
00000000
00001000
00000100
00000001
00000000
,
00001000
00000010
00000000
00000001
00000010
00000000
00001000
00000000
00000001
00000000
00000001
00000000
00000000
00000100
00000000
00000100
,
00000000
00000100
00001000
00000000
00001000
00010000
00000000
00010000
00000000
01000000
00000000
01000000
00000000
10000000
00000000
10000000
,
00100000
01000000
00010000
10000000
00000000
00100000
01000000
00000000
00100000
00000000
10000000
00000000
00100000
10000000
00100000
00000000
,
00010000
00000000
00100000
00000000
00010000
00100000
00010000
00000000
00001000
00000000
00010000
00000000
00001000
00010000
00001000
00000000
,
00000010
00000000
00001000
00000000
00000010
00001000
00000010
00000000
00000001
00000000
00000010
00000000
00000001
00000010
00000001
00000000
,
00000100
00000000
00000001
00000000
00000100
00000001
00000100
00000000
00001000
00000000
00000100
00000000
00001000
00000100
00001000
00000000
,
00010000
00000000
00001000
00000000
00010000
00001000
00010000
00001000
00010000
00000000
00001000
00000000
00000010
00001000
00010000
00000000
,
00001000
00000000
00010000
00000000
01000000
00010000
00001000
00000000
00010000
00000000
00001000
00000000
00000100
00001000
00010000
00000000
,
00001000
00000000
00010000
00000000
00100000
00010000
00001000
00000000
00010000
00000000
00001000
00000000
00100000
01000000
00010000
00000000
,
00001000
00000000
00010000
00000000
00000010
00000100
00001000
00000000
00010000
00000000
00001000
00000000
01000000
00100000
00010000
00000000
,
00001000
00000000
00010000
00000000
00000100
00000010
00001000
00000000
00010000
00100000
10000000
00000000
00010000
00000000
10010000
00000000
,
10000000
01000000
00010000
00000000
00001000
00000000
00011000
00000000
00001000
00000100
00000001
00000000
00001000
00000000
00001001
00000000
,
00000200
00000000
00000000
00000000
00000300
00000000
00000000
00000000
00001000
00000010
00000001
00000000
00001000
00000000
00001001
00000000
,
00000001
00000100
00001000
00000000
00010000
00000000
00011000
00000000
00010000
01000000
10000000
00000000
00010000
00000000
10010000
00000000
,
02000000
03000000
00200000
00000000
,
00000000
00300000
20000000
00000000
,
00000000
00000000
00000000
00000000
30000000
00000000
00000000
00000000
10000000
01000000
10000000
01000000
00100000
00010000
00100000
00010000
,
00001000
00010000
00001000
00010000
00001000
00000100
00001000
00000100
00000010
00000001
00000010
00000001
00000100
00000001
00000100
00000001
,
00001000
00000010
00001000
00000010
00000100
00000001
00000100
00000001
00002000
00000000
00000000
00000000
00000000
00000000
00000000
00000000
,
00000000
00003000
00000002
00000000
,
00000000
00000000
00000000
00000000
00000003
00000000
00000000
00000000
00000001
00000100
00000001
00000100
00000010
00001000
00000010
00001000
,
00010000
00001000
00010000
00001000
00010000
01000000
00010000
01000000
00100000
10000000
00100000
10000000
01000000
10000000
01000000
10000000
,
00010000
00100000
00010000
00100000
01000000
10000000
01000000
10000000
01000000
00010000
00000000
01000000
10000000
00000000
01000000
00010000
,
00000000
01000000
10000000
00000000
00010000
01000000
00001000
00010000
00000010
00001000
00000100
00000010
00000001
00000100
00000010
00001000
,
00000000
00000001
00000010
00000100
00010000
00001000
00000000
00100000
00010000
00000000
01000000
00000000
00200000
00000000
00000000
00000000
,
00000000
00000000
00000000
00000000
10300000
01000000
00100000
01000000
,
10000000
10000000
00000000
00100000
00010000
00001000
00000000
00010000
,
00000000
00001000
00000000
00000000
00020000
00001000
00030020
00001000
,
00020030
00001000
00030200
00000010
00002300
00000010
00003002
00001000
,
00000103
00000000
00000000
00000000
00000100
00000000
00000010
00000000
00002000
00000000
00000000
00000000
00003000
00000000
00000001
00000010
,
00001000
00010000
00001000
00010000
01000000
00100000
01000000
00100000
00010000
00000000
01000000
00000000
00000000
00000000
10000000
00000000
,
00000000
01000000
00000000
00000000
00001000
00010000
01000000
10000000
,
00200000
00000000
00000000
00000000
00000000
00000000
00000000
00000000
00000000
00000000
00000000
00000000
00300000
00000000
01000000
00010000
,
00100000
00001000
00010000
00001000
00100000
00001000
00000000
00010000
00001000
00000010
00000001
00000000
00001000
00000000
00001001
00000000
,
00000001
00000100
00001000
00000000
00010000
00000000
00011000
00000000
00010000
01000000
10000000
00000000
00010000
00000000
10010000
00000000
,
02000000
00000000
00000000
00000000
03000000
00000000
00000000
00000000
00010000
00100000
10000000
00000000
00010000
00000000
10010000
00000000
,
10000000
01000000
00010000
00000000
00001000
00000000
00011000
00000000
00001000
00000100
00000001
00000000
00001000
00000000
00001001
00000000
,
00000200
00000000
00000000
00000000
00000300
00000000
00000000
00000000
00000001
00000010
00000100
00001000
00000001
00000100
00000010
00001000
,
00000100
00010000
00001000
00100000
00010000
01000000
00100000
10000000
00010000
10000000
01000000
00100000
00020000
00000000
00000000
00000000
,
00000000
00000000
00000000
00000000
00000000
00000000
00000000
00000000
00030000
10000000
00100000
01000000
00100000
00000000
10000000
01000000
,
00000000
00000000
00000000
01000000
00000000
00000000
00010000
00000000
00000000
00000000
00000000
00000000
00010000
00000000
00000000
00001000
00000000
00000000
00000000
00000000
00000000
00001000
00000000
00000000
00000010
00000000
00000100
00000000
00000010
00000000
00000100
00000000
00000000
00000000
00000000
00000000
00001000
00000000
00000001
00000000
00001000
00000000
00000001
00000000
00000000
00000000
00000000
00000000
,
00000100
00000001
00000100
00000001
00000000
00000000
00001000
00000010
00001000
00000010
00000000
00000000
00000200
00000000
00000000
00000000
00000000
00000000
00000300
00000000
00000000
00000010
00000100
00000010
,
00000200
00000000
00000000
00000000
00000300
00000000
00000001
00000000
00000010
00000001
00001000
00000100
00010000
00001000
00100000
00010000
,
20000000
00000000
00000000
00000000
30000000
00000000
00000000
00000000
00100000
00000000
10000000
01000000
00010000
00000000
00001000
00010000
,
00001000
00000000
00010000
00001000
00000100
00000001
00001000
00000000
00000220
00000000
00000000
00000000
00000000
00000000
00000000
00000000
,
00000000
00000330
00000002
00000000
,
00000000
00000003
00002000
00000000
,
00000000
00000000
00000000
00000000
00003000
00000000
00000000
00000000
00000001
00000100
00000001
00000100
00001000
00000100
00001000
00000100
,
00001000
00010000
00001000
00010000
00100000
00010000
00100000
00010000
00100000
10000000
00100000
10000000
01000000
10000000
01000000
10000000
,
01000000
00100000
01000000
00100000
00010000
00100000
00010000
00100000
00020000
00000000
00000000
00000000
00000000
00000000
00000000
00000000
,
00000000
00030000
20000000
00000000
,
00000000
00000000
00000000
00000000
30000000
00000000
00000000
00000000
10000000
01000000
10000000
01000000
00010000
01000000
00010000
01000000
,
00010000
00001000
00010000
00001000
00000010
00001000
00000010
00001000
00000010
00000001
00000010
00000001
00000100
00000001
00000100
00000001
,
00000100
00000010
00000100
00000010
00001000
00000010
00001000
00000010
00000100
00000001
00000000
00000100
00001000
00000000
00000100
00000001
,
00002000
00000000
00000000
00000000
00003000
00000100
00010000
00001000
00100000
00010000
01000000
00100000
10000000
01000000
00100000
00010000
,
00000000
10000000
00100000
01000000
00001000
00010000
00000000
00022000
00000000
00000000
00033000
00000000
00000000
00000000
00000000
00000000
,
00000000
00000000
00000000
00000000
;
