
//----- song ID: nopl -----//
#TITLE:ノープラン・デイズ;
#ARTIST:TORIENA;
#TITLETRANSLIT:No plan days;
#BANNER:No plan days.png;
#BACKGROUND:No plan days-bg.png;
#CDTITLE:./CDTitles/OVER 200.png;
#MUSIC:No plan days.ogg;
#SAMPLESTART:37.617;
#SAMPLELENGTH:15;
#BPMS:0=210;
#NOTES:
     dance-single:
     :
     Beginner:
     3:
     :
0000
0000
0000
0000
,
0000
0000
0000
0000
,
0000
0000
0000
0000
,
0000
0000
0000
0000
,
0000
0000
0000
0000
,
1000
0000
0100
0000
,
1000
0000
0000
0000
,
0001
0000
0100
0000
,
0001
0000
0000
0000
,
0001
0000
0000
0000
,
0010
0000
0000
0000
,
0100
0000
0100
0000
,
0100
0000
0000
0000
,
1000
0000
0000
0000
,
0010
0000
0000
0000
,
0100
0000
0100
0000
,
0100
0000
0000
0000
,
0001
0000
0001
0000
,
0100
0000
0000
0000
,
1000
0000
1000
0000
,
1000
0000
0000
0000
,
1000
0000
1000
0000
,
0010
0000
0000
0000
,
0001
0000
0001
0000
,
0001
0000
0000
0000
,
0010
0000
0001
0000
,
0100
0000
0000
0000
,
0100
0000
0001
0000
,
0010
0000
0000
0000
,
0010
0000
1000
0000
,
0100
0000
0000
0000
,
0100
0000
1000
0000
,
0010
0000
0000
0000
,
1000
0000
1000
0000
,
0100
0000
0000
0000
,
0100
0000
0100
0000
,
0010
0000
0000
0000
,
1001
0000
0000
0000
,
0010
0000
0001
0000
,
0010
0000
0000
0000
,
0100
0000
0000
0000
,
0001
0000
0001
0000
,
0010
0000
0000
0000
,
0010
0000
0010
0000
,
0100
0000
0000
0000
,
1001
0000
0000
0000
,
0100
0000
1000
0000
,
0100
0000
0000
0000
,
0010
0000
0000
0000
,
0002
0000
0000
0000
,
0003
0000
0000
0000
,
0020
0000
0000
0000
,
0030
0000
0000
0000
,
0200
0000
0000
0000
,
0300
0000
0000
0000
,
2000
0000
0000
0000
,
3000
0000
0000
0000
,
1000
0000
1000
0000
,
0100
0000
0100
0000
,
0010
0000
0010
0000
,
0001
0000
0000
0000
,
0001
0000
1000
0000
,
1001
0000
0000
0000
,
0110
0000
0000
0000
,
1001
0000
0000
0000
,
1000
0000
1000
0000
,
0010
0000
0000
0000
,
0010
0000
0010
0000
,
0001
0000
0000
0000
,
0001
0000
0001
0000
,
0100
0000
0000
0000
,
0100
0000
0100
0000
,
1000
0000
0000
0000
,
0010
0000
0010
0000
,
1000
0000
1000
0000
,
0100
0000
0010
0000
,
0100
0000
0000
0000
,
0001
0000
0100
0000
,
0001
0000
0100
0000
,
0010
0000
1000
0000
,
0010
0000
0000
0000
,
0010
0000
0010
0000
,
0001
0000
0001
0000
,
0100
0000
0010
0000
,
0100
0000
0000
0000
,
1000
0000
1000
0000
,
0100
0000
0100
0000
,
0010
0000
0001
0000
,
0010
0000
0000
0000
,
0002
0000
0000
0000
,
0003
0000
0000
0000
,
0002
0000
0000
0000
,
0003
0000
0000
0000
,
2000
0000
0000
0000
,
3000
0000
0000
0000
,
2000
0000
0000
0000
,
3000
0000
0000
1001
,
0000
0000
0000
0000
;
#NOTES:
     dance-single:
     :
     Easy:
     9:
     :
0000
0000
0000
0000
,
0000
0000
0000
0000
,
0000
0000
0000
0000
,
0000
0000
0000
0000
,
0000
0000
0000
0000
,
1000
0100
1000
0000
,
0100
0001
0100
0000
,
0001
0010
0001
0000
,
1000
0010
1000
0000
,
0001
0100
0001
0100
,
0010
1000
0100
1000
,
0100
0100
0010
0010
,
0001
0000
0000
1001
0000
0000
1000
0000
,
0010
0100
0010
0100
,
0001
0010
1000
0010
,
0001
0001
1000
1000
,
0010
0100
0010
0000
0200
0000
0300
0000
,
0001
0100
0010
1000
,
0001
0010
0100
1000
,
0010
0000
1001
0000
1000
0100
1000
0000
,
0010
0010
0010
0000
,
1000
0100
0010
0100
,
0010
0001
1000
0001
,
0100
0010
1000
0001
,
0010
0100
1001
0000
,
1000
0010
0100
0001
,
0010
0010
0010
0000
,
0010
0001
1000
0100
,
1000
1000
1000
0000
,
0001
0100
0010
1000
,
0100
0100
0100
0000
,
0100
1000
0001
0010
,
0001
0001
0001
0000
,
1000
0100
1000
0100
,
0001
0100
0001
0100
,
1000
0100
0010
0001
,
0100
0000
0010
0000
1000
0001
1000
0000
,
1001
0000
0010
0010
,
0100
0100
0100
0000
,
0002
0103
0200
0310
,
0020
1030
1001
0000
,
0001
0010
0001
0010
,
1000
0010
1000
0010
,
0001
0010
0100
1000
,
0010
0000
0100
0000
0001
1000
0001
0000
,
1001
0000
0100
0100
,
0010
0010
0010
0000
,
2000
3010
0020
0130
,
0200
0301
1001
0000
,
0001
0010
0001
0000
,
0010
1000
0010
0000
,
1000
0100
1000
0000
,
0100
0001
0100
0000
,
0010
0001
0010
0000
,
0001
0100
0001
0000
,
0100
1000
0100
0000
,
1000
0010
1000
0000
,
0010
0100
0001
1000
,
0100
0100
0100
0000
,
0010
0001
0010
0100
,
1000
0001
1001
0000
,
0001
0100
1000
0100
,
0001
0010
0001
0100
,
0010
1000
0010
0100
,
0001
1000
0001
0000
2002
0000
3003
0000
,
1000
0000
0010
0000
1000
0100
1000
0000
,
0001
0001
0001
0000
,
1000
0000
0001
0000
0010
0001
0010
0000
,
0100
0100
0100
0000
,
0001
0000
1000
0000
0010
0100
0010
0000
,
1000
1000
1000
0000
,
0100
0000
0010
0000
0001
0100
0001
0000
,
0010
0010
0010
0000
,
0001
1000
0001
1000
,
0010
0100
0010
0100
,
0001
0010
0100
0010
,
0001
1000
0100
0010
,
0001
0000
0000
0000
0001
1000
0001
0000
,
0100
0010
1000
0000
,
0100
0100
0010
0010
,
0001
0001
1000
0000
,
1000
0001
1000
0001
,
0100
0010
0100
0010
,
1000
0100
0010
0100
,
1000
0001
0010
0100
,
1000
0000
0000
0000
1000
0001
1000
0000
,
0010
0100
0001
0000
,
0010
0010
0100
0100
,
1000
1000
0001
0000
,
0010
1000
0100
0000
,
0010
1000
0100
0000
,
0100
0001
0010
0000
,
0100
0001
0010
0000
,
0100
1000
0010
0000
,
0100
1000
0010
0000
,
0010
0001
0100
0000
,
0010
0001
0100
0110
,
0000
0000
0000
0000
;
#NOTES:
     dance-single:
     :
     Medium:
     12:
     :
0000
0000
0000
0000
,
0000
0000
0000
0000
,
0000
0000
0000
0000
,
0000
0000
0000
0000
,
0000
0000
0000
0000
,
1000
0000
1000
0000
0100
0010
0100
0000
,
0001
0000
0001
0000
0100
0010
0100
0000
,
1000
0000
1000
0000
0010
0100
0010
0000
,
0001
1000
2002
3003
,
0001
0100
0010
0000
1000
0100
0010
0000
,
0001
1000
0001
1000
0001
0000
0110
0000
,
1000
0100
1000
0000
0010
0100
0010
0000
,
0001
0010
0000
1010
0000
0000
0110
0000
,
1000
0100
0010
0000
0100
1000
0001
0000
,
0100
0001
0010
0001
0100
0000
0011
0000
,
0010
0001
0100
0010
1000
0100
0010
0000
,
0001
0010
1000
0010
0002
0000
0003
0000
,
1000
0000
1000
0010
0100
0000
0100
0001
,
0010
0000
0010
0100
1000
0000
1000
0010
,
0100
0000
1001
0000
1000
0100
0001
0100
,
0000
0010
0001
1000
0100
0000
0110
0001
,
1000
0000
1001
0000
0010
0100
0001
0100
,
0000
0101
0000
1100
0000
0000
1000
0100
,
0020
0001
0230
1000
,
0310
0001
0100
0000
0110
0000
0000
0010
,
1000
0010
0100
0010
1000
0000
0100
0000
,
0010
0000
0000
0010
0000
0000
0010
0000
0200
0000
0000
0000
0310
0000
0001
0000
,
0000
0001
1000
0001
0010
0000
0001
0000
,
1000
0000
0000
1000
0000
0000
1000
0000
0002
0000
0000
0000
1003
0000
0001
0000
,
1000
0010
0100
0010
1000
0000
0100
0000
,
0010
0000
0000
0010
0000
0000
0010
0000
0200
0000
0000
0000
0310
0000
0100
0000
,
0010
0001
1000
0001
0010
0000
0001
0000
,
1000
0000
0000
1000
0000
0000
1000
0000
0002
0000
0000
0000
0003
0000
0000
0000
,
0001
0100
0001
0000
1000
0100
1000
0000
,
0001
0010
0100
1000
0010
0000
1000
0100
,
0020
0031
0002
0103
,
0200
1300
2000
3010
,
1001
0000
0110
0000
0001
0010
1000
0000
,
1000
0010
0001
0000
1001
0000
0100
0001
,
0020
0130
2000
3010
,
0200
0301
0220
0330
,
1000
0010
1000
0000
0001
0010
0001
0000
,
1000
0100
0010
0001
0100
0000
0001
0010
,
0200
1300
2000
3010
,
0020
0031
0002
0103
,
1001
0000
0110
0000
1000
0100
0001
0000
,
0001
0100
1000
0000
1001
0000
0010
1000
,
0200
0310
0002
0103
,
0020
1030
0220
0330
,
2000
0010
3001
0000
,
0002
0010
1003
0000
,
2000
0100
3001
0000
,
0002
0100
1003
0000
,
2000
0010
3100
0000
,
0002
0010
0103
0000
,
2000
0100
3010
0000
,
0002
0100
0013
0000
,
0100
0001
1000
0000
0100
1000
0001
0000
,
0100
0010
0000
0100
0010
0000
1000
0100
,
0010
0001
0010
0000
0001
1000
0010
0000
,
0100
0010
0100
0000
0220
0000
0330
0000
,
0001
0100
1000
0000
0100
0000
0001
0100
,
0000
0001
1000
0001
1000
0000
0110
0000
,
1000
0100
1000
0000
0001
0100
0010
0000
,
1010
0011
2002
3003
,
0100
1000
0001
0000
0100
0001
0010
0000
,
0100
0000
0000
0100
0000
0000
0100
0000
0010
0000
0000
0000
0010
0000
0001
0000
,
1000
0010
0100
0000
1000
0100
0001
0000
,
1000
0000
0000
1000
0000
0000
1000
0000
0001
0000
0000
0000
0001
0000
0100
0000
,
0010
1000
0001
0000
0010
0001
0100
0000
,
0010
0000
0000
0010
0000
0000
0010
0000
0100
0000
0000
0000
0100
0000
0001
0000
,
1000
0100
0010
0000
1000
0010
0001
0000
,
1000
0000
0000
1000
0000
0000
1000
0000
0002
0000
0000
0000
0003
0000
0000
0000
,
0010
1000
0010
1000
0100
0010
0100
0010
,
0001
0100
0001
0100
0010
0100
0010
0100
,
0001
0010
0100
0000
0100
1000
0010
0000
,
0100
0001
0010
0000
0010
0001
0100
0000
,
0110
0000
1001
0000
1000
0010
1000
0010
,
0001
0010
0001
0010
1000
0000
1000
0100
,
0020
0001
1000
0001
,
0230
0001
1300
1001
,
0100
0001
0100
0001
0010
0100
0010
0100
,
1000
0010
1000
0010
0100
0010
0100
0010
,
1000
0100
0010
0000
0010
0001
0100
0000
,
0010
1000
0100
0000
0100
1000
0010
0000
,
0110
0000
1001
0000
0001
0100
0001
0100
,
1000
0100
1000
0100
0001
0000
0001
0010
,
0200
1000
0001
1000
,
0320
1000
0031
1001
,
0010
0001
0100
0000
1000
0000
0000
0000
,
0001
0100
1000
0000
0010
0000
0000
0000
,
0100
1000
0010
0000
0001
0000
0000
0000
,
1000
0010
0001
0000
0100
0000
0000
0000
,
0010
1000
0100
0000
0001
0000
0000
0000
,
1000
0100
0001
0000
0010
0000
0000
0000
,
0100
0001
0010
0000
1000
0000
0000
0000
,
0010
1000
0100
0000
0001
0000
1001
0000
,
0000
0000
0000
0000
;
#NOTES:
     dance-single:
     :
     Hard:
     16:
     :
0000
0000
0000
0000
,
0000
0000
0000
0000
,
0000
0000
0000
0000
,
0000
0000
0000
0000
,
0000
0000
0000
0000
,
1000
0000
0000
1000
0000
0000
1000
0000
0100
0000
0010
0000
0100
0000
0000
0000
,
0001
0000
0000
0001
0000
0000
0001
0000
0100
0000
0010
0000
0100
0000
0000
0000
,
1000
0000
0000
1000
0000
0000
1000
0000
0010
0000
0100
0000
0010
0000
0000
0000
,
0001
0000
0000
1000
0000
0000
0001
0000
2002
0000
0000
0000
3003
0000
0000
0000
,
1000
0100
0010
0001
0100
0010
1000
0000
,
0001
0100
1000
0100
0001
0000
1000
1000
,
0010
0100
0010
0100
0001
0000
0001
1000
,
0100
1000
0000
1010
0000
0000
0010
0010
,
1000
0100
1000
0100
0001
0100
0001
0100
,
1000
0010
0100
0001
0010
0000
0011
0001
,
0100
0010
0100
0010
1000
0001
1000
0001
,
0010
0100
0001
0100
0020
0000
0030
0010
,
0001
0000
0100
0000
0001
0000
0000
0000
0010
0000
0100
1000
0001
0000
0100
0000
,
0010
0000
1000
0000
0010
0000
0000
0000
0100
0000
0001
1000
0100
0000
0010
0000
,
0001
0000
0100
0010
1000
0000
0001
0000
1000
0000
0100
0010
0001
0000
1000
0000
,
0000
1010
0000
0100
0110
0000
1001
0001
,
0100
0000
0010
1000
0100
0000
0000
0000
0001
0000
0100
0000
1000
0000
0001
0000
,
0010
0000
0100
1000
0010
0000
0000
0000
0100
0000
0010
0000
1000
0000
0001
0000
,
1000
0000
0100
0010
0001
0000
0000
0000
0100
0000
0001
0010
0100
0000
0000
0000
,
1000
0000
1000
0000
1001
0000
0110
0010
,
1000
0000
1000
0010
0001
0010
1000
0000
,
0001
0100
0000
0010
0100
0000
0010
0000
1000
0000
0000
0000
0001
0000
0100
0000
,
0001
0011
0000
1100
0000
1000
1000
0000
,
0010
1000
0000
0001
1000
0000
0001
0000
0010
0000
0000
0000
0001
0000
0100
0000
,
0010
1000
0100
0010
0100
1000
0001
0000
,
0010
0100
0000
1000
0001
0000
0010
0000
0100
0000
0000
0000
1000
0000
0100
0000
,
0001
1000
0010
0001
1000
0100
0010
0000
,
0001
0100
0000
0001
1000
0000
0010
0000
0100
0000
0000
0000
0110
0000
1000
0000
,
0001
0000
1000
0100
1000
0000
0010
0000
0100
0000
0001
0010
0001
0000
0100
0000
,
0010
0000
1000
0001
1000
0000
0100
0000
0010
0000
0000
0000
0010
0000
0001
0000
,
0100
0010
0100
0010
1000
0100
1000
0100
,
0010
0001
0100
0010
1000
0100
0010
0000
,
0001
0000
1000
0000
1100
0000
0000
0000
0100
0000
1000
0001
0100
0000
0001
0000
,
0010
0000
0100
1000
0100
0000
1000
0010
1000
0000
0000
0000
0001
0000
0100
0000
,
1000
0000
1000
0100
0001
0000
1000
0100
,
0001
0000
0001
0100
2000
0001
3001
0000
,
1000
0000
0001
0010
0001
0000
0100
0000
0010
0000
1000
0100
1000
0000
0010
0000
,
0100
0000
0001
1000
0001
0000
0010
0000
0100
0000
0000
0000
0100
0000
1000
0000
,
0010
0100
0010
0100
0001
0010
0001
0010
,
0100
1000
0010
0100
0001
0010
0100
0000
,
1000
0000
0001
0000
0011
0000
0000
0000
0010
0000
0001
1000
0010
0000
1000
0000
,
0100
0000
0010
0001
0010
0000
0001
0100
0001
0000
0000
0000
1000
0000
0010
0000
,
0001
1000
0001
1000
0100
0001
0100
0001
,
0010
1000
0010
1000
0001
0100
1000
0000
,
2000
0010
3001
0000
,
0020
0001
0130
0000
,
0002
0100
1003
0000
,
0200
1000
0310
0000
,
2000
0100
3001
0000
,
0200
0001
0310
0000
,
0002
0010
1003
0000
,
0020
1000
0130
0110
,
0010
1000
0010
1000
0100
1000
0100
1000
,
0001
0010
0000
0001
0100
0000
0001
0100
,
0010
1000
0100
0001
0010
0001
0100
1000
,
0010
0010
0100
0100
0220
0000
0330
1000
,
1100
0100
0110
0010
0011
0000
1000
0010
,
0000
0110
0100
0001
1000
0100
0010
0000
,
1000
0010
0001
1000
0100
0001
1000
0010
,
0001
0001
1000
1000
2002
0000
3003
0100
,
0001
0000
0001
0100
1000
0100
0001
0000
,
1000
0010
0000
0100
0010
0000
0100
0000
0001
0000
0000
0000
1000
0000
0010
0000
,
1000
1100
0000
0011
0000
0001
0001
0000
,
0100
0001
0000
1000
0001
0000
1000
0000
0100
0000
0000
0000
1000
0000
0010
0000
,
0100
0001
0010
0100
0010
0001
1000
0000
,
0100
0010
0000
0001
1000
0000
0100
0000
0010
0000
0000
0000
0001
0000
0010
0000
,
1000
0001
0100
1000
0001
0010
0100
0000
,
1000
0010
0000
1000
0001
0000
0100
0000
0010
0000
0000
0000
0110
0000
0001
0000
,
1000
0000
0100
0010
0001
0000
1000
0000
0001
0000
0100
0010
1000
0000
0001
0000
,
0100
0000
0010
1000
0100
0000
0010
0000
0001
0000
0000
0000
0001
0000
0100
0000
,
1000
0001
1000
0001
0010
1000
0010
1000
,
0100
0001
0100
0001
1000
0010
1000
0010
,
0001
0000
1000
0000
0001
0000
0000
0000
1000
0010
0100
0001
0100
0000
0010
0000
,
1000
0000
0100
1000
0100
0000
0010
0001
0010
0000
0000
0000
0010
0000
0100
0000
,
1000
0000
0010
0100
0001
0000
1000
0000
0001
0000
0010
0100
1000
0000
0001
0000
,
0010
0000
0001
1000
0010
0000
1000
0001
0100
0000
0000
0000
0110
0000
1000
0000
,
0001
0000
0010
0100
1000
0000
0001
0000
1000
0000
0010
0100
0001
0000
1000
0000
,
0010
0000
0100
0001
0010
0000
0100
0000
1000
0000
0000
0000
1000
0000
0010
0000
,
0001
1000
0001
1000
0100
0001
0100
0001
,
0010
1000
0010
1000
0001
0100
0001
0100
,
1000
0000
0001
0000
1000
0000
0000
0000
0001
0100
0010
1000
0010
0000
0100
0000
,
0001
0000
0010
0001
0010
0000
0100
1000
0100
0000
0000
0000
0100
0000
0010
0000
,
0001
0000
0100
0010
1000
0000
0001
0000
1000
0000
0100
0010
0001
0000
1000
0000
,
0100
0000
1000
0001
0100
0000
0001
1000
0010
0000
1000
0000
0100
0000
0000
0000
,
0010
0001
0000
0010
0001
0000
0100
0000
0001
0000
0000
0000
0100
0000
0000
0000
,
0001
0100
0000
0001
0100
0000
1000
0000
0100
0000
0000
0000
1000
0000
0000
0000
,
0100
1000
0000
0100
1000
0000
0010
0000
1000
0000
0000
0000
0010
0000
0000
0000
,
1000
0010
0000
1000
0010
0000
0001
0000
0010
0000
0000
0000
0001
0000
0000
0000
,
1000
0100
0000
1000
0100
0000
0001
0000
0100
0000
0000
0000
0001
0000
0000
0000
,
0100
0001
0000
0100
0001
0000
0010
0000
0001
0000
0000
0000
0010
0000
0000
0000
,
0001
0010
0000
0001
0010
0000
1000
0000
0010
0000
0000
0000
1000
0000
0000
0000
,
0010
1000
0010
1000
0100
0000
0110
0000
,
0000
0000
0000
0000
;
#NOTES:
     dance-double:
     :
     Easy:
     9:
     :
00000000
00000000
00000000
00000000
,
00000000
00000000
00000000
00000000
,
00000000
00000000
00000000
00000000
,
00000000
00000000
00000000
00000000
,
00000000
00000000
00000000
00000000
,
00000100
00010000
00000100
00000000
,
00010000
00001000
00010000
00000000
,
00001000
01000000
00001000
00000000
,
00010000
00001000
00010000
00000000
,
00000010
00010000
00000010
00010000
,
00001000
00010000
00001000
00000000
,
00100000
00010000
00100000
00010000
,
01000000
00100000
01000000
00000000
,
00100000
10000000
01000000
00100000
,
00010000
00100000
00001000
00000000
,
00010000
00000100
00001000
00000100
,
00000010
00000100
00000010
00000000
00000002
00000000
00000003
00000000
,
00000001
00000100
00000001
00000100
,
00000010
00001000
00000010
00001000
,
00000010
00000000
00010000
00000000
00001000
00010000
00001000
00000000
,
00010000
00010000
00010000
00000000
,
00001000
01000000
00010000
01000000
,
00100000
10000000
01000000
10000000
,
01000000
00100000
00010000
00100000
,
00001000
00010000
00001000
00000000
,
00001000
00010000
00000010
00001000
,
00000100
00000100
00000100
00000000
,
00000100
00000010
00000001
00001000
,
00000100
00000100
00000100
00000000
,
00010000
00001000
01000000
00010000
,
00100000
00100000
00100000
00000000
,
00100000
00010000
10000000
00100000
,
01000000
01000000
01000000
00000000
,
00010000
00100000
00010000
00100000
,
00001000
00010000
00001000
00010000
,
00000100
00001000
00000100
00001000
,
00000001
00000100
00000001
00000100
,
00000010
00000000
00001000
00001000
,
00000100
00010000
00001000
00000000
,
00200000
00000000
00320000
00000000
,
02030000
00000000
03100000
00000000
,
10000000
00100000
10000000
00100000
,
01000000
00010000
01000000
00010000
,
00100000
00001000
00100000
00001000
,
00010000
00001000
00010000
00001000
,
00010000
00000000
00000100
00000100
,
00001000
00000010
00000100
00000000
,
00000002
00000000
00000023
00000000
,
00000230
00000000
00001300
00000000
,
00000100
00010000
00000100
00000000
,
00010000
00001000
00010000
00000000
,
00100000
01000000
00100000
00000000
,
10000000
00010000
10000000
00000000
,
01000000
00100000
01000000
00000000
,
00100000
00001000
00100000
00000000
,
00001000
00010000
00001000
00000000
,
00000010
00000001
00000010
00000000
,
00000100
00001000
00000100
00000010
,
00000001
00000100
00000110
00000000
,
00000010
00000100
00001000
00000100
,
00001000
00010000
00011000
00000000
,
00010000
00100000
10000000
00000000
,
10000000
01000000
00010000
00000000
,
00001000
00000010
00000001
00000100
,
00001000
00001000
00022000
00033000
,
01000000
00000000
00010000
00000000
00100000
01000000
00100000
00000000
,
00010000
00010000
00010000
00000000
,
01000000
00000000
00001000
00000000
00010000
00001000
00010000
00000000
,
00000010
00000010
00000010
00000000
,
00001000
00000000
00000001
00000000
00000100
00000010
00000100
00000000
,
00000001
00000001
00000001
00000000
,
00000010
00000000
00000100
00000000
00010000
00001000
00010000
00000000
,
00001000
00001000
00001000
00000000
,
00010000
01000000
00010000
01000000
,
10000000
00100000
10000000
00100000
,
01000000
00010000
00100000
00001000
,
00010000
00000100
00001000
00000010
,
00000110
00000000
00000000
00000000
00000001
00001000
00000001
00000000
,
00000100
00000010
00001000
00000000
,
00000100
00000100
00010000
00010000
,
00001000
00001000
00100000
00000000
,
00001000
00010000
00001000
00000010
,
00000001
00000100
00000001
00000100
,
00000010
00010000
00001000
00010000
,
00001000
00100000
00010000
00100000
,
01000000
00000000
00000000
00000000
10000000
00010000
10000000
00000000
,
00100000
01000000
00010000
00000000
,
00100000
00100000
00001000
00001000
,
00010000
00010000
00001000
00000000
,
00000100
00000001
00000010
00000000
,
00000010
00001000
00010000
00000000
,
01000000
10000000
00100000
00000000
,
00100000
00010000
00001000
00000000
,
00000010
00001000
00010000
00000000
,
00001000
00010000
01000000
00000000
,
00100000
00010000
00001000
00000000
,
00010000
00001000
00000100
00000110
,
00000000
00000000
00000000
00000000
;
#NOTES:
     dance-double:
     :
     Medium:
     12:
     :
00000000
00000000
00000000
00000000
,
00000000
00000000
00000000
00000000
,
00000000
00000000
00000000
00000000
,
00000000
00000000
00000000
00000000
,
00000000
00000000
00000000
00000000
,
10000000
00000000
10000000
00000000
01000000
00100000
01000000
00000000
,
00100000
00000000
00100000
00000000
00001000
00010000
00001000
00000000
,
00010000
00000000
00010000
00000000
00000100
00001000
00000100
00000000
,
00000010
00000001
00002002
00003003
,
00000001
00000000
00000100
00000000
00000010
00000100
00000010
00000000
,
00001000
00000001
00001000
00000001
00001000
00000000
00000100
00010000
,
00001000
00001000
00010000
00010000
,
00001000
01000000
00000000
01010000
00000000
00000000
01100000
00000000
,
00010000
00100000
01000000
00000000
10000000
01000000
00100000
00000000
,
00010000
00100000
00001000
00010000
00001000
00000000
00011000
00000000
,
00010000
00000100
00001000
00000100
00000010
00000001
00001000
00000000
,
00000010
00000100
00000010
00000100
00000002
00000000
00000003
00000000
,
00000001
00000100
00000001
00000000
00001000
00000100
00001000
00000000
,
00000100
00010000
00000100
00000000
00010000
00001000
00010000
00000000
,
00001000
00100000
00001000
00000000
00100000
00010000
01000000
00100000
,
00000000
01000000
00010000
10000000
00010000
00000000
10000000
01000000
,
00100000
00000000
01100000
00000000
10000000
01000000
00010000
01000000
,
00000000
00100000
00001000
00010000
00001000
00000000
00010000
00000100
,
00002000
00003010
00000200
00000301
,
00000010
00000000
00000100
00000000
00000110
00000000
00000000
00001000
,
00000010
00000000
00000100
00001000
00000100
00001000
00010000
00000000
,
00001000
00000000
00000000
00010000
00000000
00000000
00001000
00000000
00020000
00000000
00000000
00000000
00031000
00000000
00100000
00000000
,
00000000
00010000
01000000
00010000
00100000
01000000
10000000
00000000
,
00010000
00000000
00000000
10000000
00000000
00000000
00010000
00000000
20000000
00000000
00000000
00000000
31000000
00000000
00100000
00000000
,
00010000
00100000
00001000
00010000
00001000
00100000
00010000
00000000
,
01000000
00000000
00000000
00100000
00000000
00000000
01000000
00000000
00002000
00000000
00000000
00000000
00013000
00000000
00001000
00000000
,
00010000
00000100
00001000
00000000
00000100
00001000
00000010
00000000
,
00000100
00000000
00000000
00000010
00000000
00000000
00000100
00000000
00000020
00000000
00000000
00000000
00000030
00000000
00000000
00000000
,
00001000
00000000
00000100
00001000
00000100
00000000
00010000
00001000
,
00010000
00000000
00001000
01000000
00001000
00000000
00100000
00010000
,
00200000
02300000
23000000
30200000
,
00320000
00032000
00003200
00000302
,
00001003
00000000
00001001
00000000
00000100
00000001
00000010
00000000
,
00000100
00001000
00000100
00010000
00001000
00000000
00100000
00010000
,
02000000
03100000
00200000
10300000
,
20000000
30010000
20020000
30030000
,
00010000
00000000
00100000
00010000
00100000
00000000
00001000
00010000
,
00001000
00000000
00010000
00000010
00010000
00000000
00000100
00001000
,
00000200
00000320
00000032
00000203
,
00002300
00023000
00230000
20300000
,
30010000
00000000
10010000
00000000
00100000
10000000
01000000
00000000
,
00100000
00010000
00100000
00001000
00010000
00000000
00000100
00001000
,
00000020
00000130
00000200
00000301
,
00000002
00001003
00002002
00003003
,
00000002
00000000
00000010
00000003
00001000
00000000
00000000
00000000
,
00000020
00001000
00010030
00000000
,
00002000
00010000
00103000
00000000
,
00020000
00100000
10030000
00000000
,
20000000
00000000
01000000
30000000
00010000
00000000
00000000
00000000
,
02000000
00010000
03001000
00000000
,
00020000
00001000
00030100
00000000
,
00002000
00000100
00003001
00000000
,
00000010
00000001
00000100
00000000
00000010
00001000
00000100
00000000
,
00010000
00001000
00000000
00010000
00001000
00000000
00001000
00010000
,
00100000
01000000
00100000
10000000
01000000
00100000
01000000
00000000
,
00010000
00001000
00010000
00000000
00022000
00000000
00033000
00000000
,
00000010
00001000
00010000
01000000
10000000
00000000
10010000
00000000
,
00100000
00010000
00001000
00000100
00000001
00000000
00001001
00000000
,
00000100
00000010
00001000
00000000
00000010
00010000
00001000
00000000
,
00010000
00010000
00022000
00033000
,
01000000
00010000
01000000
00000000
00100000
10000000
00100000
00000000
,
01000000
00000000
00000000
01000000
00000000
00000000
01000000
00000000
00100000
00000000
00000000
00000000
10000000
00000000
01000000
00000000
,
00100000
00001000
00000000
00010000
00001000
00010000
00001000
00000000
,
00010000
00000000
00000000
00010000
00000000
00000000
00010000
00000000
00001000
00000000
00000000
00000000
00000010
00000000
00000100
00000000
,
00001000
00000010
00001000
00000000
00000001
00000100
00000001
00000000
,
00000010
00000000
00000000
00000010
00000000
00000000
00000010
00000000
00000100
00000000
00000000
00000000
00001000
00000000
00000001
00000000
,
00001000
00000100
00001000
00000000
00000100
00010000
00000100
00000000
,
00010000
00000000
00000000
00010000
00000000
00000000
00010000
00000000
00002000
00000000
00000000
00000000
00003000
00000000
00000000
00000000
,
00001000
01000000
00001000
01000000
00010000
00100000
00010000
00100000
,
01000000
10000000
01000000
10000000
00100000
00000000
01000000
00100000
,
10000000
01000000
00100000
00000000
00100000
00001000
00010000
00000000
,
00001000
00010000
00000010
00000000
00000010
00001000
00000100
00000000
,
00000110
00000000
00001001
00000000
00000001
00000010
00000001
00000010
,
00001000
00000010
00001000
00010000
00001000
00000000
00000000
00001000
,
00020000
00100000
00032000
00000010
,
00023000
01000000
00032000
00000100
,
00013000
00000010
00010000
00000010
00001000
00000100
00001000
00000100
,
00000010
00000001
00000010
00000001
00000100
00000000
00000010
00000100
,
00000001
00000010
00000100
00000000
00000100
00010000
00001000
00000000
,
00010000
00001000
01000000
00000000
01000000
00010000
00100000
00000000
,
01100000
00000000
10010000
00000000
10000000
01000000
10000000
01000000
,
00010000
01000000
00010000
00001000
00010000
00000000
00011000
00000000
,
00002000
00000100
00023000
01000000
,
00032000
00000010
00023000
00100000
,
00031000
00010000
00001000
00000000
01000000
00000000
00000000
00000000
,
00010000
10000000
00010000
00000000
00100000
00000000
00000000
00000000
,
00001000
00010000
00001000
00000000
00000010
00000000
00000000
00000000
,
00000001
00001000
00000001
00000000
00000100
00000000
00000000
00000000
,
00000001
00000100
00000010
00000000
00001000
00000000
00000000
00000000
,
00010000
01000000
00100000
00000000
10000000
00000000
00000000
00000000
,
10000000
01000000
00100000
00000000
00010000
00000000
00000000
00000000
,
00001000
00000100
00000010
00000000
00000001
00000000
00001001
00000000
,
00000000
00000000
00000000
00000000
;
#NOTES:
     dance-double:
     :
     Hard:
     16:
     :
00000000
00000000
00000000
00000000
,
00000000
00000000
00000000
00000000
,
00000000
00000000
00000000
00000000
,
00000000
00000000
00000000
00000000
,
00000000
00000000
00000000
00000000
,
10000000
00000000
00000000
10000000
00000000
00000000
10000000
00000000
01000000
00000000
00100000
00000000
01000000
00000000
00000000
00000000
,
00010000
00000000
00000000
00010000
00000000
00000000
00010000
00000000
00001000
00000000
00010000
00000000
00001000
00000000
00000000
00000000
,
00000010
00000000
00000000
00000010
00000000
00000000
00000010
00000000
00000001
00000000
00001000
00000000
00000001
00000000
00000000
00000000
,
00000100
00000000
00000000
00001000
00000000
00000000
00010000
00000000
00022000
00000000
00000000
00000000
00033000
00000000
00000000
00000000
,
00100000
00001000
00010000
01000000
10000000
00010000
01000000
00000000
,
10000000
01000000
00010000
10000000
01000000
00000000
00100000
00010000
,
00001000
00000100
00001000
00000100
00001000
00000010
00001000
00010000
,
01000000
00010000
00000000
00110000
00000000
00000000
00010000
10000000
,
00100000
00010000
00100000
00010000
00001000
00010000
00001000
00010000
,
00001000
00000010
00001000
00000010
00000001
00000000
00000001
00000100
,
00000010
00001000
00000100
00010000
00001000
00100000
00010000
01000000
,
00100000
10000000
01000000
00100000
00020000
00000000
00030000
00010000
,
10000000
01000000
00100000
01000000
00010000
00000100
00001000
00000100
,
00000010
00000001
00000100
00000010
00000100
00001000
01000000
00010000
,
01000000
00100000
10000000
00000000
10000000
00100000
01000000
00010000
,
00100000
00000000
00001000
00010000
00001000
00000000
00010000
00001000
00010000
00000000
00000000
00000000
00011000
00000000
00001000
00000000
,
00000100
00000001
00000011
00000000
00000100
00000001
00001000
00000100
,
00010000
00001000
01000000
00010000
10000000
00000000
00100000
10000000
,
01000000
00000000
00100000
00001000
00100000
00000000
00000000
00000000
00001000
00000000
00010000
00000010
00010000
00000000
00000000
00000000
,
00000100
00000000
00000010
00000000
00002002
00000000
00003003
00000001
,
00000010
00000000
00000010
00001000
00010000
01000000
10000000
00000000
,
00100000
01000000
00000000
00100000
01000000
00000000
00100000
00000000
01000000
00000000
00000000
00000000
00010000
00000000
10000000
00000000
,
01000000
00010000
00000000
00001000
00000010
00000001
00001000
00000000
,
00000010
00000100
00000000
00000010
00000100
00000000
00000010
00000000
00000100
00000000
00000000
00000000
00000001
00000000
00000010
00000000
,
00000100
00010000
00001000
01000000
00100000
10000000
00010000
00000000
,
01000000
00100000
00000000
01000000
00100000
00000000
01000000
00000000
00100000
00000000
00000000
00000000
10000000
00000000
01000000
00000000
,
00010000
00001000
00000100
00001000
00010000
00001000
00000010
00000000
,
00000100
00000010
00000000
00000100
00000010
00000000
00000100
00000000
00000020
00000000
00000000
00000000
00000030
00000000
00000010
00000000
,
00000001
00000000
00000100
00000010
00000100
00000000
00000010
00000000
00010000
00000000
00001000
00010000
00001000
00000000
01000000
00000000
,
00010000
00000000
00100000
01000000
00100000
00000000
00010000
00000000
10000000
00000000
01000000
00000000
00100000
00000000
00000000
00000000
,
00001000
00100000
01000000
00010000
00001000
00100000
01000000
00010000
,
00001000
01000000
00100000
00010000
00001000
00000100
00000010
00000000
,
00001000
00000000
00000000
00000000
00001001
00000000
00000000
00000000
00000010
00000000
00000001
00000010
00000100
00000000
00001000
00000100
,
00010000
00010000
00001000
00001000
00011000
00000000
00010000
00100000
,
10000000
00000000
10000000
01000000
00010000
00000000
00001000
00000010
,
00000001
00000000
00000001
00000100
00002000
00010000
00013000
00000000
,
00010000
00000000
00001000
00010000
00001000
00000000
00100000
00000000
01000000
00000000
10000000
00010000
10000000
00000000
00100000
00000000
,
01000000
00000000
00001000
00010000
00001000
00000000
00010000
00000000
00000010
00000000
00001000
00000000
00000100
00000000
00000000
00000000
,
00000010
00000100
00010000
00001000
00000010
00000100
00010000
00001000
,
00000010
00000100
00001000
00000010
00000100
00001000
00010000
00000000
,
00100000
00000000
00000000
00000000
10010000
00000000
00000000
00000000
00010000
00000000
10000000
01000000
00100000
00000000
00010000
01000000
,
00001000
00001000
00010000
00010000
00011000
00000000
00001000
00000100
,
00000001
00000000
00000001
00000010
00001000
00000000
00010000
01000000
,
10000000
00000000
10000000
00100000
00020000
00001000
00031000
00000000
,
00010000
00002000
00003100
00000000
,
00001000
00020000
01030000
00000000
,
00010000
00002000
00003010
00000000
,
00001000
00020000
00130000
00000000
,
10000000
00020000
00031000
00000000
,
00010000
00002000
00003001
00000000
,
00000001
00002000
00013000
00000000
,
00001000
00020000
10030000
01100000
,
10000000
00100000
10000000
00000000
00010000
01000000
00010000
00000000
,
00100000
00001000
00000000
00010000
00001000
00000000
00001000
00010000
,
00000010
00000100
00001000
00010000
00100000
01000000
00010000
00100000
,
01000000
00010000
00001000
00000010
00000200
00000000
00000300
00000000
,
00010000
00100000
00010000
00001000
00000010
00001000
00010000
00000000
,
00001000
00000100
00001000
00010000
01000000
00010000
00001000
00000100
,
00000001
00000100
00001000
00000001
00000010
00001000
00010000
01000000
,
00100000
00100000
10000000
10000000
20020000
00000000
30030000
00000000
,
00100000
10000000
01000000
00000000
00100000
00010000
01000000
00000000
,
00010000
00100000
00000000
00010000
00100000
00000000
00001000
00000000
00010000
00000000
00000000
00000000
00000010
00000000
00001000
00000000
,
00000010
00001000
00000000
00000100
00000010
00000100
00000010
00000000
,
00000001
00001000
00000000
00000001
00001000
00000000
00000001
00000000
00000100
00000000
00000000
00000000
00000010
00000000
00001000
00000000
,
00000100
00010000
00000100
00001000
00000010
00000100
00001000
00000000
,
01000000
00010000
00000000
01000000
00010000
00000000
00100000
00000000
00010000
00000000
00000000
00000000
10000000
00000000
01000000
00000000
,
00010000
01000000
10000000
00100000
00010000
00100000
10000000
00000000
,
01000000
00100000
00000000
01000000
00100000
00000000
00010000
00000000
00200000
00000000
00000000
00000000
00300000
00000000
00000000
00000000
,
00010000
00000000
10000000
01000000
00100000
00000000
00000000
00000000
00010000
00000000
01000000
00001000
00010000
00000000
00000000
00000000
,
00000010
00000000
00001000
00000100
00001000
00000000
00000001
00000100
00000001
00000000
00000000
00000000
00000001
00000000
00000010
00000000
,
00000100
00001000
00000010
00000100
00001000
00010000
00100000
01000000
,
00010000
00100000
01000000
10000000
00100000
00010000
00100000
10000000
,
00010000
00000000
00000000
00000000
10010000
00000000
00000000
00000000
00100000
10000000
00100000
10000000
00010000
00000000
00100000
00000000
,
00001000
00000000
00010000
00000100
00010000
00000000
00000010
00001000
00000010
00000000
00000000
00000000
00000100
00000000
00000001
00000000
,
00000100
00001000
00000100
00001000
00010000
00100000
00010000
00100000
,
01000000
00001000
00010000
00001000
00000010
00000000
00000110
00000000
,
00001000
00000000
00000001
00000010
00000100
00000000
00000000
00000000
00001000
00000000
00000010
00010000
00001000
00000000
00000000
00000000
,
01000000
00000000
00010000
00100000
00010000
00000000
10000000
00100000
10000000
00000000
00000000
00000000
10000000
00000000
01000000
00000000
,
00100000
00010000
01000000
00100000
00010000
00001000
00000100
00000010
,
00001000
00000100
00000010
00000001
00000100
00001000
00000100
00000001
,
00001000
00000000
00000000
00000000
00001001
00000000
00000000
00000000
00000100
00000001
00000100
00000001
00001000
00000000
00000100
00000000
,
00010000
00000000
00001000
00100000
00001000
00000000
01000000
00010000
01000000
00000000
00000000
00000000
00100000
00000000
10000000
00000000
,
00100000
00010000
00100000
00010000
00001000
00000100
00001000
00000100
,
00000010
00010000
00001000
00010000
01000000
00010000
00001000
00000000
,
00010000
01000000
10000000
00100000
00010000
00000000
00011000
00000000
,
00001000
00000100
00000001
00000010
00001000
00000000
00011000
00000000
,
00010000
00100000
10000000
01000000
00010000
00000000
00011000
00000000
,
00001000
00000010
00000001
00000100
00001000
00000000
00011000
00000000
,
00001000
00010000
00100000
10000000
01000000
00000000
01100000
00000000
,
10000000
01000000
00010000
00001000
00000010
00000000
00001001
00000000
,
00000001
00000100
00001000
00010000
00100000
00000000
10010000
00000000
,
01000000
10000000
00100000
00010000
00001000
00000000
00011000
00000000
,
00000000
00000000
00000000
00000000
;
