
//----- song ID: nolq -----//
#TITLE:No Life Queen [DJ Command Remix];
#ARTIST:SOUND HOLIC Vs. Eurobeat Union feat. Nana Takahashi;
#BANNER:No Life Queen [DJ Command Remix].png;
#BACKGROUND:No Life Queen [DJ Command Remix]-bg.png;
#CDTITLE:./CDTitles/DDR A20 PLUS.png;
#MUSIC:No Life Queen [DJ Command Remix].ogg;
#SAMPLESTART:44.545;
#SAMPLELENGTH:15;
#BPMS:0=165;
#NOTES:
     dance-single:
     :
     Beginner:
     3:
     :
0000
0000
0000
0000
,
0000
0000
0000
0000
,
0000
0000
0000
0000
,
0000
0000
0000
0000
,
0000
0000
0000
0000
,
0000
0000
0000
0000
,
0000
0000
0000
0000
,
0001
0000
0010
0000
,
0001
0000
0100
0000
,
0010
0000
1000
0000
,
0010
0000
0000
0000
,
1000
0000
0010
0000
,
1000
0000
0100
0000
,
0010
0000
0001
0000
,
0010
0000
0000
0000
,
0002
0000
0000
0000
,
0003
0000
0000
0000
,
2000
0000
0000
0000
,
3000
0000
0000
0000
,
0010
0000
0000
0000
,
0100
0000
0000
0000
,
0001
0000
0001
0000
,
0001
0000
0000
0000
,
1000
0000
1000
0000
,
1000
0000
0000
0000
,
0010
0000
0100
0000
,
0010
0000
0000
0000
,
0001
0000
0001
0000
,
0001
0000
0000
0000
,
0010
0000
0100
0000
,
0010
0000
0000
0000
,
1000
0000
0100
0000
,
1000
0000
0010
0000
,
0100
0000
0010
0000
,
0001
0000
0000
0000
,
0001
0000
0100
0000
,
0001
0000
0010
0000
,
0100
0000
0010
0000
,
1000
0000
0000
0000
,
1000
0000
0010
0000
,
1000
0000
0010
0000
,
0100
0000
0001
0000
,
0100
0000
0000
0000
,
0001
0000
0010
0000
,
0001
0000
0010
0000
,
0100
0000
1000
0000
,
0100
0000
0000
0000
,
1000
0000
0100
0000
,
1000
1000
1000
0000
,
0010
0000
0100
0000
,
0001
0000
0000
0000
,
0001
0000
0100
0000
,
0001
0001
0001
0000
,
0010
0000
0100
0000
,
1000
0000
0000
0000
,
1001
0000
0000
0000
,
1000
0000
0100
0000
,
0010
0000
0100
0000
,
1000
0000
0010
0000
,
0001
0000
0000
0000
,
0001
0000
0100
0000
,
0010
0000
0100
0000
,
0001
0000
0010
0000
,
1000
0000
0000
0000
,
1000
0000
0100
0000
,
0010
0000
0100
0000
,
1000
0000
0100
0000
,
0001
0000
0000
0000
,
0001
0000
0100
0000
,
0010
0000
0100
0000
,
1000
0000
0001
0000
,
1001
0000
0000
0000
,
0001
0001
0001
0000
,
0100
0000
0010
0000
,
1000
1000
1000
0000
,
0010
0010
0010
0000
,
0100
0100
0100
0000
,
0010
0010
0010
0000
,
1001
0000
0000
0000
,
0000
0000
0000
0000
;
#NOTES:
     dance-single:
     :
     Easy:
     7:
     :
0000
0000
0000
0000
,
0000
0000
0000
0000
,
0000
0000
0000
0000
,
0000
0000
0000
0000
,
0000
0000
0000
0000
,
0000
0000
0000
0000
,
0000
0000
0000
0000
,
0001
1000
0001
1000
,
0010
0100
0010
0100
,
0001
1000
0001
1000
,
0010
1000
0100
1001
,
1000
0001
1000
0001
,
0010
0100
0010
0100
,
1000
0001
1000
0001
,
1000
0100
0010
0001
,
1000
1000
0100
0100
,
1000
0010
0100
0001
,
0010
0010
0001
0001
,
0010
0100
1000
0001
,
1000
1000
0001
0100
,
0001
0001
1000
0100
,
1000
0010
0100
0001
,
1000
0100
0010
0001
,
2000
0000
3000
1001
,
0002
0000
0003
1001
,
0010
0100
0010
0100
,
0020
0000
0100
0130
,
0002
0000
0003
1001
,
2000
0000
3000
1001
,
0010
1000
0001
0100
,
2002
0000
3003
0000
,
0001
0100
0010
0100
,
0001
1000
0001
0001
,
1000
0100
0010
0100
,
1000
0001
1000
1000
,
0001
0010
0100
0010
,
0001
1000
0001
0001
,
1000
1000
0010
0010
,
0100
0010
1000
0001
,
1000
0100
0001
0100
,
1000
0001
1000
1000
,
0001
0100
1000
0100
,
0001
1000
0001
0001
,
1000
0010
0001
0010
,
1000
0001
1000
1000
,
1010
0000
0101
0000
,
2002
0000
3003
0000
,
0001
0100
0001
0100
,
0010
1000
0010
1000
,
0001
0100
0001
0100
,
0010
0010
1000
0001
,
1000
0100
1000
0100
,
0010
0001
0010
0001
,
1000
0100
1000
0100
,
0010
0010
0010
0010
,
0110
0000
0000
0000
,
0001
0100
0010
1000
,
0010
0000
0100
0000
0001
1000
0001
0000
,
1000
0100
0010
0001
,
0100
0000
0010
0000
1000
0001
1000
0000
,
0001
0100
0010
1000
,
0100
0100
1000
1000
,
0001
0010
0100
1000
,
0001
1000
0001
0000
1000
0000
0000
0000
,
1000
0100
0010
0001
,
0010
0000
0100
0000
1000
0001
1000
0000
,
0001
0100
0010
1000
,
0100
0000
0010
0000
0001
1000
0001
0000
,
1000
0100
0010
0001
,
0100
0100
0001
0001
,
1000
0010
0100
0001
,
2002
0000
3003
0000
,
0001
1000
0010
0100
,
0001
0000
1000
0000
0100
0010
0100
0000
,
1000
0010
0100
0001
,
1000
0000
0100
0000
0010
0001
0010
0000
,
0001
0000
0100
0000
0010
1000
0010
0000
,
1000
0000
0100
0000
0010
0001
0010
0000
,
1001
0000
0000
0000
,
0000
0000
0000
0000
;
#NOTES:
     dance-single:
     :
     Medium:
     11:
     :
0000
0000
0000
0000
,
0000
0000
0000
0000
,
0000
0000
0000
0000
,
0000
0000
0000
0000
,
0000
0000
0000
0000
,
0000
0000
0000
0000
,
0000
0000
0000
0000
,
0001
0100
0010
0000
0100
0000
0001
0000
,
1000
0100
0010
0000
0100
0000
1000
0000
,
0001
0010
0100
0000
1000
0010
0100
0000
,
0001
0100
0001
0010
0001
1000
0010
0000
,
0100
0001
0010
0000
0001
0000
0100
0000
,
0010
1000
0100
0000
0010
0000
0001
0000
,
0100
0001
0100
0000
0010
1000
0010
0000
,
1000
0000
0000
1000
0000
0000
0001
0000
0000
0001
0000
0000
1001
0000
0000
0000
,
1000
0001
1000
0000
0010
0100
0010
0000
,
1000
0000
0001
0000
0010
0000
0001
0000
1000
0000
0000
1000
0000
0000
1000
0000
,
0010
0100
0010
0000
1000
0001
1000
0000
,
0001
0000
1000
0000
0010
0000
1000
0000
0001
0000
0000
0001
0000
0000
0001
0000
,
1000
1000
0000
0110
0000
0000
0100
0010
,
0001
0001
0000
0110
0000
0000
0100
1000
,
0010
0000
0010
0100
0000
0101
0000
1010
,
0000
0010
1000
0010
0100
0000
0001
0000
,
0200
0000
0000
0000
0310
0000
0000
0000
0010
0000
0000
1000
0000
0000
0001
0000
,
0020
0000
0000
0000
0130
0000
0000
0000
0100
0000
0000
1000
0000
0000
0010
0000
,
0100
0000
0000
0100
0000
0000
0100
0000
0001
0000
0000
0001
0000
0000
0001
0000
,
2002
0000
0000
0000
3003
1000
0001
1000
,
0001
0000
0100
0000
1000
0000
0100
0000
0001
0000
0000
0001
0000
0000
0001
0000
,
1000
0000
0100
0000
0001
0000
0100
0000
1000
0000
0000
1000
0000
0000
1000
0000
,
0010
0000
0000
0010
0000
0000
0010
0000
0100
0000
0000
0100
0000
0000
0100
0000
,
0220
0000
0330
0000
,
0001
0010
0100
1000
0010
0100
0001
0000
,
1000
0010
0100
0000
0001
0010
0100
0000
,
1000
0001
0010
0100
1000
0010
0100
0000
,
0001
0100
0010
0000
1000
0100
0010
0000
,
0001
0100
0001
0100
0010
1000
0010
0000
,
1000
0100
1000
0100
0010
0001
0010
0000
,
0100
1000
0000
1100
0000
1010
0000
1001
,
0000
0100
0001
0000
1000
0100
1000
0000
,
1000
0010
0100
0001
0010
0100
1000
0000
,
0001
1000
0100
0000
1000
0001
0100
0000
,
0001
1000
0010
0100
0001
0010
0100
0000
,
1000
0001
0010
0000
0001
1000
0010
0000
,
1000
0100
1000
0100
0010
0001
0100
0000
,
0001
0100
0001
0100
0010
1000
0100
0000
,
0010
0001
0000
0101
0000
0011
0000
1001
,
0000
0001
1000
0001
0000
1000
0001
0000
,
1000
0010
0100
0000
0010
0000
1000
0000
,
0001
0010
0100
0000
0010
0000
0001
0000
,
1000
0100
0010
0000
0001
0100
0010
0000
,
1000
0010
1000
0100
1000
0001
0100
0000
,
0010
1000
0100
0000
1000
0000
0010
0000
,
0100
0001
0010
0000
0100
0000
1000
0000
,
0010
1000
0010
0000
0100
0001
0100
0000
,
0001
0000
0000
0001
0000
0000
1000
0000
0000
1000
0000
0000
1001
0000
0000
0000
,
1001
0000
0000
0000
,
1000
0100
1000
0100
1000
0001
0010
0001
,
1000
0100
0010
0100
1000
0001
0100
0001
,
0010
0100
1000
0100
0010
0001
0100
0001
,
1000
0010
0100
0010
1000
0100
0010
0100
,
1000
0001
0100
0010
1000
0001
1000
0100
,
0010
0001
0010
0100
1000
0100
1000
0001
,
0010
0001
0100
0010
1000
0010
0100
0001
,
0100
0010
1000
0001
0010
0100
0010
0000
,
0001
0010
0001
0010
0001
1000
0100
1000
,
0001
0010
0100
0010
0001
1000
0010
1000
,
0100
0010
0001
0010
0100
1000
0010
1000
,
0001
0100
0010
0100
0001
0010
0100
0010
,
0001
1000
0010
0100
0001
1000
0001
0010
,
0100
1000
0100
0010
0001
0010
0001
1000
,
0100
1000
0010
0100
0000
0110
0000
1001
,
0000
1000
0001
1000
0000
0001
1000
0000
,
0001
1000
0001
1000
0100
0010
0001
0000
,
0100
0010
0100
0010
1000
0001
0100
0000
,
0001
1000
0001
1000
0010
0100
0001
0000
,
1000
0000
0000
1000
0000
0000
0100
0000
0000
0100
0000
0000
0010
0000
0000
0000
,
0001
0000
0000
0001
0000
0000
0100
0000
0000
0100
0000
0000
0010
0000
0000
0000
,
1000
0000
0000
1000
0000
0000
0001
0000
0000
0001
0000
0000
1000
0000
0000
0000
,
1001
0000
0000
0000
,
0000
0000
0000
0000
;
#NOTES:
     dance-single:
     :
     Hard:
     14:
     :
0000
0000
0000
0000
,
0000
0000
0000
0000
,
0000
0000
0000
0000
,
0000
0000
0000
0000
,
0000
0000
0000
0000
,
0000
0000
0000
0000
,
0000
0000
0000
0000
,
1000
0000
0010
0000
0100
0000
0010
0000
1000
0000
0100
0000
0010
0001
0010
0000
,
0001
0000
0010
0000
1000
0000
0010
0000
0001
1000
0001
0000
0100
0000
0100
0000
,
0001
0000
0010
0000
0100
0000
0010
0000
0001
0000
0100
0000
0010
1000
0010
0000
,
1000
0000
0100
0000
0010
0000
0001
0000
1000
0001
1000
0000
0001
1000
0001
0000
,
1000
0000
0001
0000
0010
0000
0001
0000
1000
0000
0001
0000
0100
0001
0100
0000
,
0001
0000
1000
0000
0010
0000
1000
0000
0001
1000
0001
0000
0100
0000
0100
0000
,
0001
0100
0001
0100
0010
1000
0010
1000
,
0001
0010
0000
0001
0010
0000
0100
1000
0000
0100
1000
0000
1001
0000
0000
0000
,
0001
0100
0001
0100
0010
1000
0010
1000
,
0100
1000
0100
0000
0100
0000
0010
0001
0010
0001
0000
0001
1000
0001
1000
0000
,
0010
0100
0010
0100
0001
0100
0001
0100
,
0001
1000
0001
0000
0001
0000
0100
0010
0100
0010
0000
0010
1000
0010
1000
0000
,
0001
0100
0010
1001
0000
1000
0001
0001
,
0010
0100
1000
0110
0000
0010
0100
0100
,
1000
0010
1000
0010
0100
0001
0100
0010
,
1000
0100
0010
0000
0100
0010
0001
0000
1000
0100
0010
0100
0010
0001
1000
0000
,
0001
0000
0100
0000
0010
0000
0100
0000
0001
0000
0000
0101
0000
0000
0101
0000
,
1000
0000
0100
0000
0010
0000
0100
0000
1000
0000
0000
1100
0000
0000
1100
0000
,
0020
0000
0000
2030
0000
0000
3200
0000
0320
0000
0000
0032
0000
0000
0203
0000
,
0320
0000
0001
0000
1030
0100
1000
0001
,
0010
0000
0100
0000
1000
0000
0100
0000
0010
0000
0000
0011
0000
0000
0011
0000
,
1000
0000
0010
0000
0100
0000
0010
0000
1000
0000
0000
1010
0000
0000
1010
0000
,
0002
0000
0000
0023
0000
0000
0230
0000
2300
0000
0000
3020
0000
0000
0130
0000
,
2002
0000
0000
0000
3003
0000
0000
0000
1000
0001
0000
1000
0001
0000
0100
0000
,
0010
1000
0100
0001
0100
1000
0010
0100
,
0001
0010
0001
0000
0100
0000
0010
1000
0000
0010
1000
0000
0001
0000
0100
0000
,
0001
0010
1000
0010
0001
1000
0010
0100
,
0010
2000
3200
0320
0031
1000
0001
0001
,
0100
0010
0100
1000
0100
0010
1000
0001
,
0010
0000
0100
1000
0000
0001
0010
0000
0100
1000
0100
0000
1000
0000
0001
0000
,
0100
0010
1000
1001
0000
0110
0000
1001
,
0001
0000
0100
0010
0000
1000
0001
0000
1000
0001
1000
0000
0010
0100
0010
0000
,
0100
0001
0010
1000
0010
0001
0100
0010
,
1000
0100
1000
0000
0010
0000
0100
0001
0000
0100
0001
0000
1000
0000
0010
0000
,
1000
0100
0001
0100
1000
0001
0100
0010
,
0100
0002
0023
0230
1300
0001
1000
1000
,
0010
0100
0010
0001
0010
0100
0001
1000
,
0100
0000
0010
0001
0000
1000
0100
0000
0010
0001
0010
0000
0001
0000
1000
0000
,
0010
0100
0001
1001
0000
0110
0100
1002
,
0000
0000
1000
0000
1000
0000
1003
0000
0000
0000
1000
0000
1000
0010
1000
0000
,
0001
0000
0100
0000
1000
0000
0100
0000
0001
0000
0010
0000
0100
1000
0001
0000
,
1000
0000
0100
0000
0001
0000
0100
0000
1000
0001
1000
0000
0010
0000
0010
0000
,
1000
0000
0100
0000
0001
0000
0100
0000
1000
0000
0010
0000
0100
0001
1000
0000
,
0001
0000
0010
0000
0100
0000
1000
0000
0001
1000
0001
0000
1000
0001
1000
0000
,
0001
0000
0100
0000
1000
0000
0100
0000
0001
0000
1000
0000
0010
1000
0001
0000
,
1000
0000
0100
0000
0001
0000
0100
0000
1000
0001
1000
0000
0010
0000
0010
0000
,
1000
0010
0001
0010
0001
0010
1000
0001
,
1000
0100
0000
1000
0100
0000
0010
0001
0000
0010
0001
0010
0001
0000
1000
0000
,
1001
0000
0000
0000
,
0001
0010
0001
0100
0010
1000
0001
0100
,
0010
0100
0010
0000
1000
0000
0001
1000
0000
1000
0001
0000
0010
0001
0010
0000
,
0001
0100
0010
1000
0100
0010
0100
1000
,
0010
0000
0001
0000
0010
0000
1000
0001
0000
1000
0001
0000
0010
0000
0001
0000
,
0100
0010
1000
0001
0010
0100
1000
0100
,
0010
0000
0001
1000
0000
0001
0100
0000
0010
1000
0010
0000
0100
0001
0100
0000
,
0001
0010
0100
1100
0000
0110
0000
1001
,
1000
0000
0010
0100
0000
0010
1000
0000
0001
0010
0100
1000
0001
0000
0000
0000
,
1000
0010
1000
0100
0010
0001
1000
0100
,
0010
0100
0010
0000
0001
0000
1000
0001
0000
0001
1000
0000
0010
1000
0010
0000
,
1000
0100
0010
0001
0100
0010
0100
0001
,
0010
0000
1000
0000
0010
0000
0001
1000
0000
0001
1000
0000
0010
0000
1000
0000
,
0100
0010
0001
1000
0010
0100
0001
0100
,
0010
0000
1000
0001
0000
1000
0100
0000
0010
0001
0010
0000
0100
1000
0100
0000
,
1000
0010
0100
0101
0000
0110
0010
2001
,
0000
0001
0001
3001
0000
0001
1001
0000
,
0010
0100
0010
0000
1000
0000
0001
0100
0000
0001
0100
0000
0010
1000
0001
0000
,
0010
0100
0010
0000
0100
0000
1000
0001
0000
0010
0001
0000
1000
0001
1000
0000
,
0001
0100
0001
0000
1000
0000
0010
0100
0000
0010
0100
0000
0001
0010
0100
0000
,
1000
0100
0000
1000
0100
0000
0010
0001
0000
0010
0001
0000
1001
0000
0000
0000
,
0001
0100
0000
0001
0100
0000
0010
1000
0000
0010
1000
0000
1001
0000
0000
0000
,
1000
0001
0000
1000
0001
0000
0100
0010
0000
0100
0010
0100
0010
0000
0000
0000
,
1001
0000
0000
0000
,
0000
0000
0000
0000
;
#NOTES:
     dance-double:
     :
     Easy:
     7:
     :
00000000
00000000
00000000
00000000
,
00000000
00000000
00000000
00000000
,
00000000
00000000
00000000
00000000
,
00000000
00000000
00000000
00000000
,
00000000
00000000
00000000
00000000
,
00000000
00000000
00000000
00000000
,
00000000
00000000
00000000
00000000
,
10000000
01000000
10000000
01000000
,
00100000
00001000
00010000
00001000
,
00010000
00000010
00010000
00000010
,
00000100
00000001
00000010
00000010
,
00000001
00000100
00000001
00000100
,
00000010
00010000
00001000
00010000
,
00001000
01000000
00001000
01000000
,
00010000
00100000
01000000
10000000
,
01000000
01000000
00100000
00100000
,
00001000
00010000
00001000
00010000
,
00000100
00000100
00001000
00001000
,
00000001
00000010
00000001
00000010
,
00000100
00000100
00010000
00001000
,
01000000
01000000
00001000
00010000
,
00001000
00100000
00010000
01000000
,
00100000
10000000
01000000
00010000
,
00002000
00000000
00000000
00003000
,
00020000
00000000
00000000
00030000
,
00000010
00001000
00000010
00000100
,
00000020
00000000
00000100
00000130
,
00000002
00000000
00000000
00000003
,
00002000
00000000
00000000
00003000
,
00000010
00000100
00001000
00010000
,
00022000
00000000
00033000
00000000
,
00010000
00100000
10000000
00100000
,
01000000
00010000
10000000
01000000
,
00010000
01000000
00010000
00001000
,
00010000
00001000
00000010
00000001
,
00001000
00000010
00000001
00000010
,
00000100
00000001
00001000
00000100
,
00010000
00010000
00001000
00001000
,
00100000
00010000
01000000
01000000
,
00010000
01000000
10000000
01000000
,
00010000
00100000
01000000
00010000
,
00001000
00010000
00001000
00000010
,
00000001
00000100
00000010
00000010
,
00001000
00000100
00000001
00000100
,
00001000
00000010
00010000
00001000
,
00100000
00100000
00010000
00010000
,
20020000
00000000
30030000
00000000
,
00100000
10000000
00100000
10000000
,
00010000
01000000
00010000
00100000
,
00001000
00010000
00001000
00010000
,
00000100
00000100
00001000
00001000
,
00000001
00000100
00000001
00000100
,
00000010
00001000
00000100
00001000
,
00000100
00010000
00001000
00010000
,
00001000
00001000
00010000
00010000
,
00011000
00000000
00000000
00000000
,
00100000
00010000
01000000
00010000
,
00100000
00000000
01000000
00000000
10000000
00010000
10000000
00000000
,
01000000
00010000
00001000
00010000
,
00001000
00000000
00000010
00000000
00000100
00000010
00000100
00000000
,
00001000
00000001
00000100
00000010
,
00000100
00001000
00010000
00001000
,
00010000
00100000
01000000
00100000
,
10000000
00010000
10000000
00000000
00010000
00000000
00000000
00000000
,
01000000
00010000
00100000
01000000
,
00100000
00000000
00001000
00000000
00010000
00001000
00010000
00000000
,
00000010
00001000
00000100
00000001
,
00000100
00000000
00001000
00000000
00000001
00001000
00000001
00000000
,
00000100
00000010
00001000
00000100
,
00010000
00001000
01000000
00010000
,
00100000
00100000
01000000
01000000
,
20020000
00000000
30030000
00000000
,
10000000
01000000
00100000
01000000
,
10000000
00000000
00010000
00000000
00100000
00001000
00100000
00000000
,
00001000
00010000
00000100
00001000
,
00000010
00000000
00000100
00000000
00000001
00000100
00000001
00000000
,
00000010
00000000
00000100
00000000
00001000
00000100
00001000
00000000
,
00000100
00000000
00010000
00000000
00001000
00010000
00001000
00000000
,
00011000
00000000
00000000
00000000
,
00000000
00000000
00000000
00000000
;
#NOTES:
     dance-double:
     :
     Medium:
     11:
     :
00000000
00000000
00000000
00000000
,
00000000
00000000
00000000
00000000
,
00000000
00000000
00000000
00000000
,
00000000
00000000
00000000
00000000
,
00000000
00000000
00000000
00000000
,
00000000
00000000
00000000
00000000
,
00000000
00000000
00000000
00000000
,
10000000
01000000
00100000
00000000
00010000
00000000
01000000
00000000
,
00100000
01000000
00010000
00000000
01000000
00000000
00001000
00000000
,
00010000
00000010
00001000
00000000
00000010
00001000
00000100
00000000
,
00000010
00000001
00000010
00000100
00001000
00000010
00000100
00000000
,
00000001
00001000
00000100
00000000
00001000
00000000
00000010
00000000
,
00010000
00001000
00010000
00000000
00001000
00000000
00100000
00000000
,
00010000
01000000
00010000
00000000
10000000
00100000
10000000
00000000
,
01000000
00000000
00000000
01000000
00000000
00000000
00100000
00000000
00000000
00100000
00000000
00000000
01100000
00000000
00000000
00000000
,
00100000
00001000
00100000
00000000
00001000
00010000
00001000
00000000
,
00010000
00000000
00000100
00000000
00001000
00000000
00000100
00000000
00001000
00000000
00000000
00001000
00000000
00000000
00001000
00000000
,
00000010
00000100
00000010
00000000
00000100
00000001
00000100
00000000
,
00000001
00000000
00000010
00000000
00000001
00000000
00000010
00000000
00000100
00000000
00000000
00000100
00000000
00000000
00000100
00000000
,
00010000
00001000
00000000
00011000
00000000
00000000
00001000
01000000
,
00010000
01000000
00000000
01100000
00000000
00000000
00100000
10000000
,
00010000
00000000
00010000
00100000
00000000
00101000
00000000
00011000
,
00000000
00010000
00000010
00001000
00000010
00000000
00000100
00000000
,
00000002
00000000
00000000
00000000
00000013
00000000
00000000
00000000
00000100
00000000
00000000
00001000
00000000
00000000
00000100
00000000
,
00020000
00000000
00000000
00000000
00031000
00000000
00000000
00000000
00100000
00000000
00000000
00010000
00000000
00000000
00100000
00000000
,
01000000
00000000
00000000
10000000
00000000
00000000
01000000
00000000
00100000
00000000
00000000
00010000
00000000
00000000
01000000
00000000
,
00200000
00000000
00000000
00000000
00300000
00100000
00010000
00010000
,
00001000
00000000
00010000
00000000
00001000
00000000
00000000
00000000
00000010
00000000
00000000
00000010
00000000
00000000
00000000
00000000
,
00000001
00000000
00000100
00000000
00001000
00000000
00000000
00000000
00010000
00000000
00000000
00010000
00000000
00000000
00000000
00000000
,
00001000
00000000
00000000
00100000
00000000
00000000
00010000
00000000
01000000
00000000
00000000
00100000
00000000
00000000
10000000
00000000
,
02000000
00000000
03000000
00000000
,
10000000
00100000
01000000
00010000
00100000
00001000
00010000
00000000
,
00001000
00010000
00001000
00000000
00001000
00010000
00000010
00000000
,
00000100
00000010
00000100
00000001
00001000
00000010
00001000
00000000
,
00000100
00010000
00001000
00000000
00001000
00010000
00000100
00000000
,
00001000
00000010
00001000
00000010
00010000
00001000
00010000
00000000
,
00001000
01000000
00001000
01000000
00010000
01000000
00010000
00000000
,
00100000
01000000
00000000
11000000
00000000
10100000
00000000
10010000
,
00000000
00100000
00001000
00000000
00010000
00000100
00001000
00000000
,
00000001
00000100
00000010
00000100
00000001
00001000
00000100
00000000
,
00010000
00001000
00010000
00000000
00010000
00100000
00010000
00000000
,
00100000
01000000
00100000
10000000
01000000
00100000
00010000
00000000
,
00100000
00001000
00010000
00000000
00010000
00001000
00100000
00000000
,
00010000
01000000
00010000
01000000
00001000
00010000
00001000
00000000
,
00010000
00000010
00010000
00000010
00001000
00000100
00001000
00000000
,
00000100
00000010
00000000
00000011
00000000
00000101
00000000
00001001
,
00000000
00000100
00010000
00001000
00000000
00001000
00010000
00000000
,
00001000
00100000
00010000
00000000
01000000
00000000
00100000
00000000
,
10000000
01000000
00100000
00000000
00010000
00000000
00100000
00000000
,
01000000
00010000
00001000
00000000
00010000
00001000
00000010
00000000
,
00000001
00000100
00000010
00000100
00001000
00000100
00000010
00000000
,
00001000
00000100
00010000
00000000
00001000
00000000
01000000
00000000
,
00010000
00100000
01000000
00000000
10000000
00000000
00100000
00000000
,
00010000
00001000
00010000
00000000
00000010
00001000
00000010
00000000
,
00000100
00000000
00000000
00000100
00000000
00000000
00000001
00000000
00000000
00000001
00000000
00000000
00000010
00000000
00000000
00000000
,
00000110
00000000
00000000
00000000
,
00000001
00000100
00000001
00000100
00000010
00001000
00000100
00000010
,
00001000
00010000
00001000
00010000
01000000
00100000
00010000
01000000
,
00100000
10000000
01000000
00100000
00010000
10000000
00100000
01000000
,
00001000
00010000
00001000
00010000
00000100
00001000
00000010
00001000
,
00000100
00000010
00000001
00001000
00000001
00000010
00000100
00001000
,
00000010
00000100
00001000
00010000
00100000
01000000
00010000
10000000
,
01000000
00100000
00001000
00010000
00000100
00001000
00000010
00000100
,
00000010
00001000
00000100
00010000
00001000
00100000
00010000
00000000
,
10000000
01000000
10000000
01000000
00100000
00010000
01000000
00100000
,
00010000
00001000
00010000
00001000
00000100
00000010
00001000
00000100
,
00000010
00000001
00000100
00000010
00001000
00000001
00000010
00000100
,
00010000
00001000
00010000
00001000
01000000
00010000
00100000
00010000
,
01000000
00100000
10000000
00010000
10000000
00100000
01000000
00010000
,
00100000
01000000
00010000
00001000
00000010
00000100
00001000
00000001
,
00000100
00000010
00010000
00001000
00000000
00001000
01000000
00100000
,
00000000
00100000
01000000
00100000
00000000
00100000
01000000
00000000
,
00010000
10000000
00100000
10000000
01000000
00010000
00001000
00000000
,
00010000
00001000
00000100
00000001
00001000
00000100
00000010
00000000
,
00000001
00001000
00000010
00001000
00000100
00000010
00000100
00000000
,
00010000
00000000
00000000
00001000
00000000
00000000
01000000
00000000
00000000
00010000
00000000
00000000
00100000
00000000
00000000
00000000
,
00010000
00000000
00000000
10000000
00000000
00000000
00100000
00000000
00000000
01000000
00000000
00000000
00010000
00000000
00000000
00000000
,
00100000
00000000
00000000
00010000
00000000
00000000
00001000
00000000
00000000
00000100
00000000
00000000
00000010
00000000
00000000
00000000
,
00001001
00000000
00000000
00000000
,
00000000
00000000
00000000
00000000
;
#NOTES:
     dance-double:
     :
     Hard:
     14:
     :
00000000
00000000
00000000
00000000
,
00000000
00000000
00000000
00000000
,
00000000
00000000
00000000
00000000
,
00000000
00000000
00000000
00000000
,
00000000
00000000
00000000
00000000
,
00000000
00000000
00000000
00000000
,
00000000
00000000
00000000
00000000
,
10000000
00000000
00100000
00000000
01000000
00000000
00010000
00000000
00100000
00000000
01000000
00000000
10000000
01000000
00100000
00000000
,
00001000
00000000
00010000
00000000
00000010
00000000
00001000
00000000
00000100
00000010
00000100
00000000
00000010
00000000
00000010
00000000
,
00000001
00000000
00000100
00000000
00000010
00000000
00001000
00000000
00000100
00000000
00000010
00000000
00000001
00001000
00000100
00000000
,
00010000
00000000
00001000
00000000
01000000
00000000
00010000
00000000
00100000
01000000
00100000
00000000
00010000
10000000
00010000
00000000
,
10000000
00000000
01000000
00000000
00100000
00000000
00010000
00000000
01000000
00000000
00100000
00000000
10000000
00100000
01000000
00000000
,
00010000
00000000
00100000
00000000
00001000
00000000
00010000
00000000
00000100
00000010
00000100
00000000
00001000
00000000
00001000
00000000
,
00000001
00000000
00000100
00000000
00000010
00000000
00001000
00000000
00000001
00000000
00000010
00000000
00000100
00001000
00000100
00000000
,
00010000
00001000
00000000
00010000
00001000
00000000
01000000
00010000
00000000
01000000
00010000
00000000
10010000
00000000
00000000
00000000
,
00100000
10000000
00100000
10000000
01000000
00100000
01000000
00100000
,
00001000
00000000
00010000
00000000
00000010
00000000
00001000
00000010
00001000
00000010
00000000
00000010
00000100
00000010
00000100
00000000
,
00000001
00000010
00000001
00000010
00000100
00000010
00000100
00010000
,
00001000
00000000
00010000
00000000
00001000
00000000
00100000
00010000
00100000
00010000
00000000
00010000
01000000
00010000
01000000
00000000
,
00100000
10000000
00010000
01000000
00000000
01000000
00010000
00100000
,
00001000
00010000
00000100
00001000
00000000
00001000
00000100
00000100
,
00010000
00001000
01000000
00010000
00100000
00001000
00001000
00010000
,
00000100
00000000
00001000
00000000
00000010
00000000
00000100
00000000
00000010
00000100
00000010
00000100
00000010
00000000
00000000
00000000
,
00001000
00000000
00000100
00000000
00010000
00000000
00001000
00000000
00100000
00000000
00000000
01100000
00000000
00000000
01100000
00000000
,
10000000
00000000
01000000
00000000
00010000
00000000
01000000
00000000
00100000
00000000
00000000
00101000
00000000
00000000
00101000
00000000
,
00002000
00000000
00000000
00023000
00000000
00000000
00030200
00000000
00002300
00000000
00000000
00003020
00000000
00000000
00000230
00000000
,
00000302
00000000
00000000
00000000
00000003
00001000
00000100
00001000
,
00000010
00000000
00001000
00000000
00000100
00000000
00000010
00000000
00001000
00000000
00000000
00011000
00000000
00000000
00011000
00000000
,
00010000
00000000
01000000
00000000
00100000
00000000
00010000
00000000
01000000
00000000
00000000
01100000
00000000
00000000
01100000
00000000
,
20000000
00000000
00000000
30200000
00000000
00000000
02300000
00000000
03002000
00000000
00000000
00023000
00000000
00000000
00030200
00000000
,
00000020
00000000
00000000
00000000
00000330
00000000
00000000
00000000
00000001
00001000
00000000
00000001
00001000
00000000
00000001
00000000
,
00000100
00000010
00001000
00000001
00000100
00000010
00010000
00001000
,
00100000
00010000
00100000
00000000
00010000
00000000
01000000
00100000
00000000
01000000
00100000
00000000
10000000
00000000
01000000
00000000
,
00100000
00010000
00100000
00001000
00010000
00000100
00001000
00000001
,
00000010
00000100
00000010
00000001
00001000
00000010
00000100
00000010
,
00010000
00001000
00100000
00010000
01000000
00100000
00010000
00100000
,
10000000
00000000
01000000
00100000
00000000
00001000
00010000
00000000
00001000
00010000
00001000
00000000
00010000
00000000
00000010
00000000
,
00001000
00000010
00000100
00000001
00000010
00000100
00000010
00000001
,
00001000
00000000
00000100
00010000
00000000
00001000
00010000
00000000
00001000
00000000
00100000
00000000
01000000
00000000
00100000
00000000
,
01000000
00100000
00010000
10000000
00100000
01000000
00001000
00010000
,
00000010
00001000
00000010
00000000
00001000
00000000
00000100
00000010
00000000
00000100
00000010
00000000
00000001
00000000
00000100
00000000
,
00001000
00000100
00000010
00010000
00001000
00100000
01000000
10000000
,
00100000
00010000
00100000
10000000
01000000
00010000
01000000
00100000
,
00001000
00010000
00000010
00001000
00000100
00000010
00001000
00000010
,
00000001
00000000
00000100
00000010
00000000
00010000
00001000
00000000
00010000
00001000
00010000
00000000
00001000
00000000
00100000
00000000
,
00010000
00100000
01000000
10000000
01000000
00100000
01000000
00010000
,
00000000
00010000
00001000
00000010
00000000
00000010
00000110
00000000
,
00000001
00000000
00000100
00000000
00000010
00000000
00001000
00000000
00000100
00000000
00000010
00000000
00000001
00000010
00000100
00000000
,
00010000
00000000
00001000
00000000
01000000
00000000
00010000
00000000
00100000
01000000
10000000
00000000
00100000
00000000
00100000
00000000
,
10000000
00000000
00100000
00000000
01000000
00000000
00010000
00000000
00100000
00000000
01000000
00000000
10000000
00100000
01000000
00000000
,
00001000
00000000
00010000
00000000
00000010
00000000
00001000
00000000
00000100
00000010
00000001
00000000
00001000
00000000
00001000
00000000
,
00000001
00000000
00000010
00000000
00000100
00000000
00001000
00000000
00000010
00000000
00001000
00000000
00000001
00000100
00000010
00000000
,
00001000
00000000
00000100
00000000
00010000
00000000
00001000
00000000
01000000
00100000
10000000
00000000
00010000
00000000
00010000
00000000
,
10000000
00000000
00100000
00000000
01000000
00000000
00001000
00000000
00100000
00000000
00010000
00000000
00100000
00001000
00100000
00000000
,
00001000
00010000
00000000
00000010
00010000
00000000
00000010
00001000
00000000
00000001
00001000
00000001
00001000
00000000
00000001
00000000
,
00001001
00000000
00000000
00000000
,
00000010
00000001
00000100
00000010
00001000
00000100
00000010
00000100
,
00010000
00001000
00010000
00000000
00001000
00000000
01000000
00010000
00000000
01000000
00010000
00000000
00100000
00000000
01000000
00000000
,
10000000
00100000
01000000
00100000
00010000
00001000
00000100
00000010
,
00001000
00000000
00000100
00000000
00000001
00000000
00000100
00000010
00000000
00000100
00000010
00000000
00000001
00000000
00001000
00000000
,
00000100
00000010
00000100
00010000
00001000
00100000
00001000
00010000
,
01000000
00000000
00100000
00010000
00000000
10000000
01000000
00000000
10000000
00100000
10000000
00000000
00010000
01000000
00010000
00000000
,
00100000
00010000
00001000
00000100
00000000
00000110
00000000
00001001
,
00001000
00000000
00000100
00000010
00000000
00000100
00000010
00000000
00000001
00000010
00000100
00001000
00000001
00000000
00000000
00000000
,
00000100
00000010
00001000
00000100
00010000
00001000
00000010
00001000
,
00010000
00001000
00010000
00000000
00001000
00000000
01000000
00010000
00000000
01000000
00010000
00000000
00100000
01000000
00100000
00000000
,
00010000
10000000
00100000
00010000
00100000
01000000
00010000
00100000
,
00001000
00000000
00010000
00000000
00000010
00000000
00001000
00000100
00000000
00000010
00000001
00000000
00001000
00000000
00000001
00000000
,
00000100
00001000
00010000
00001000
00010000
00100000
01000000
00001000
,
00010000
00000000
01000000
10000000
00000000
01000000
10000000
00000000
01000000
00100000
01000000
00000000
00100000
00010000
00100000
00000000
,
01000000
00010000
00001000
00000010
00000000
00000011
00000000
00002001
,
00000000
00000001
00000001
00003001
00000000
00000001
00001001
00000000
,
00000100
00001000
00000100
00000000
00010000
00000000
00001000
00100000
00000000
00001000
00100000
00000000
00010000
01000000
00100000
00000000
,
10000000
00100000
10000000
00000000
01000000
00000000
00100000
00001000
00000000
00010000
00001000
00000000
00010000
00001000
00010000
00000000
,
00000100
00001000
00000100
00000000
00000010
00000000
00000001
00001000
00000000
00000001
00001000
00000000
00000010
00000100
00000010
00000000
,
00001000
00000100
00000000
00001000
00000100
00000000
00010000
00001000
00000000
00010000
00001000
00000000
00011000
00000000
00000000
00000000
,
00100000
00010000
00000000
00100000
00010000
00000000
01000000
00100000
00000000
01000000
00100000
00000000
01100000
00000000
00000000
00000000
,
10000000
01000000
00000000
00100000
00010000
00000000
00100000
00001000
00000000
00010000
00001000
00010000
00001000
00000000
00000000
00000000
,
00011000
00000000
00000000
00000000
,
00000000
00000000
00000000
00000000
;
