
//----- song ID: drow -----//
#TITLE:Next Phase;
#ARTIST:Dazsta;
#BANNER:Next Phase.png;
#BACKGROUND:Next Phase-bg.png;
#CDTITLE:./CDTitles/DDR A20 PLUS.png;
#MUSIC:Next Phase.ogg;
#SAMPLESTART:23.406;
#SAMPLELENGTH:15;
#BPMS:0=174;
#NOTES:
     dance-single:
     :
     Beginner:
     4:
     :
0000
0000
0000
0000
,
0000
0000
0000
0000
,
0000
0000
0000
0000
,
0000
0000
0000
0000
,
0000
0000
0000
0000
,
0000
0000
0000
0000
,
0000
0000
0000
0000
,
0000
0000
0000
0000
,
0000
0000
0000
0000
,
0010
0000
0000
0000
,
0010
0000
0000
0000
,
0100
0000
0000
0000
,
0100
0000
0000
0000
,
0001
0000
0001
0000
,
1000
0000
1000
0000
,
0001
0000
1000
0000
,
0001
0000
1000
0000
,
0010
0000
0000
0000
,
0001
0000
0001
0000
,
0010
0000
0000
0000
,
1000
0000
1000
0000
,
0010
0000
0100
0000
,
0010
0000
0100
0000
,
0001
0000
1000
0000
,
0001
0001
0001
0000
,
2000
0000
0000
0000
,
3000
0000
0000
0000
,
0002
0000
0000
0000
,
0003
0000
0000
0000
,
2000
0000
3000
0000
,
0020
0000
0030
0000
,
0002
0000
0003
0000
,
0200
0000
0300
0000
,
1001
0000
0000
0000
,
0001
0000
0001
0000
,
1000
0000
1000
0000
,
0001
0000
1000
0000
,
1001
0000
0000
0000
,
0010
0000
0010
0000
,
0100
0000
0100
0000
,
0010
0000
0100
0000
,
1001
0000
0000
0000
,
0001
0000
0010
0000
,
1000
0000
0010
0000
,
0001
0001
0001
0000
,
1001
0000
0000
0000
,
1000
0000
0100
0000
,
0001
0000
0100
0000
,
1000
1000
1000
0000
,
1001
0000
0000
0000
,
0010
0000
0010
0000
,
0001
0001
0001
0000
,
0010
0010
0010
0000
,
1001
0000
0000
0000
,
0100
0000
0100
0000
,
1000
1000
1000
0000
,
0100
0100
0100
0000
,
1001
0000
0000
0000
,
0001
0001
1000
0000
,
1000
1000
0001
0000
,
0001
0001
1000
0000
,
1001
0000
0000
0000
,
0010
0010
0100
0000
,
0100
0100
0010
0000
,
0010
0010
0100
0000
,
0002
0000
0003
0000
,
0020
0000
0030
0000
,
2000
0000
3000
0000
,
0200
0000
0300
0000
,
0002
0000
0003
0000
,
0200
0000
0300
0000
,
2000
0000
3000
0000
,
0020
0000
0030
0000
,
0001
0000
0001
0000
,
0010
0010
0010
0000
,
1000
0000
1000
0000
,
0010
0010
0010
0000
,
0001
0001
0001
0000
,
1000
1000
1000
0000
,
0001
0000
1000
0000
,
0001
1000
0001
0000
,
1001
0000
0000
0000
,
0000
0000
0000
0000
;
#NOTES:
     dance-single:
     :
     Easy:
     7:
     :
0000
0000
0000
0000
,
0000
0000
0000
0000
,
0000
0000
0000
0000
,
0000
0000
0000
0000
,
0000
0000
0000
0000
,
0000
0000
0000
0000
,
0000
0000
0000
0000
,
0000
0000
0000
0000
,
0000
0000
0000
0000
,
0001
0000
0001
0000
,
0010
0000
0010
0000
,
1000
0000
1000
0000
,
0100
0000
0100
0000
,
0010
0001
1000
0000
,
0100
1000
0001
0000
,
0010
0001
1000
0010
,
0100
0001
1001
0000
,
0002
0000
0000
0000
,
0100
0000
0100
0000
,
2003
0000
0000
0000
,
0100
0000
0100
0000
,
3010
0010
0010
0000
,
0100
0100
0100
0000
,
0001
1000
0001
0010
,
0100
0000
0010
0010
0000
0000
0000
0000
,
0001
0010
0001
0000
,
1000
0010
1000
0000
,
0100
0010
0100
0000
,
0010
0001
0010
0000
,
0001
0100
0001
0100
,
0010
1000
0010
1000
,
0010
0100
0001
0010
,
0100
1000
0100
1001
,
1000
0010
0010
0000
,
0001
0010
0010
0000
,
0001
0010
1000
0010
,
0001
1000
1001
0000
,
0001
0100
0100
0000
,
1000
0100
0100
0000
,
0001
0100
1000
0100
,
0001
0010
1001
0000
,
0010
0001
0010
0001
,
1000
0010
1000
0010
,
0100
0010
0100
0010
,
1000
0001
1001
0000
,
0010
1000
0010
1000
,
0001
0010
0001
0010
,
0100
1000
0010
0001
,
0100
1000
1001
0000
,
0110
0000
0001
0100
,
1000
0100
0001
0000
,
1000
0100
0110
0000
,
0001
0100
0110
0000
,
1001
0000
1000
0100
,
0001
0100
1000
0000
,
0001
0010
0110
0000
,
1000
0010
0110
0000
,
1001
0000
0010
0100
,
0001
1000
0001
0000
0010
0000
0000
0000
,
0001
1000
0001
0000
0100
0000
0000
0000
,
0001
1000
0001
0000
0010
0000
0000
0000
,
0110
0000
0010
0001
,
1000
0001
1000
0000
0010
0000
0000
0000
,
1000
0001
1000
0000
0001
1000
0001
0000
,
0010
0100
1001
0000
,
2000
0000
0010
0000
,
0100
0100
0100
0000
,
3002
0000
0010
0000
,
0100
0100
0100
0000
,
2003
0000
0010
0000
,
0001
0001
0001
0000
,
3002
0000
0010
0000
,
1000
1000
1000
0000
,
2003
0000
0010
0000
,
3002
0000
0010
0000
,
2003
0000
0100
0000
,
3002
0000
0100
0000
,
1003
0100
0110
0000
,
0001
0100
0110
0000
,
0010
1000
0100
0001
,
0010
0100
0010
0000
,
1001
0000
0000
0000
,
0000
0000
0000
0000
;
#NOTES:
     dance-single:
     :
     Medium:
     11:
     :
0000
0000
0000
0000
,
0000
0000
0000
0000
,
0000
0000
0000
0000
,
0000
0000
0000
0000
,
0000
0000
0000
0000
,
0000
0000
0000
0000
,
0000
0000
0000
0000
,
0000
0000
0000
0000
,
0000
0000
0000
0000
,
0001
0000
0001
0000
0010
0001
0010
0000
,
0100
0000
0100
0000
1000
0100
1000
0000
,
0010
0100
0010
0000
0100
0001
0100
0000
,
0001
0010
0100
0010
0100
1000
0010
0000
,
1000
0000
1000
0000
0010
1000
0010
0000
,
0100
0000
0100
0000
0001
0100
0001
0000
,
0100
0010
0100
0010
1000
0100
0010
0100
,
0010
0001
0100
0010
0001
0010
0100
0000
,
0001
0100
0001
0010
0100
1000
0010
0000
,
1000
0100
0001
0000
0001
0100
1000
0000
,
1000
0100
1000
0010
0100
0001
0010
0000
,
0001
0100
1000
0000
1000
0100
0001
0000
,
0001
0100
0001
0000
0010
0100
0010
0000
,
0100
1000
0100
0000
1000
0010
1000
0000
,
0010
1000
0100
0000
0001
0100
1000
0000
,
0010
0000
0100
0100
0000
0000
1001
0000
,
0010
0001
0100
0010
0100
0010
1000
0000
,
0100
1000
0010
0100
0010
0100
0001
0000
,
0010
0001
1000
0010
0100
0010
0100
0000
,
0010
1000
1010
0000
0001
0010
0011
0000
,
0001
1000
0100
0010
0100
1000
0010
0000
,
1000
0001
0100
0010
0100
0001
0010
0000
,
0001
1000
0010
0100
0001
0010
0100
0000
,
0011
1010
2002
3003
,
0110
0000
1000
0100
1000
0001
0010
0000
,
0100
1000
0010
0000
0100
0001
0010
0000
,
0110
0000
0001
0100
0001
1000
0010
0000
,
2020
3030
0022
0033
,
1001
0000
0010
0100
0010
1000
0100
0000
,
0010
0100
0001
0000
0100
1000
0010
0000
,
1001
0000
0100
0010
0100
0001
0010
0000
,
0100
0100
1000
1000
0010
0100
0001
0000
,
1001
0000
0001
0000
0001
1000
0001
0000
,
1000
0100
0010
0001
0100
0010
1000
0000
,
1001
0000
1000
0100
1000
0100
0010
0000
,
0022
0033
2020
3030
,
0110
0000
0100
0000
0010
1000
0010
0000
,
0100
0001
0010
0100
0010
0100
1000
0000
,
1000
0100
0001
0000
1000
0010
0001
0000
,
0100
0001
0100
0010
1000
0100
0001
0000
,
0110
0000
1000
0100
1000
0001
0100
0000
,
0001
0001
0001
0000
0010
0010
0010
0000
,
0110
0000
0001
0010
0001
1000
0010
0000
,
1000
1000
1000
0000
0100
0100
0100
0000
,
1010
0000
0010
0000
1000
1000
1000
0000
,
0100
0100
0010
0010
0001
0001
0001
0000
,
0010
0100
0010
0100
1000
0001
0010
0000
,
2200
3300
0202
0303
,
0110
0000
0010
0100
0001
0100
1000
0000
,
0100
0100
0100
0000
0001
0001
0001
0000
,
0010
0100
0010
0001
0100
1000
0100
0000
,
0001
0001
0010
0010
0100
1000
0100
0000
,
1001
0000
0001
0100
0001
0010
0100
0000
,
1000
1000
0010
0100
0001
0001
0001
0000
,
1000
1000
1000
1000
0010
0100
0100
0000
,
0001
0001
1000
0000
1001
0000
1001
0000
,
0010
0000
0001
0000
0010
0000
0001
0000
1000
0010
0000
0010
0000
0000
0000
0000
,
1000
0000
0010
0000
1000
0000
0010
0000
0100
0001
0000
0001
0000
0000
0000
0000
,
0010
0001
0100
0010
1000
0100
0001
0100
,
1000
0010
0100
0001
0001
0000
1001
0000
,
0100
0000
1000
0000
0100
0000
1000
0000
0010
0100
0000
0100
0000
0000
0000
0000
,
0001
0000
0010
0000
0001
0000
0010
0000
0100
0010
0000
0010
0000
0000
0000
0000
,
0100
1000
0010
0100
0001
0100
1000
0100
,
0001
0010
0100
1000
1000
0000
1001
0000
,
0001
1000
0001
1000
0010
0100
0010
0000
,
1000
0100
1000
0000
0001
0100
0001
0000
,
0010
0100
0010
0100
1000
0001
1000
0000
,
0010
1000
0010
0000
0100
0001
0100
0000
,
0001
0001
0100
0100
,
1000
1000
0010
0010
,
1000
0100
0010
0100
0001
0100
1000
0000
,
0010
0100
0010
0100
0001
0000
0010
0000
,
2002
0000
0000
0000
,
0000
0000
0000
0000
,
3003
0000
0000
0000
,
0000
0000
0000
0000
;
#NOTES:
     dance-single:
     :
     Hard:
     15:
     :
0000
0000
0000
0000
,
0000
0000
0000
0000
,
0000
0000
0000
0000
,
0000
0000
0000
0000
,
0000
0000
0000
0000
,
0000
0000
0000
0000
,
0000
0000
0000
0000
,
0000
0000
0000
0000
,
0000
0000
0000
0000
,
1000
0000
0100
0000
1000
0000
0001
0000
1000
0010
0000
1000
0000
0000
0100
0000
,
0010
0000
0001
0000
1000
0000
0001
0000
0100
0001
0000
0010
0000
0000
0001
0000
,
1000
0000
0100
0000
0010
0000
0001
0000
0100
0010
0000
1000
0000
0000
0100
0000
,
0010
0100
1000
0100
0001
0100
1000
0000
,
0001
0000
0100
0000
0001
0000
1000
0000
0001
0010
0000
0001
0000
0000
0100
0000
,
0010
0000
1000
0000
0001
0000
1000
0000
0100
1000
0000
0010
0000
0000
1000
0000
,
0001
0000
0100
0000
0010
0000
1000
0000
0100
0010
0000
0001
0000
0000
0100
0000
,
0010
0000
0100
0000
0001
0000
1000
0000
0100
0010
0100
0010
0100
0000
0000
0000
,
0010
0001
1000
0001
2000
0000
0010
0000
,
0001
0001
0100
0001
,
3010
1000
0001
1000
0002
0000
0010
0000
,
1000
1000
0100
1000
,
0103
0001
0100
0001
0020
0000
0001
0000
,
0100
0100
1000
0100
,
2030
0010
3020
0001
,
0230
0000
0010
0310
0000
0000
1001
0000
,
0010
1000
0100
1000
0010
0100
0001
0000
,
0010
0001
0100
0001
0010
0100
1000
0000
,
0001
0100
0001
0100
1000
0100
0001
0000
,
1000
0100
1000
0100
0001
0100
1000
0000
,
0010
1000
0010
0000
1000
0100
1000
0000
0100
0010
0100
0000
0010
0001
0010
0000
,
0001
0010
0100
0000
0010
0001
0100
0000
0010
1000
0100
0000
1000
0100
0010
0000
,
0100
1000
0100
0010
0001
0010
0100
0000
0010
0001
0010
0100
1000
0100
0010
0000
,
0001
1000
0001
1000
0001
0000
1000
0000
0001
0000
1000
0000
1001
0000
0000
0000
,
0110
0000
1000
1000
0010
1000
0001
0100
,
0001
0100
0001
0000
0100
0010
0100
0000
0010
0000
1000
0000
0100
0000
0000
0000
,
1100
0000
0100
0100
1000
0100
0001
0100
,
2200
3300
0202
0303
,
1001
0000
0010
0010
1000
0001
0100
0010
,
1000
0010
1000
0000
0100
0010
0100
0000
0010
0000
0001
0000
0100
0000
0000
0000
,
0101
0000
0010
0010
0001
0100
1000
0100
,
0001
0000
0001
0000
0010
0100
0010
0000
0100
1000
0100
0000
0110
0000
0000
0000
,
1001
0000
0000
0000
1000
0001
0100
0000
0001
1000
0100
0000
0010
0000
0100
0000
,
0010
0100
1000
0000
0010
0100
0001
0000
0010
0000
0001
0000
1000
0000
0000
0000
,
0001
0000
0001
0000
1000
0001
0010
0000
0001
1000
0010
0000
1000
0000
0010
0000
,
0022
0033
2200
3300
,
1001
0000
0000
0000
0010
0100
0010
0000
1000
0100
1000
0000
0100
0000
0010
0000
,
0001
0100
0001
0000
0100
0010
0100
0000
0010
0000
1000
0000
0001
0000
0000
0000
,
0010
0001
1000
0010
1000
0001
0100
0001
,
1000
0001
0100
0000
0001
0000
0001
0000
1000
0001
0010
0000
0110
0000
0000
0000
,
1001
0002
0023
2030
,
3020
0032
0203
0310
,
1010
0000
0000
0000
1000
0000
0010
0000
1000
0100
1000
0000
0010
0000
1000
0000
,
0100
0000
0000
0000
0100
0000
0000
0000
0100
0010
0100
0000
1000
0000
0000
0000
,
0011
0000
0000
0000
0001
0010
0001
0000
0100
0001
0100
0000
0010
0000
0100
0000
,
0010
1000
0010
0000
0100
0010
0100
0000
0001
0000
1000
0000
0010
0000
0000
0000
,
1100
0000
0010
0001
1000
0010
0001
0000
,
0220
0330
2002
3003
,
1001
0000
0010
0100
0010
1000
0100
0000
,
0010
0000
0100
0000
0010
0000
0001
0000
0100
0001
0010
0000
0100
0000
0000
0000
,
0010
0100
0010
0001
0100
0010
0100
0000
,
0010
0000
0010
0000
0100
0001
0010
0000
0100
0000
1000
0000
0010
0000
0000
0000
,
0110
0000
0010
1000
0010
0001
0010
0000
,
0001
0010
1000
0000
0010
0000
0100
0000
0001
0000
0010
0000
0100
0000
0000
0000
,
1000
0000
0100
0000
1000
0100
0001
0000
0100
0000
1000
0000
0010
0000
0100
0000
,
0001
0100
1000
0000
0100
0000
0001
0000
1000
0000
0001
0000
1001
0000
0000
0000
,
1000
0000
0100
0000
0010
0000
0100
0000
1000
0100
1000
0100
1000
0000
0010
0000
,
0100
0000
0001
0000
1000
0000
0001
0000
0100
0001
0100
0001
0100
0000
0001
0000
,
1000
0100
0010
0001
0100
0010
1000
0100
,
0001
0100
1000
0010
0100
0000
1001
0000
,
0001
0000
0010
0000
0100
0000
0010
0000
0001
0010
0001
0010
0001
0100
0010
0000
,
1000
0000
0010
0000
0100
0000
0010
0000
1000
0010
1000
0010
1000
0100
0010
0000
,
0001
0010
0100
1000
0010
0100
0001
0010
,
1000
0010
0001
0100
0010
0000
1001
0000
,
0010
1000
0001
1000
0002
0000
0010
0000
,
1000
1000
1000
0000
0100
0000
1000
0000
,
0013
0001
1000
0001
2000
0000
0010
0000
,
0001
0001
0001
0000
0100
0000
0001
0000
,
3010
1000
0010
0000
1000
0000
0100
0000
0010
0001
0010
0000
0001
0000
0100
0000
,
0010
1000
0001
0000
1000
0000
0100
0000
0010
0001
1000
0000
0001
0000
0100
0000
,
0010
1000
0100
1000
0010
0000
0001
0000
0010
0001
0100
0001
0010
0000
1000
0000
,
0001
0100
1000
0100
0001
0000
0010
0000
0100
0000
0010
0000
0001
0000
0000
0000
,
2002
0000
0000
0000
,
0000
0000
0000
0000
,
3003
0000
0000
0000
,
0000
0000
0000
0000
;
#NOTES:
     dance-double:
     :
     Easy:
     7:
     :
00000000
00000000
00000000
00000000
,
00000000
00000000
00000000
00000000
,
00000000
00000000
00000000
00000000
,
00000000
00000000
00000000
00000000
,
00000000
00000000
00000000
00000000
,
00000000
00000000
00000000
00000000
,
00000000
00000000
00000000
00000000
,
00000000
00000000
00000000
00000000
,
00000000
00000000
00000000
00000000
,
00010000
00000000
00010000
00000000
,
00001000
00000000
00001000
00000000
,
00100000
00000000
00100000
00000000
,
00010000
00000000
00010000
00000000
,
00100000
00010000
00100000
00000000
,
00001000
00010000
00001000
00000000
,
00010000
00000010
00010000
00000010
,
00001000
00000100
00001100
00000000
,
00000200
00000000
00000000
00000000
,
00001000
00000000
00001000
00000000
,
00020300
00000000
00000000
00000000
,
00001000
00000000
00001000
00000000
,
00031000
00001000
00001000
00000000
,
00100000
00100000
00100000
00000000
,
00010000
00100000
00010000
01000000
,
00100000
00000000
01000000
01000000
00000000
00000000
00000000
00000000
,
00100000
01000000
00010000
00000000
,
00100000
00001000
00010000
00000000
,
00001000
00010000
00001000
00000000
,
00010000
00000100
00000010
00000000
,
00000001
00000100
00000001
00000100
,
00000010
00001000
00000010
00001000
,
00000100
00010000
00000100
00010000
,
00001000
00010000
00001000
00011000
,
00010000
00001000
00001000
00000000
,
00100000
00010000
00010000
00000000
,
10000000
01000000
10000000
01000000
,
00100000
00010000
10010000
00000000
,
00010000
00100000
00100000
00000000
,
00001000
00010000
00010000
00000000
,
00000100
00000010
00000100
00000010
,
00000001
00000100
00001001
00000000
,
00000001
00000100
00000010
00000100
,
00000010
00001000
00000100
00001000
,
00000100
00010000
00001000
00010000
,
00001000
00010000
00011000
00000000
,
00100000
00010000
00100000
00010000
,
10000000
00100000
10000000
00100000
,
01000000
00001000
01000000
00001000
,
00010000
00001000
00011000
00000000
,
00110000
00000000
10000000
01000000
,
00010000
01000000
00100000
00000000
,
00010000
01000000
00010000
00000000
,
00100000
00001000
00100000
00000000
,
00011000
00000000
00010000
00001000
,
00010000
00000010
00001000
00000000
,
00000010
00001000
00000100
00000000
,
00000010
00000001
00000100
00000000
,
00001001
00000000
00000001
00000100
,
00000010
00000100
00000010
00000000
00010000
00000000
00000000
00000000
,
00001000
00010000
00001000
00000000
00100000
00000000
00000000
00000000
,
00001000
00010000
00001000
00000000
01000000
00000000
00000000
00000000
,
01100000
00000000
10000000
00010000
,
01000000
00100000
01000000
00000000
00010000
00000000
00000000
00000000
,
00100000
00010000
00100000
00000000
00001000
00000000
00000000
00000000
,
00010000
00001000
00011000
00000000
,
00200000
00000000
00001000
00000000
,
00010000
00010000
00010000
00000000
,
00302000
00000000
00010000
00000000
,
00100000
00100000
00100000
00000000
,
00023000
00000000
00000100
00000000
,
00001000
00001000
00001000
00000000
,
00030200
00000000
00001000
00000000
,
00010000
00010000
00010000
00000000
,
00002300
00000000
00003020
00000000
,
00000230
00000000
00002300
00000000
,
00023000
00000000
00230000
00000000
,
20300000
00000000
30020000
00000000
,
00130000
00010000
01000000
00000000
,
00100000
10000000
01000000
00000000
,
00010000
00001000
00000100
00000001
,
00000010
00000100
00000010
00000000
,
00001001
00000000
00000000
00000000
,
00000000
00000000
00000000
00000000
;
#NOTES:
     dance-double:
     :
     Medium:
     11:
     :
00000000
00000000
00000000
00000000
,
00000000
00000000
00000000
00000000
,
00000000
00000000
00000000
00000000
,
00000000
00000000
00000000
00000000
,
00000000
00000000
00000000
00000000
,
00000000
00000000
00000000
00000000
,
00000000
00000000
00000000
00000000
,
00000000
00000000
00000000
00000000
,
00000000
00000000
00000000
00000000
,
01000000
00000000
01000000
00000000
00100000
00010000
00100000
00000000
,
00001000
00000000
00001000
00000000
00010000
00001000
00010000
00000000
,
00000010
00000100
00000010
00000000
00000100
00000001
00000100
00000000
,
00000001
00000100
00000001
00000100
00000010
00001000
00000100
00000000
,
00000010
00000000
00000010
00000000
00000100
00001000
00000100
00000000
,
00010000
00000000
00010000
00000000
00001000
00010000
00001000
00000000
,
01000000
00100000
01000000
00000000
00100000
10000000
00100000
00000000
,
10000000
01000000
10000000
01000000
00100000
00010000
01000000
00000000
,
00010000
00100000
00001000
00010000
00000010
00000000
00001000
00000000
,
00000001
00001000
00000010
00000000
00000010
00001000
00000100
00000000
,
00001000
00000010
00010000
00001000
00100000
00000000
00010000
00000000
,
10000000
00010000
00100000
00000000
00100000
00010000
01000000
00000000
,
00100000
00010000
00001000
00000000
00010000
00001000
00000010
00000000
,
00001000
00000010
00000001
00000000
00000010
00000001
00000100
00000000
,
00000001
00000100
00000001
00000100
00000010
00001000
00000100
00010000
,
00001000
00000000
00010000
00010000
00000000
00000000
00011000
00000000
,
00100000
00010000
00100000
00010000
01000000
00100000
10000000
00000000
,
00100000
10000000
00100000
10000000
01000000
00100000
00010000
00000000
,
00100000
00001000
00010000
00001000
00000100
00000001
00000010
00000000
,
00000001
00000010
00000011
00000000
00001000
00000010
00001010
00000000
,
00000100
00000001
00000100
00000001
00000010
00000100
00001000
00000000
,
00000100
00010000
00001000
00010000
00100000
10000000
01000000
00000000
,
10000000
01000000
00010000
01000000
10000000
00100000
01000000
00000000
,
01100000
01010000
00022000
00033000
,
00011000
00000000
00010000
00001000
00010000
00000100
00000010
00000000
,
00000001
00001000
00000100
00000000
00000010
00000001
00001000
00000000
,
00001010
00000000
00000010
00000100
00000001
00000100
00000010
00000000
,
00002020
00003030
00002200
00003300
,
00011000
00000000
00001000
00010000
00001000
01000000
00100000
00000000
,
10000000
00010000
01000000
00000000
00100000
10000000
00010000
00000000
,
00110000
00000000
00100000
01000000
10000000
01000000
00100000
00000000
,
00010000
00010000
00100000
00100000
00001000
00010000
00001000
00000000
,
00011000
00000000
00001000
00000000
00000010
00000001
00000010
00000000
,
00000001
00000100
00000010
00000100
00000010
00001000
00000100
00000000
,
00001100
00000000
00010000
00001000
00010000
00100000
01000000
00000000
,
02020000
03030000
00220000
00330000
,
00011000
00000000
00010000
00000000
00100000
10000000
00100000
00000000
,
10000000
01000000
00100000
01000000
00100000
00010000
01000000
00000000
,
00100000
01000000
00010000
00000000
00100000
00001000
00010000
00000000
,
00000100
00001000
00000100
00000010
00000001
00000100
00000010
00000000
,
00001010
00000000
00000100
00000010
00001000
00000100
00010000
00000000
,
00001000
00001000
00001000
00000000
00010000
00010000
00010000
00000000
,
00110000
00000000
01000000
00100000
00010000
01000000
00001000
00000000
,
00010000
00010000
00010000
00000000
00001000
00001000
00001000
00000000
,
00011000
00000000
00000010
00000000
00001000
00001000
00001000
00000000
,
00000010
00010000
00010000
00000000
00001000
00001000
00001000
00000000
,
00100000
00010000
00100000
00010000
10000000
00010000
00100000
00000000
,
00220000
00330000
00022000
00033000
,
00001010
00000000
00000100
00000010
00001000
00000100
00010000
00000000
,
00001000
00001000
00001000
00000000
00010000
00010000
00010000
00000000
,
00011000
00000000
00100000
00001000
00100000
00010000
01000000
00000000
,
00010000
00010000
00100000
00100000
00001000
00010000
00000100
00000000
,
00001001
00000000
00000100
00000010
00000100
00000001
00001000
00000000
,
00000100
00000100
00010000
00001000
00010000
00010000
00010000
00000000
,
00001000
00001000
00001000
00001000
00010000
00001000
00001000
00000000
,
01000000
01000000
00010000
00000000
01100000
00000000
10010000
00000000
,
00100000
00000000
00001000
00000000
00100000
00000000
00001000
00000000
00010000
00000010
00000000
00000010
00000000
00000000
00000000
00000000
,
00001000
00000000
00000100
00000000
00001000
00000000
00000100
00000000
00000010
00000001
00000000
00000001
00000000
00000000
00000000
00000000
,
00000010
00000100
00001000
00000010
00010000
00001000
00100000
00000000
,
00001000
00010000
00000010
00001000
00001000
00000000
00001001
00000000
,
00000010
00000000
00010000
00000000
00000010
00000000
00010000
00000000
00001000
00100000
00000000
00100000
00000000
00000000
00000000
00000000
,
00010000
00000000
01000000
00000000
00010000
00000000
01000000
00000000
00100000
10000000
00000000
10000000
00000000
00000000
00000000
00000000
,
00100000
01000000
00010000
00100000
00001000
00010000
00000010
00000000
,
00010000
00001000
00100000
00010000
00010000
00000000
10010000
00000000
,
10000000
01000000
00010000
01000000
00010000
00000000
00001000
00000000
,
00010000
00001000
00010000
00000000
00000010
00001000
00000001
00000000
,
00000001
00000100
00001000
00000100
00001000
00000000
00010000
00000000
,
00001000
00010000
00001000
00000000
00100000
00010000
10000000
00000000
,
00100000
00100000
01000000
01000000
,
00010000
00010000
00001000
00001000
,
00000100
00001000
00000100
00001000
00000001
00000100
00000010
00000000
,
00001000
00000100
00010000
00001000
00010000
00000000
00001000
00000000
,
00022000
00000000
00000000
00000000
,
00000000
00000000
00000000
00000000
,
00033000
00000000
00000000
00000000
,
00000000
00000000
00000000
00000000
;
#NOTES:
     dance-double:
     :
     Hard:
     15:
     :
00000000
00000000
00000000
00000000
,
00000000
00000000
00000000
00000000
,
00000000
00000000
00000000
00000000
,
00000000
00000000
00000000
00000000
,
00000000
00000000
00000000
00000000
,
00000000
00000000
00000000
00000000
,
00000000
00000000
00000000
00000000
,
00000000
00000000
00000000
00000000
,
00000000
00000000
00000000
00000000
,
10000000
00000000
01000000
00000000
10000000
00000000
01000000
00000000
00100000
00010000
00000000
00010000
00000000
00000000
00100000
00000000
,
00001000
00000000
00010000
00000000
00001000
00000000
00010000
00000000
00000100
00001000
00000000
00001000
00000000
00000000
00000100
00000000
,
00000010
00000000
00000001
00000000
00000100
00000000
00001000
00000000
00000100
00001000
00000000
00001000
00000000
00000000
00000100
00000000
,
00000001
00000010
00000100
00010000
00001000
00000100
00000001
00000000
,
00000001
00000000
00000100
00000000
00000001
00000000
00000100
00000000
00000010
00001000
00000000
00001000
00000000
00000000
00000010
00000000
,
00010000
00000000
00001000
00000000
00010000
00000000
00001000
00000000
01000000
00010000
00000000
00010000
00000000
00000000
01000000
00000000
,
00100000
00000000
10000000
00000000
01000000
00000000
00010000
00000000
01000000
00010000
00000000
00010000
00000000
00000000
01000000
00000000
,
10000000
00100000
01000000
00001000
00010000
01000000
10000000
00000000
,
00100000
01000000
00010000
00100000
00002000
00000000
00010000
00000000
,
00000100
00000100
00010000
00013000
,
00010000
00001000
00000010
00000100
00020000
00000000
00001000
00000000
,
01000000
01000000
00001000
00031000
,
00010000
00001000
01000000
00100000
10000000
01000000
00010000
00001000
,
00000010
00001000
00010000
01000000
00010000
00001000
00000010
00000001
,
00000100
00000001
00000010
00000100
00001000
00000100
00010000
00001000
,
00010000
01000000
00100000
00100000
00000000
00000000
10010000
00000000
,
00100000
00010000
00100000
00001000
00010000
00000010
00000100
00000000
,
00000010
00001000
00000010
00010000
00001000
00100000
01000000
00000000
,
10000000
00010000
01000000
00100000
00010000
00001000
00000100
00000000
,
00000001
00000010
00001000
00000010
00000001
00000100
00000010
00000000
,
00001000
00000000
00001000
00000000
00000010
00001000
00000010
00000000
00010000
00000000
00010000
00000000
00001000
00010000
00001000
00000000
,
00100000
00000000
00100000
00000000
00010000
00100000
00010000
00000000
01000000
00000000
01000000
00000000
00100000
01000000
00100000
00000000
,
01000000
00001000
01000000
00001000
00100000
00001000
00100000
00000000
00001000
00010000
00001000
00010000
00000010
00010000
00000010
00000000
,
00001000
00000010
00001000
00000010
00001000
00000000
00000010
00000000
00001000
00000000
00000001
00000000
00001001
00000000
00000000
00000000
,
00001010
00000000
00010000
00010000
00001000
00010000
00001000
00100000
,
00010000
00100000
01000000
00000000
10000000
00100000
01000000
00000000
00100000
00000000
01000000
00000000
00010000
00000000
00000000
00000000
,
00110000
00000000
00001000
00001000
00010000
00001000
00000100
00000001
,
00000022
00000033
00002200
00003300
,
00001001
00000000
00000100
00000100
00001000
00000010
00010000
00001000
,
00100000
00010000
00100000
00000000
01000000
00100000
01000000
00000000
10000000
00000000
00100000
00000000
01000000
00000000
00000000
00000000
,
10100000
00000000
01000000
01000000
00010000
00100000
00001000
00010000
,
00001000
00000000
00001000
00000000
00000100
00000010
00000100
00000000
00000001
00000010
00000001
00000000
00000110
00000000
00000000
00000000
,
00001001
00000000
00000000
00000000
00000010
00000001
00000100
00000000
00000001
00000000
00000100
00000000
00000010
00000000
00001000
00000000
,
00000100
00000010
00000100
00000000
00001000
00000100
00010000
00000000
00001000
00000000
00100000
00000000
00010000
00000000
00000000
00000000
,
00100000
00000000
00100000
00000000
00010000
01000000
00010000
00000000
01000000
00010000
00100000
00000000
01000000
00000000
00100000
00000000
,
00220000
00330000
02020000
03030000
,
00011000
00000000
00000000
00000000
00010000
00000100
00001000
00000000
00000100
00001000
00000100
00000000
00000010
00000000
00000001
00000000
,
00000100
00000010
00000100
00000000
00000010
00001000
00000100
00000000
00001000
00000000
00000001
00000000
00000100
00000000
00000000
00000000
,
00000010
00001000
00000001
00000010
00000100
00001000
00000100
00010000
,
00001000
00010000
00001000
00000000
00010000
00000000
00010000
00000000
01000000
00000000
00100000
00000000
10010000
00000000
00000000
00000000
,
01100000
20000000
32000000
03020000
,
00032000
00003200
00000302
00000103
,
00000110
00000000
00000000
00000000
00001000
00000000
00000010
00000000
00001000
00000010
00001000
00000000
00000100
00000000
00000010
00000000
,
00001000
00000000
00000000
00000000
00010000
00000000
00000000
00000000
00001000
00010000
00001000
00000000
00010000
00000000
00000000
00000000
,
01100000
00000000
00000000
00000000
00010000
00000000
01000000
00000000
00010000
01000000
00010000
00000000
00100000
00000000
00010000
00000000
,
01000000
00100000
01000000
00000000
00010000
01000000
00010000
00000000
00100000
00000000
00001000
00000000
00010000
00000000
00000000
00000000
,
00011000
00000000
00001000
00000010
00000001
00000010
00000001
00000100
,
00002200
00003300
00022000
00033000
,
00110000
00000000
00100000
00010000
01000000
00100000
10000000
00000000
,
00100000
00000000
01000000
00000000
00010000
00000000
01000000
00000000
00001000
00010000
00001000
00000000
00010000
00000000
00000000
00000000
,
00000100
00000010
00000001
00000100
00000010
00001000
00000100
00000000
,
00010000
00000000
00010000
00000000
00001000
00010000
00001000
00000000
00100000
00000000
00010000
00000000
01000000
00000000
00000000
00000000
,
10010000
00000000
00100000
01000000
10000000
00100000
01000000
00000000
,
00100000
01000000
00100000
00000000
01000000
00000000
00010000
00000000
00100000
00000000
00001000
00000000
00010000
00000000
00000000
00000000
,
00001000
00000000
00001000
00000000
00000100
00000001
00000100
00000000
00000001
00000000
00000010
00000000
00001000
00000000
00010000
00000000
,
01000000
10000000
01000000
00000000
10000000
00000000
01000000
00000000
00010000
00000000
00001000
00000000
00011000
00000000
00000000
00000000
,
00000010
00000000
00001000
00000000
00000010
00000000
00000100
00000000
00000001
00000100
00000001
00000100
00000001
00000000
00000100
00000000
,
00000010
00000000
00010000
00000000
00001000
00000000
00010000
00000000
00001000
00010000
00001000
00010000
00001000
00000000
00010000
00000000
,
00001000
01000000
00100000
01000000
10000000
01000000
00100000
10000000
,
01000000
00010000
01000000
10000000
00100000
00000000
10010000
00000000
,
10000000
00000000
00100000
00000000
10000000
00000000
01000000
00000000
00100000
00010000
00100000
00010000
00100000
00010000
01000000
00000000
,
00010000
00000000
00100000
00000000
00001000
00000000
00010000
00000000
00001000
00010000
00001000
00010000
00001000
00010000
00001000
00000000
,
00010000
00001000
00000010
00000001
00000010
00001000
00000010
00000001
,
00000100
00000010
00001000
00000100
00010000
00001000
00011000
00000000
,
00010000
01000000
10000000
01000000
00020000
00000000
00001000
00000000
,
01000000
01000000
00001000
00001000
,
00031000
00000100
00000001
00000100
00002000
00000000
00010000
00000000
,
00000100
00000100
00010000
00010000
,
00013000
01000000
00100000
01000000
10000000
00100000
01000000
00100000
,
00010000
00001000
00000100
00000010
00000100
00000001
00000010
00001000
,
00010000
00001000
00010000
00001000
00100000
00000000
00010000
00000000
01000000
00100000
01000000
00100000
10000000
00000000
00010000
00000000
,
10000000
01000000
10000000
01000000
00100000
00000000
00010000
00000000
01000000
00000000
00001000
00000000
00010000
00000000
00000000
00000000
,
00022000
00000000
00000000
00000000
,
00000000
00000000
00000000
00000000
,
00033000
00000000
00000000
00000000
,
00000000
00000000
00000000
00000000
;
