
//----- song ID: nsya -----//
#TITLE:Never See You Again;
#ARTIST:BEMANI Sound Team "U1 overground";
#BANNER:Never See You Again.png;
#BACKGROUND:Never See You Again-bg.png;
#CDTITLE:./CDTitles/jubeat clan.png;
#MUSIC:Never See You Again.ogg;
#SAMPLESTART:85.498;
#SAMPLELENGTH:15;
#BPMS:0=160,68=80,84=160;
#STOPS:240=1.125;
#NOTES:
     dance-single:
     :
     Beginner:
     4:
     :
0000
0000
0000
0000
,
0000
0000
0000
0000
,
0000
0000
0000
0000
,
0000
0000
0000
0000
,
0000
0000
0000
0000
,
0100
0000
0100
0000
,
0010
0000
0010
0000
,
2000
0000
3000
0000
,
0002
0000
0003
0000
,
0100
0000
0010
0000
,
0100
0000
0001
0000
,
1000
0000
0100
0000
,
1000
0000
0010
0000
,
0100
0100
0100
0000
,
0001
0001
0001
0000
,
1000
0000
0100
0000
,
0010
0000
0001
0000
,
1001
0000
0100
0000
,
0110
0000
0001
0000
,
1001
0000
0010
0000
,
1000
1000
0001
0001
,
0100
0000
0000
0000
,
1000
0000
0010
0000
,
0100
0000
0100
0000
,
0001
0000
0010
0000
,
0110
0000
0000
0000
,
1000
0000
1000
0000
,
0001
0000
0100
0000
,
0001
0000
0010
0000
,
0100
0010
0100
0000
,
0010
0100
0010
0000
,
1000
0000
1000
0000
,
0100
0000
0100
0000
,
0010
0100
0010
0000
,
0100
0010
0100
0000
,
1000
0000
1000
0000
,
0001
0000
0001
0000
,
0200
0000
0000
0000
,
0000
0000
0300
0000
,
0001
0000
0001
0000
,
1000
0000
1000
0000
,
0010
0000
0100
0000
,
0010
0000
0100
0000
,
0001
0001
0001
0000
,
1000
1000
1000
0000
,
0200
0000
0000
0000
,
0000
0000
0300
0000
,
0020
0000
0000
0000
,
0000
0000
0030
0000
,
0001
0000
0100
0000
,
0001
0000
0100
0000
,
0010
0000
1000
0000
,
0010
0000
1000
0000
,
0100
0010
0100
0000
,
0010
0100
0010
0000
,
0001
0000
0100
0000
,
1000
0000
0100
0000
,
1001
0000
0000
0000
,
0110
0000
0000
0000
,
1001
0000
0110
0000
,
1001
0000
0000
0100
,
0000
0010
0000
0100
,
0000
0001
0000
0001
,
0000
1000
0000
0001
,
0000
0010
0000
0110
,
0000
0100
0000
0110
,
0000
0001
0000
1001
,
0000
1000
0000
1001
,
0000
0100
0000
0010
,
0000
0001
1000
0001
,
0000
1000
0000
0010
,
0000
0100
0010
0100
,
0000
0001
0001
0010
,
0000
1000
1000
0010
,
0000
0100
0100
0010
,
0000
1001
0000
0000
,
0000
0000
0000
0000
;
#NOTES:
     dance-single:
     :
     Easy:
     9:
     :
0000
0000
0000
0000
,
0000
0000
0000
0000
,
0000
0000
0000
0000
,
0000
0000
0000
0000
,
0000
0000
0000
0000
,
0010
0100
0001
0010
,
0100
1000
0010
0100
,
0002
0000
0000
0003
,
2000
0000
0000
3000
,
0010
0000
0100
0000
0001
0010
0001
0000
,
1000
0100
1000
0001
,
0010
0000
0100
0000
1000
0010
1000
0000
,
0100
0010
0001
0100
,
0010
0000
0010
0000
1000
0001
1000
0000
,
0001
0000
0001
0000
0010
0100
0010
0000
,
0001
1000
0010
0100
,
1001
0000
0110
0000
,
1000
0000
0100
0000
1000
0000
0010
0000
0100
0001
0100
0000
0010
0000
0100
0000
,
0001
0000
1000
0000
0010
0000
1000
0000
0100
0010
0100
0000
0010
0000
0001
0000
,
1000
0000
0010
0000
0100
0000
0001
0000
0010
0100
0010
0000
0002
0000
0000
0000
,
1003
0010
0100
0010
2000
0001
3010
0110
,
1000
0000
0100
0000
0010
0010
0100
0100
,
0020
0000
0031
1001
,
0100
0110
0001
0100
,
0010
1000
0010
0000
1000
0000
1000
0000
,
0002
0023
0032
0203
,
0310
1000
0100
0010
,
0100
1000
0010
0100
,
0002
0000
1003
0000
0010
0100
0010
0000
,
0100
0001
1000
1000
,
0010
0000
0100
0000
0001
0100
0001
0000
,
0010
0010
0100
0100
,
1000
0000
0010
0000
0100
0001
0100
0000
,
0001
0010
0100
0100
,
1000
0010
0100
0100
,
0001
0000
0010
0000
0001
0100
0001
0000
,
1000
0010
1000
0000
0010
0100
0010
0000
,
0200
0000
0000
0000
,
0302
0000
1000
1003
,
0110
0000
1001
0010
,
0100
0000
0100
0000
0001
0010
0001
0000
,
1000
0000
1000
0000
0010
0100
0010
0000
,
0100
0000
0001
0000
0010
0001
0010
0000
,
0200
0000
2300
0000
,
3001
0010
0001
0100
,
0020
0000
0000
0030
,
2000
0000
0000
3000
,
0002
0000
0000
0003
,
0200
0000
0000
0300
,
0010
0010
0100
0100
,
0001
0001
0010
0010
,
0100
1000
0100
0000
1000
0010
1000
0000
,
0001
0010
0001
0000
0100
0001
0100
0000
,
0010
0000
1000
0000
0010
0100
0010
0000
,
0100
0001
0010
0001
,
1000
0000
0100
0000
0010
0100
0010
0000
,
0001
1000
0100
1000
,
0010
0100
0010
0000
1001
0000
0000
0000
,
0100
0010
0100
0000
1001
0000
0000
0000
,
0001
0010
0001
0000
1000
0010
1000
0000
,
0200
0000
0000
0300
0000
0000
0000
0000
0000
0000
0000
0000
0000
0000
0000
0000
0000
0000
0000
0000
0000
0000
0000
0000
0010
0000
0000
0000
0000
0000
0000
0000
0000
0000
0000
0000
0000
0000
0000
0000
0010
0000
0000
0000
0000
0000
0000
0000
0000
0000
0000
0000
0000
0000
0000
0000
0010
0000
0000
0000
0000
0000
0000
0000
0000
0000
0000
0000
0000
0000
0000
0000
0001
0000
0000
0000
0000
0000
0000
0000
0000
0000
0000
0000
0000
0000
0000
0000
0001
0000
0000
0000
0000
0000
0000
0000
,
0000
0001
0000
1001
0000
0000
0000
0000
0000
0110
0000
0000
,
0000
0000
0000
0100
0000
0100
0000
0100
0000
1000
0000
1000
,
0000
1000
0000
1001
0000
0000
0000
0000
0000
0110
0000
0000
,
0000
0000
0000
0001
0000
0010
0000
0001
0000
0100
0000
0010
,
0000
0100
0000
0010
0000
1000
0000
0010
0000
1000
0000
0100
,
0000
1000
0000
0010
0000
0010
0000
0010
0000
0100
0000
0100
,
0000
0100
0000
0110
0000
0000
0000
0000
0000
1001
0000
0000
,
0000
0000
0100
1000
0100
0000
0010
0000
,
0001
1000
0100
1000
,
0010
0000
1000
0100
1000
0000
0001
0000
,
0010
0001
0100
0010
,
1000
0100
0100
0010
,
0010
0000
0001
0100
0001
0000
1000
0010
,
1000
0000
0100
0010
0100
0000
0010
0100
,
0010
1001
0000
0000
,
0000
0000
0000
0000
;
#NOTES:
     dance-single:
     :
     Medium:
     12:
     :
0000
0000
0000
0000
,
0000
0000
0000
0000
,
0000
0000
0000
0000
,
0000
0000
0000
0000
,
0000
0000
0000
0000
,
0001
0010
0001
0010
0001
0000
1001
0000
,
0010
1000
0010
1000
0010
0000
1001
0000
,
0200
0010
0000
0310
,
0002
1000
0000
1003
,
0010
0100
0010
1000
0001
0010
0100
0000
,
1000
0100
1000
0000
0001
0010
0001
0000
,
0100
0010
1000
0100
1000
0001
0010
0000
,
0100
1000
0100
0000
1000
0010
1000
0000
,
0001
0010
0001
0000
0100
0010
1000
0000
,
0100
0010
0100
0000
1000
0010
0100
0000
,
0001
0010
0100
0000
1000
0100
0010
0001
,
0100
0100
0100
0010
0110
0000
,
0010
0000
0000
0100
0000
0000
0010
0000
0000
0000
0000
0000
1000
0000
0100
0000
0010
0000
0001
0000
0000
0000
0000
0000
0100
0000
0000
0010
0000
0000
1000
0000
0000
0010
0000
0000
0100
0000
0000
0000
0000
0000
0001
0000
0000
0000
0000
0000
,
0010
0000
0000
0001
0000
0000
0010
0000
0000
0000
0000
0000
0100
0000
0000
1000
0000
0000
0100
0000
0000
0000
0000
0000
0010
0000
0000
0100
0000
0000
0010
0000
0000
0100
0000
0000
1000
0000
0010
0000
0100
0000
0001
0000
0000
0000
0000
0000
,
1000
0100
0010
0001
1000
0100
0010
0001
0100
0010
0100
0001
2000
0000
3200
0000
,
0310
0010
0001
0100
0010
0010
1000
0100
0020
0000
0031
1000
0001
0000
0100
0000
,
0010
0100
0010
1000
0100
0100
0010
0010
,
0001
0000
2000
0000
3010
0000
1000
0100
,
0010
0000
0110
0000
1000
0100
1000
0000
,
0001
0010
0001
0100
0010
0000
1010
0000
,
0100
0001
0200
0000
0320
0000
2030
0000
,
3100
0010
0100
0020
0000
0031
0100
0001
,
1000
0100
0010
0000
0002
0000
0103
0010
,
0200
0000
0310
1000
0001
0010
0001
0010
,
0100
1000
0010
0000
0110
0000
0101
0000
,
0010
0001
0100
0000
0010
1000
0100
0010
,
0001
0000
0100
0000
0010
1000
0010
0000
,
0100
0001
0100
0001
0010
0100
1000
0000
,
0010
0100
0010
0000
1001
0000
0101
0000
,
0010
1000
0100
0000
0010
0001
0010
0100
,
1000
0000
0010
0000
1000
0100
1000
0000
,
0001
0010
0100
0010
0001
0010
0100
0000
,
2000
0000
0001
0001
,
3200
0000
0000
0000
0010
0000
0310
0001
,
0010
0000
0001
0000
1000
1000
0010
0010
,
0100
0001
0010
0000
0001
0100
0010
0100
,
0001
0000
1010
0000
1100
0000
0010
0001
,
0100
0000
0000
0010
0000
0000
0100
0000
0000
0000
0000
0000
0001
0000
0010
0000
0001
0000
0010
0000
0001
0000
1000
0000
,
0020
0230
0302
2003
,
3100
0010
0100
0000
1000
0001
1000
0000
,
0002
0000
0000
0003
,
0200
0000
0000
0300
,
0020
1000
0000
1030
,
2000
0001
0000
3001
,
0100
0010
0100
0001
0010
0010
0001
0000
,
1000
0100
1000
0010
0100
0100
0010
0000
,
1000
0100
1000
0100
0010
0001
0010
0001
,
0100
0010
1000
0100
0010
0100
1000
0000
,
0010
0100
0001
1000
0100
0010
0001
0000
,
0100
0010
1000
0100
1000
0010
0100
0000
,
0001
0010
0100
1000
0010
0100
0001
0000
,
0010
0001
0100
0001
0010
0001
0100
0000
,
0010
0010
0100
0001
1000
0100
1000
0100
,
0010
0010
0100
1000
0010
0100
0010
0100
,
0001
0010
0001
0010
0100
1000
0010
0100
,
0002
0000
0000
0003
0000
0000
0000
0000
0000
0000
0000
0000
0000
0000
0000
0000
0000
0000
0000
0000
0000
0000
0000
0000
1000
0000
0000
0000
0000
0000
0000
0000
0010
0000
0000
0000
0000
0000
0000
0000
1000
0000
0000
0000
0000
0000
0000
0000
0000
0000
0000
0000
0000
0000
0000
0000
0001
0000
0000
0000
0000
0000
0000
0000
0000
0000
0000
0000
0000
0000
0000
0000
0010
0000
0000
0000
0000
0000
0000
0000
0100
0000
0000
0000
0000
0000
0000
0000
0010
0000
0000
0000
0000
0000
0000
0000
,
0000
0001
0000
1000
0000
1000
0000
1000
0000
0010
0000
0010
,
0000
0010
0000
0100
0001
0100
0000
0010
0000
1000
0010
1000
,
0000
0100
0000
0010
0000
0010
0000
0010
0000
0100
0000
0100
,
0000
0100
0000
1000
0100
0010
0000
0100
0000
0010
0001
0100
,
0000
0001
0000
1000
0010
1000
0010
1000
0000
0001
0010
0001
,
0010
0001
0000
0100
0010
0100
0000
0010
0000
1000
0100
1000
,
0000
0010
0000
0100
0001
0100
0001
0100
0001
1000
0000
0000
,
1001
0000
0010
0100
0001
0100
0010
0000
,
1000
0000
0100
0010
0100
0000
1000
0100
,
1000
0000
0001
0010
0100
0010
0001
0000
,
0100
0000
0010
1000
0100
0000
0010
0001
,
0100
0000
0000
0010
0000
0000
1000
0000
0000
0100
0000
0000
0001
0000
0000
0100
,
0000
1000
0010
0100
0001
0010
0100
1000
,
0001
0000
1000
0100
1000
0000
0001
0100
,
0001
1001
0000
0000
,
0000
0000
0000
0000
;
#NOTES:
     dance-single:
     :
     Hard:
     16:
     :
0000
0000
0000
0000
,
0000
0000
0000
0000
,
0000
0000
0000
0000
,
0000
0000
0000
0000
,
0000
0000
0000
0000
,
0001
0100
0001
0100
0010
1000
0100
0000
,
0010
0001
0010
0001
1000
0001
0100
0010
,
2000
0100
0000
0100
0000
0001
3000
0001
,
0020
1000
0000
1000
0000
0100
0030
0100
,
1000
0000
0010
0000
0100
0001
0000
0001
0100
0000
0001
0000
0010
0000
0100
0000
,
1000
0100
1000
0000
0010
0000
0100
0000
0001
0010
0001
0000
1000
0000
0010
0000
,
0100
0000
0001
0000
1000
0100
0000
0100
1000
0000
0010
0000
0100
0000
0001
0000
,
0010
0100
0010
0000
0100
0000
1000
0000
0010
0100
0010
0000
1000
0000
0100
0000
,
0010
0000
0000
0001
0000
0000
0010
0000
0000
0100
0000
0000
1000
0000
0100
0000
1000
0000
0010
0000
0100
0000
0001
0000
,
0010
0000
0100
0000
0010
0000
0001
0000
1000
0010
0100
0010
1000
0000
0100
0000
,
0010
0001
0010
0001
0010
0100
1000
0000
0001
0100
0001
0000
1000
0000
0010
0000
,
0110
1100
0101
0011
1010
0000
,
0100
0000
0000
0010
0000
0000
0100
0000
0000
1000
0000
0000
0001
0000
0010
0000
0001
0000
0100
0000
0010
0000
1000
0000
0100
0000
0000
0010
0000
0000
0100
0000
0000
0010
0000
0000
0001
0000
0000
0000
0000
0000
0100
0000
0000
0000
0000
0000
,
0010
0000
0000
0000
0000
0000
1000
0000
0000
0000
0000
0000
0010
0000
0000
0000
0000
0000
0100
0000
0000
0000
0000
0000
0001
0000
0000
0000
0000
0000
0010
0000
0000
0000
0000
0000
0001
0000
0000
0000
0000
0000
0100
0000
0000
0000
0000
0000
0010
0000
0000
1000
0000
0000
0010
0000
0000
1000
0000
0000
0010
0000
0000
1000
0000
0000
0010
0000
0000
0000
0000
0000
0100
0000
0000
0000
0001
0000
0000
0000
1000
0000
0000
0000
0010
0000
0000
0000
0100
0000
0000
0000
0001
0000
0000
0000
,
1000
0000
0010
1000
0100
0000
0010
0000
0001
0000
0010
0001
0100
0000
0010
0000
1000
0000
0100
0000
0010
0000
0001
0000
0200
0000
0000
0000
0320
0000
0000
0000
,
1030
0100
0010
0000
0001
0100
0010
0000
1000
0100
0001
0000
0001
0100
1000
0000
0020
0000
0000
0000
0130
0000
0001
0000
1000
0000
0000
0010
0000
0000
0100
0000
,
0010
0000
0100
0001
0100
0000
0010
0000
1000
0000
1000
0000
1000
0000
1000
0000
,
0010
0000
0100
0000
0020
0000
0000
0000
0130
0000
0001
0000
0010
0100
1000
0000
,
0010
0100
1010
0001
0100
0020
1030
2000
,
3001
0000
0000
0010
0000
0000
0100
0000
0000
0010
0000
0000
0001
0000
0010
0000
1000
0000
0010
0000
0000
0001
0000
0000
,
0100
0010
2000
0000
3002
0000
0023
0000
,
0130
0000
1000
0010
0100
0000
0020
0000
0000
0000
0130
0001
0010
0000
0001
0000
,
1000
0000
0010
0000
1000
0000
0001
0000
0200
0000
0000
0000
0310
1000
0100
0000
,
0020
0000
0000
0000
0130
0000
1000
0000
0010
0100
0010
0100
0001
0000
0010
0000
,
0001
0100
0010
1000
0010
1010
0001
0101
,
1000
0000
1010
0000
0110
0000
0001
0000
0010
0000
0100
0010
0100
0000
1000
0000
,
0010
0000
0100
0000
0001
0000
0100
0000
0010
1000
0010
1000
0001
0000
0010
0000
,
0100
0000
0000
1000
0000
0000
0100
0000
0000
1000
0000
0000
0010
0000
1000
0000
0100
0000
0001
0000
0100
0000
1000
0000
,
0010
1000
0100
1000
0001
0011
0100
1100
,
0010
0000
1010
0000
1100
0000
0010
0000
0001
0000
0100
0010
0100
0000
0001
0000
,
1000
0000
0100
0000
1000
0000
0010
0000
0100
0001
0100
0001
0010
0000
0100
0000
,
1000
0000
0000
0100
0000
0000
0010
0000
0000
0001
0000
0000
0100
0000
0001
0000
0010
0000
1000
0000
0010
0000
0001
0000
,
0200
0000
0010
0010
,
0302
0000
0000
0000
0000
0000
0000
0000
1000
0000
0000
0000
1003
0100
1000
0100
,
1000
0000
0000
0000
0010
0000
0000
0000
0100
0001
0100
0001
1000
0010
1000
0000
,
0100
0000
0110
0000
0011
0000
0000
0000
0100
0010
1000
0100
1000
0001
0010
0000
,
0001
0000
0100
0000
0010
0000
0100
0000
1010
0000
0000
0100
0001
0100
0001
1000
,
0100
0000
0000
0010
0000
0000
0100
0000
1000
0000
0100
0000
0010
0000
0001
0000
0010
0000
0001
0000
1000
0000
0010
0000
,
0200
0010
0302
0010
0203
0010
0302
0010
,
1003
0000
1100
0000
0101
0000
0010
0000
1000
0000
0000
1001
0000
0000
0101
0000
,
0120
0000
0000
0030
,
2000
0000
0000
3000
,
0200
1000
0000
1000
0000
0010
0300
0010
,
0002
0100
0000
0100
0000
1000
0003
1000
,
0100
0000
1000
0000
0100
0000
0010
0000
0001
0100
0001
0100
0010
0000
1000
0000
,
0001
0000
0010
0000
0100
0000
1000
0000
0010
0100
0010
0100
0001
1000
0010
0100
,
0001
0000
1000
0100
0010
0100
1000
0000
0001
0100
0010
0100
0001
0000
0100
0000
,
0010
1000
0001
0000
0010
0001
1000
0000
0010
0100
0001
0000
0010
0100
1000
0000
,
0001
0000
0010
0000
0100
1000
0000
1000
0010
0000
0100
0000
0001
0000
0100
0000
,
1000
0100
0001
0000
0010
0000
0100
0000
0001
0100
1000
0000
0010
0000
0100
0000
,
0010
0000
1000
0000
0001
0100
0000
0100
0010
0000
1000
0000
0100
0000
0010
0000
,
0001
0010
1000
0000
0001
0000
0100
0000
1000
0010
0001
0000
1000
0000
0100
0000
,
0010
1000
0010
1000
0001
0100
0001
0000
1000
0000
0100
0000
0010
0000
0100
0000
,
0010
0001
0010
0001
1000
0100
1000
0000
0010
0000
0100
0000
0001
0000
0100
0000
,
0001
0100
0010
0100
0001
0100
0010
0000
1000
0000
0100
0000
0010
0000
0001
0000
,
2002
0000
0000
3003
0000
0000
0000
0000
0000
0000
0000
0000
0000
0000
0000
0000
0000
0000
0000
0000
0000
0000
0000
0000
0010
0000
0000
0000
0000
0000
0000
0000
0100
0000
0000
0000
0000
0000
0000
0000
0010
0000
0000
0000
0000
0000
0000
0000
1000
0000
0000
0000
0000
0000
0000
0000
0100
0000
0000
0000
0000
0000
0000
0000
0001
0000
0000
0000
0000
0000
0000
0000
0100
0000
0000
0000
0000
0000
0000
0000
0010
0000
0000
0000
0000
0000
0000
0000
0100
0000
0000
0000
0000
0000
0000
0000
,
0001
0100
1000
1100
0000
0110
0000
0101
0000
1010
0000
0110
,
0000
0011
0000
0100
0010
0100
0001
0010
1000
0010
0100
0010
,
1000
0010
0001
0100
0010
1000
0100
0001
0100
1100
0000
0101
,
0000
0110
0000
0001
0100
0001
0010
0001
1000
0010
0100
0010
,
1000
0001
0100
0010
1000
0100
0001
0100
0000
1000
0010
0001
,
0010
1000
0000
0001
0100
0010
0100
0001
0100
0010
1000
0100
,
1000
0010
0100
0001
0100
1000
0001
0010
1000
0100
0010
0001
,
0010
0000
0000
0000
0100
0000
0000
0000
0010
0000
0000
0000
0001
0000
0000
0100
0000
0000
0001
0000
0000
0100
0000
0000
0000
0000
0000
0010
0000
0000
1000
0000
0000
0100
0000
0000
0010
0000
0000
0100
0000
0000
0000
0000
0000
1000
0000
0000
,
0001
0100
0001
0000
1000
0000
0100
0000
1000
0000
0010
0000
0100
0001
0100
0001
,
0100
0000
0010
0000
1000
0001
1000
0010
0100
0000
0001
0000
0010
0100
0010
0100
,
1000
0000
0010
0000
0100
0001
0000
0010
0000
0010
0000
0100
1000
0000
0010
0000
,
0100
0000
0000
0001
0100
0000
0001
0010
0000
0001
1000
0000
0001
0100
0000
0010
,
1000
0000
0001
1000
0100
0010
0001
1000
0100
0010
0000
0100
1000
0001
0100
0001
,
0000
0100
0010
0100
0010
1000
0100
0000
0000
0010
0001
0100
0000
0010
1000
0100
,
0010
0001
0100
0001
0010
0000
0000
0000
0000
0000
0000
0000
0000
0000
0000
0000
,
0000
0000
0000
0000
;
#NOTES:
     dance-double:
     :
     Easy:
     9:
     :
00000000
00000000
00000000
00000000
,
00000000
00000000
00000000
00000000
,
00000000
00000000
00000000
00000000
,
00000000
00000000
00000000
00000000
,
00000000
00000000
00000000
00000000
,
10000000
01000000
10000000
00100000
,
01000000
00010000
01000000
00001000
,
00020000
00000000
00000000
00030000
,
00000200
00000000
00000000
00000300
,
00001000
00000000
00000010
00000000
00000100
00000001
00000100
00000000
,
00000001
00000010
00001000
00010000
,
00100000
00000000
10000000
00000000
01000000
00100000
01000000
00000000
,
10000000
01000000
00010000
00001000
,
00000100
00000000
00000100
00000000
00000001
00000100
00000001
00000000
,
00001000
00000000
00001000
00000000
00000100
00010000
00000100
00000000
,
00010000
00001000
00100000
00010000
,
10010000
00000000
00011000
00000000
,
00000001
00000000
00000100
00000000
00000001
00000000
00000010
00000000
00000100
00001000
00000100
00000000
00010000
00000000
00001000
00000000
,
01000000
00000000
00010000
00000000
10000000
00000000
00010000
00000000
00100000
01000000
00100000
00000000
00010000
00000000
10000000
00000000
,
00100000
00000000
01000000
00000000
00010000
00000000
00100000
00000000
00001000
00010000
00001000
00000000
00020000
00000000
00000000
00000000
,
00030010
00001000
00000001
00000100
00002000
00010000
00013000
00011000
,
01000000
00000000
00010000
00000000
10000000
10000000
01000000
01000000
,
00020000
00000000
00031000
00011000
,
00000010
00001010
00000100
00000001
,
00000010
00000100
00000010
00000000
00000001
00000000
00000100
00000000
,
00002000
00023000
02030000
23000000
,
30100000
01000000
00010000
00100000
,
00001000
00010000
00000100
00001000
,
00000020
00000000
00000130
00000000
00001000
00000001
00001000
00000000
,
00000010
00001000
00000100
00000100
,
00010000
00000000
00001000
00000000
01000000
00010000
01000000
00000000
,
00100000
00100000
10000000
10000000
,
00010000
00000000
00100000
00000000
00001000
00010000
00001000
00000000
,
00010000
00000100
00001000
00001000
,
00000001
00000010
00000100
00000100
,
00001000
00000000
00000010
00000000
00010000
00001000
00010000
00000000
,
00001000
00100000
00001000
00000000
01000000
00010000
01000000
00000000
,
00200000
00000000
00000000
00000000
,
20300000
00000000
00010000
30010000
,
01010000
00000000
00011000
00000100
,
00000010
00000000
00000010
00000000
00000001
00000100
00000001
00000000
,
00001000
00000000
00001000
00000000
00000100
00010000
00000100
00000000
,
00010000
00000000
00001000
00000000
00100000
00010000
00100000
00000000
,
02000000
00000000
23000000
00000000
,
30100000
01000000
00010000
00100000
,
00002000
00000000
00000000
00003000
,
00020000
00000000
00000000
00030000
,
00000020
00000000
00000000
00000030
,
00002000
00000000
00000000
00003000
,
00000001
00000001
00000100
00000100
,
00001000
00001000
00010000
00010000
,
00100000
10000000
00100000
00000000
10000000
01000000
10000000
00000000
,
01000000
00010000
01000000
00000000
00010000
00001000
00010000
00000000
,
00001000
00000000
00000010
00000000
00000001
00000100
00000001
00000000
,
00001000
00000100
00010000
00001000
,
00100000
00000000
00010000
00000000
10000000
00100000
10000000
00000000
,
00010000
01000000
00001000
00010000
,
00000100
00001000
00000100
00000000
00001001
00000000
00000000
00000000
,
00010000
00001000
00010000
00000000
00011000
00000000
00000000
00000000
,
01000000
00100000
01000000
00000000
10000000
01000000
10000000
00000000
,
00020000
00000000
00000000
00030000
00000000
00000000
00000000
00000000
00000000
00000000
00000000
00000000
00000000
00000000
00000000
00000000
00000000
00000000
00000000
00000000
00000000
00000000
00000000
00000000
00001000
00000000
00000000
00000000
00000000
00000000
00000000
00000000
00000000
00000000
00000000
00000000
00000000
00000000
00000000
00000000
00001000
00000000
00000000
00000000
00000000
00000000
00000000
00000000
00000000
00000000
00000000
00000000
00000000
00000000
00000000
00000000
00001000
00000000
00000000
00000000
00000000
00000000
00000000
00000000
00000000
00000000
00000000
00000000
00000000
00000000
00000000
00000000
00010000
00000000
00000000
00000000
00000000
00000000
00000000
00000000
00000000
00000000
00000000
00000000
00000000
00000000
00000000
00000000
00010000
00000000
00000000
00000000
00000000
00000000
00000000
00000000
,
00000000
00010000
00000000
00011000
00000000
00000000
00000000
00000000
00000000
00000110
00000000
00000000
,
00000000
00000000
00000000
00000001
00000000
00000001
00000000
00000001
00000000
00001000
00000000
00001000
,
00000000
00001000
00000000
00001001
00000000
00000000
00000000
00000000
00000000
00011000
00000000
00000000
,
00000000
00000000
00000000
10000000
00000000
01000000
00000000
10000000
00000000
00010000
00000000
00100000
,
00000000
00010000
00000000
00100000
00000000
00001000
00000000
00010000
00000000
00001000
00000000
00010000
,
00000000
00001000
00000000
00000100
00000000
00000100
00000000
00000100
00000000
00000001
00000000
00000001
,
00000000
00000001
00000000
00000010
00000000
00000000
00000000
00000000
00000000
00011000
00000000
00000000
,
00000000
00000000
00100000
00010000
00100000
00000000
01000000
00000000
,
10000000
00100000
01000000
00010000
,
00100000
00000000
00001000
00010000
00001000
00000000
00010000
00000000
,
00000010
00001000
00000100
00000010
,
00000001
00001000
00001000
00000100
,
00000100
00000000
00010000
00001000
00010000
00000000
01000000
00100000
,
01000000
00000000
10000000
00100000
10000000
00000000
00010000
00100000
,
00010000
00011000
00000000
00000000
,
00000000
00000000
00000000
00000000
;
#NOTES:
     dance-double:
     :
     Medium:
     12:
     :
00000000
00000000
00000000
00000000
,
00000000
00000000
00000000
00000000
,
00000000
00000000
00000000
00000000
,
00000000
00000000
00000000
00000000
,
00000000
00000000
00000000
00000000
,
00000001
00000100
00000001
00000100
00000001
00000000
00001100
00000000
,
00010000
00001000
00010000
00001000
00010000
00000000
01010000
00000000
,
20000000
00100000
00000000
30100000
,
00020000
01000000
00000000
01030000
,
00001000
00010000
00000100
00001000
00000100
00000010
00000001
00000000
,
00001000
00000010
00001000
00000000
00000100
00001000
00000100
00000000
,
00010000
00001000
00100000
00010000
00100000
01000000
10000000
00000000
,
00100000
10000000
00100000
00000000
10000000
01000000
10000000
00000000
,
00010000
01000000
00010000
00000000
10000000
01000000
00010000
00000000
,
00001000
00000100
00000001
00000000
00000010
00000001
00000100
00000000
,
00001000
00010000
00001000
00000000
00100000
00010000
10000000
01000000
,
00100000
00100000
00100000
01000000
01100000
00000000
,
00100000
00000000
00000000
00010000
00000000
00000000
00100000
00000000
00000000
00000000
00000000
00000000
00001000
00000000
00010000
00000000
00001000
00000000
00010000
00000000
00000000
00000000
00000000
00000000
00000100
00000000
00000000
00001000
00000000
00000000
00000010
00000000
00000000
00001000
00000000
00000000
00000100
00000000
00000000
00000000
00000000
00000000
00000010
00000000
00000000
00000000
00000000
00000000
,
00000001
00000000
00000000
00000100
00000000
00000000
00000001
00000000
00000000
00000000
00000000
00000000
00001000
00000000
00000000
00000100
00000000
00000000
00001000
00000000
00000000
00000000
00000000
00000000
00000001
00000000
00000000
00000010
00000000
00000000
00001000
00000000
00000000
00010000
00000000
00000000
00100000
00000000
01000000
00000000
00100000
00000000
10000000
00000000
00000000
00000000
00000000
00000000
,
01000000
10000000
00010000
00100000
00001000
00010000
00000100
00001000
00000001
00000100
00000010
00001000
00000200
00000000
00020300
00000000
,
00031000
00001000
00010000
01000000
10000000
10000000
00100000
01000000
00020000
00000000
00130000
00001000
00010000
00000000
00000000
00000000
,
00000010
00001000
00000100
00001000
00000100
00000100
00010000
00010000
,
00001000
00000000
02000000
00000000
03010000
00000000
00100000
10000000
,
01000000
00000000
00110000
00000000
00001000
00010000
00001000
00000000
,
00010000
00000100
00001000
00000100
00001000
00000000
00000011
00000000
,
00001000
00000001
00000020
00000000
00002030
00000000
00023000
00000000
,
00130000
10000000
00100000
02000000
00000000
03010000
00100000
00001000
,
00010000
00001000
00000100
00000000
00000002
00000000
00001003
00000100
,
00020000
00000000
00031000
01000000
00010000
10000000
00010000
10000000
,
00100000
01000000
00010000
00000000
00011000
00000000
00001100
00000000
,
00000010
00000001
00000100
00000000
00000010
00001000
00000100
00010000
,
00001000
00000000
00100000
00000000
00010000
01000000
00010000
00000000
,
10000000
00100000
10000000
00100000
10000000
01000000
00010000
00000000
,
00001000
00000010
00000001
00000000
00000110
00000000
00001100
00000000
,
00010000
00001000
00010000
00000000
01000000
10000000
01000000
00100000
,
00010000
00000000
01000000
00000000
00001000
00010000
00001000
00000000
,
00000100
00000001
00000100
00001000
00010000
00001000
00010000
00000000
,
00002000
00000000
00010000
00010000
,
00023000
00000000
00001000
00031000
,
00010000
00000000
00100000
00000000
10000000
10000000
01000000
01000000
,
00010000
00001000
00000100
00000000
00000001
00000010
00000100
00000010
,
00000001
00000000
00001001
00000000
00001100
00000000
00010000
00001000
,
01000000
00000000
00000000
00010000
00000000
00000000
10000000
00000000
00000000
00000000
00000000
00000000
00010000
00000000
01000000
00000000
00010000
00000000
01000000
00000000
00001000
00000000
00010000
00000000
,
00002000
00003020
00000032
00000203
,
00001300
00010000
00001000
00000000
00100000
01000000
00100000
00000000
,
00020000
00000000
00000000
00030000
,
20000000
00000000
00000000
30000000
,
00200000
00010000
00000000
00310000
,
00002000
00000010
00000000
00003010
,
00000001
00000100
00000001
00001000
00000100
00000100
00010000
00000000
,
00001000
00010000
00001000
00100000
00010000
00010000
10000000
00000000
,
00100000
01000000
00100000
01000000
00010000
00100000
00010000
00100000
,
00001000
00010000
00001000
00010000
00000100
00001000
00000100
00000000
,
00000010
00000001
00001000
00000010
00010000
00001000
00010000
00000000
,
00001000
01000000
00010000
01000000
00100000
10000000
01000000
00000000
,
00100000
00010000
01000000
00001000
00010000
00001000
00010000
00000000
,
00000100
00001000
00000001
00000100
00000010
00001000
00000100
00000000
,
00010000
00010000
00001000
01000000
00010000
10000000
00010000
10000000
,
00100000
00100000
01000000
00010000
00100000
00001000
00100000
00001000
,
00010000
00010000
00001000
00000100
00000001
00000010
00000001
00000010
,
00002000
00000000
00000000
00003000
00000000
00000000
00000000
00000000
00000000
00000000
00000000
00000000
00000000
00000000
00000000
00000000
00000000
00000000
00000000
00000000
00000000
00000000
00000000
00000000
00010000
00000000
00000000
00000000
00000000
00000000
00000000
00000000
00001000
00000000
00000000
00000000
00000000
00000000
00000000
00000000
00010000
00000000
00000000
00000000
00000000
00000000
00000000
00000000
00000000
00000000
00000000
00000000
00000000
00000000
00000000
00000000
00001000
00000000
00000000
00000000
00000000
00000000
00000000
00000000
00000000
00000000
00000000
00000000
00000000
00000000
00000000
00000000
01000000
00000000
00000000
00000000
00000000
00000000
00000000
00000000
00010000
00000000
00000000
00000000
00000000
00000000
00000000
00000000
01000000
00000000
00000000
00000000
00000000
00000000
00000000
00000000
,
00000000
00010000
00000000
10000000
00000000
10000000
00000000
10000000
00000000
01000000
00000000
01000000
,
00000000
01000000
00000000
00010000
00001000
00010000
00000000
00000010
00000000
00001000
00000100
00001000
,
00000000
00000001
00000000
00000010
00000000
00000010
00000000
00000010
00000000
00000100
00000000
00000100
,
00000000
00000100
00000000
00001000
00000100
00010000
00000000
00001000
00000000
00100000
00010000
01000000
,
00000000
00100000
00000000
10000000
01000000
10000000
01000000
10000000
00000000
00010000
00100000
00010000
,
00100000
00010000
00000000
01000000
00001000
00010000
00000000
00000100
00000000
00010000
00001000
00100000
,
00000000
00001000
00000000
00010000
00000010
00010000
00000010
00010000
00000010
00001000
00000000
00000000
,
00011000
00000000
01000000
10000000
01000000
00100000
00010000
00000000
,
01000000
00000000
00001000
00010000
00001000
00000000
00010000
00000010
,
00010000
00000000
00000100
00001000
00000100
00000010
00000001
00000000
,
00000100
00000000
00000010
00001000
00000010
00000000
00010000
00001000
,
00010000
00000000
00000000
00100000
00000000
00000000
10000000
00000000
00000000
01000000
00000000
00000000
00010000
00000000
00000000
00001000
,
00000000
00000100
00000001
00000010
00000100
00001000
00000100
00010000
,
00001000
00000000
00100000
00010000
00100000
00000000
00000010
00001000
,
00000010
00011000
00000000
00000000
,
00000000
00000000
00000000
00000000
;
#NOTES:
     dance-double:
     :
     Hard:
     16:
     :
00000000
00000000
00000000
00000000
,
00000000
00000000
00000000
00000000
,
00000000
00000000
00000000
00000000
,
00000000
00000000
00000000
00000000
,
00000000
00000000
00000000
00000000
,
00010000
00001000
00010000
00001000
00000010
00000001
00000100
00000000
,
00000010
00001000
00000010
00001000
00000100
00010000
00001000
00100000
,
00020000
10000000
00000000
10000000
00000000
00100000
00030000
00100000
,
02000000
00010000
00000000
00010000
00000000
10000000
03000000
10000000
,
00100000
00000000
01000000
00000000
00010000
00100000
00000000
00100000
00010000
00000000
10000000
00000000
01000000
00000000
00010000
00000000
,
00001000
00010000
00001000
00000000
00000100
00000000
00000001
00000000
00000010
00000100
00000010
00000000
00000001
00000000
00001000
00000000
,
00000010
00000000
00001000
00000000
00000100
00001000
00000000
00001000
00000100
00000000
00010000
00000000
00001000
00000000
00100000
00000000
,
00010000
01000000
00010000
00000000
10000000
00000000
00100000
00000000
01000000
00010000
01000000
00000000
00001000
00000000
00010000
00000000
,
00000100
00000000
00000000
00001000
00000000
00000000
00000010
00000000
00000000
00000100
00000000
00000000
00000001
00000000
00000010
00000000
00001000
00000000
00010000
00000000
00100000
00000000
10000000
00000000
,
01000000
00000000
00100000
00000000
01000000
00000000
10000000
00000000
00010000
00100000
01000000
00100000
00010000
00000000
01000000
00000000
,
00001000
00010000
00001000
00010000
00000100
00001000
00000001
00000000
00000100
00000010
00000100
00000000
00000001
00000000
00001000
00000000
,
00001100
00011000
00110000
01100000
11000000
00000000
,
10000000
00000000
00000000
01000000
00000000
00000000
00010000
00000000
00000000
00001000
00000000
00000000
00010000
00000000
00001000
00000000
00000100
00000000
00000001
00000000
00000010
00000000
00001000
00000000
00010000
00000000
00000000
00001000
00000000
00000000
00010000
00000000
00000000
00001000
00000000
00000000
01000000
00000000
00000000
00000000
00000000
00000000
00010000
00000000
00000000
00000000
00000000
00000000
,
00100000
00000000
00000000
00000000
00000000
00000000
00010000
00000000
00000000
00000000
00000000
00000000
00100000
00000000
00000000
00000000
00000000
00000000
01000000
00000000
00000000
00000000
00000000
00000000
10000000
00000000
00000000
00000000
00000000
00000000
00100000
00000000
00000000
00000000
00000000
00000000
00010000
00000000
00000000
00000000
00000000
00000000
00001000
00000000
00000000
00000000
00000000
00000000
00010000
00000000
00000000
00001000
00000000
00000000
00010000
00000000
00000000
00001000
00000000
00000000
00010000
00000000
00000000
00001000
00000000
00000000
00010000
00000000
00000000
00000000
00000000
00000000
00000010
00000000
00000000
00000000
00000100
00000000
00000000
00000000
00000001
00000000
00000000
00000000
00000010
00000000
00000000
00000000
00001000
00000000
00000000
00000000
00010000
00000000
00000000
00000000
,
00100000
00000000
01000000
00010000
01000000
00000000
00001000
00000000
00010000
00000000
00000100
00001000
00000100
00000000
00000010
00000000
00000001
00000000
00001000
00000000
00000100
00000000
00010000
00000000
00002000
00000000
00000000
00000000
00023000
00000000
00000000
00000000
,
00031000
00100000
00010000
00000000
01000000
00100000
10000000
00000000
00010000
00100000
00001000
00000000
00010000
00000100
00001000
00000000
00000002
00000000
00000000
00000000
00000103
00000000
00000010
00000000
00001000
00000000
00000000
00000001
00000000
00000000
00000100
00000000
,
00001000
00000000
00010000
00001000
00010000
00000000
00001000
00000000
01000000
00000000
01000000
00000000
00010000
00000000
00010000
00000000
,
10000000
00000000
01000000
00000000
00020000
00000000
00000000
00000000
00031000
00000000
00010000
00000000
00000010
00001000
00000010
00000000
,
00000100
00000001
00000101
00000010
00001000
00000002
00000103
00002000
,
00013000
00000000
00000000
01000000
00000000
00000000
10000000
00000000
00000000
00010000
00000000
00000000
10000000
00000000
00100000
00000000
00010000
00000000
00001000
00000000
00000000
00000010
00000000
00000000
,
00000001
00000010
00000200
00000000
00002300
00000000
00003020
00000000
,
00010030
00000000
00001000
00010000
00001000
00000000
00200000
00000000
00000000
00000000
01300000
10000000
00100000
00000000
01000000
00000000
,
00010000
00000000
01000000
00000000
00010000
00000000
00100000
00000000
00002000
00000000
00000000
00000000
00013000
00000100
00001000
00000000
,
00000020
00000000
00000000
00000000
00000130
00000000
00000001
00000000
00001000
00000100
00001000
00000100
00010000
00000000
00001000
00000000
,
01000000
00010000
10000000
00100000
01000000
00010000
00100000
00001000
,
00010000
00000000
00011000
00000000
00001100
00000000
00000010
00000000
00000001
00000000
00000100
00000001
00000100
00000000
00000010
00000000
,
00001000
00000000
00000100
00000000
00010000
00000000
00001000
00000000
00100000
00010000
00100000
00010000
10000000
00000000
00100000
00000000
,
01000000
00000000
00000000
00010000
00000000
00000000
01000000
00000000
00000000
00010000
00000000
00000000
10000000
00000000
00100000
00000000
00010000
00000000
00001000
00000000
00000010
00000000
00000001
00000000
,
00000100
00000010
00001000
00000010
00010000
00001000
00100000
00010000
,
10000000
00000000
11000000
00000000
01100000
00000000
00010000
00000000
00100000
00000000
00001000
00010000
00001000
00000000
00010000
00000000
,
00000100
00000000
00001000
00000000
00000001
00000000
00000010
00000000
00000100
00001000
00000100
00001000
00000001
00000000
00000010
00000000
,
00000001
00000000
00000000
00000100
00000000
00000000
00001000
00000000
00000000
00010000
00000000
00000000
01000000
00000000
00010000
00000000
00001000
00000000
00000100
00000000
00001000
00000000
00010000
00000000
,
02000000
00000000
10000000
10000000
,
03200000
00000000
00000000
00000000
00000000
00000000
00000000
00000000
00001000
00000000
00000000
00000000
00301000
00010000
00001000
00010000
,
00001000
00000000
00000000
00000000
00010000
00000000
00000000
00000000
00000100
00001000
00000100
00001000
00000001
00000010
00000001
00000000
,
00001000
00000000
00001100
00000000
00000110
00000000
00000000
00000000
00000001
00000100
00000001
00001000
00000100
00010000
00001000
00000000
,
00100000
00000000
00010000
00000000
01000000
00000000
00010000
00000000
10010000
00000000
00000000
01000000
00100000
01000000
00100000
10000000
,
01000000
00000000
00000000
00010000
00000000
00000000
00001000
00000000
00010000
00000000
00001000
00000000
00000010
00000000
00001000
00000000
00010000
00000000
00100000
00000000
00010000
00000000
00001000
00000000
,
00000200
00000010
00000302
00000010
00002003
00000001
00003200
00001000
,
00010300
00000000
00011000
00000000
01010000
00000000
00100000
00000000
10000000
00000000
00000000
11000000
00000000
00000000
01010000
00000000
,
00012000
00000000
00000000
00003000
,
00000200
00000000
00000000
00000300
,
00000020
00001000
00000000
00001000
00000000
00010000
00000030
00010000
,
00002000
01000000
00000000
01000000
00000000
00100000
00003000
00100000
,
00010000
00000000
10000000
00000000
01000000
00000000
00010000
00000000
00001000
00010000
00001000
00010000
00000010
00000000
00001000
00000000
,
00000001
00000000
00000100
00000000
00001000
00000000
00010000
00000000
00001000
00010000
00001000
01000000
00010000
10000000
00100000
01000000
,
00010000
00000000
00100000
01000000
10000000
01000000
00100000
00000000
00001000
00010000
00000100
00010000
00001000
00000000
00010000
00000000
,
00000010
00001000
00000010
00000000
00000100
00000001
00000100
00000000
00000010
00001000
00000100
00000000
00010000
00001000
00100000
00000000
,
00010000
00000000
01000000
00000000
00100000
10000000
00000000
10000000
01000000
00000000
00010000
00000000
00001000
00000000
00000100
00000000
,
00000001
00000010
00000001
00000000
00001000
00000000
00000100
00000000
00010000
00001000
00010000
00000000
00001000
00000000
00100000
00000000
,
00010000
00000000
10000000
00000000
00100000
01000000
00000000
01000000
00010000
00000000
10000000
00000000
00100000
00000000
00010000
00000000
,
00001000
00010000
00001000
00000000
00010000
00000000
00000010
00000000
00001000
00000100
00001000
00000000
00000001
00000000
00000010
00000000
,
00000100
00001000
00000100
00010000
00001000
00010000
00001000
00000000
00100000
00000000
00010000
00000000
00100000
00000000
01000000
00000000
,
10000000
00100000
10000000
00010000
01000000
00010000
01000000
00000000
00001000
00000000
00010000
00000000
00000100
00000000
00001000
00000000
,
00000010
00000100
00000001
00000100
00000010
00001000
00000100
00000000
00010000
00000000
00001000
00000000
00100000
00000000
00010000
00000000
,
20020000
00000000
00000000
30030000
00000000
00000000
00000000
00000000
00000000
00000000
00000000
00000000
00000000
00000000
00000000
00000000
00000000
00000000
00000000
00000000
00000000
00000000
00000000
00000000
10000000
00000000
00000000
00000000
00000000
00000000
00000000
00000000
01000000
00000000
00000000
00000000
00000000
00000000
00000000
00000000
10000000
00000000
00000000
00000000
00000000
00000000
00000000
00000000
01000000
00000000
00000000
00000000
00000000
00000000
00000000
00000000
00010000
00000000
00000000
00000000
00000000
00000000
00000000
00000000
00001000
00000000
00000000
00000000
00000000
00000000
00000000
00000000
00000100
00000000
00000000
00000000
00000000
00000000
00000000
00000000
00001000
00000000
00000000
00000000
00000000
00000000
00000000
00000000
00000100
00000000
00000000
00000000
00000000
00000000
00000000
00000000
,
00000001
00000010
00001000
00011000
00000000
01010000
00000000
11000000
00000000
00110000
00000000
00101000
,
00000000
00011000
00000000
00000010
00001000
00000010
00000100
00000001
00000010
00001000
00010000
00001000
,
00010000
00100000
10000000
00100000
00010000
00001000
00010000
00001000
00000100
00000110
00000000
00000101
,
00000000
00001100
00000000
00000001
00000100
00000001
00000100
00001000
00010000
01000000
00010000
01000000
,
10000000
00100000
01000000
00010000
10000000
01000000
00010000
00001000
00000000
00010000
00001000
00000010
,
00000001
00000010
00000000
00000001
00000100
00000010
00000100
00000001
00000010
00001000
00010000
00001000
,
00100000
00010000
01000000
00100000
10000000
01000000
00010000
00001000
00000100
00000001
00000100
00001000
,
00010000
00000000
00000000
00000000
01000000
00000000
00000000
00000000
10000000
00000000
00000000
00000000
00100000
00000000
00000000
01000000
00000000
00000000
00100000
00000000
00000000
01000000
00000000
00000000
00000000
00000000
00000000
00010000
00000000
00000000
00100000
00000000
00000000
00001000
00000000
00000000
00010000
00000000
00000000
00001000
00000000
00000000
00000000
00000000
00000000
00010000
00000000
00000000
,
00000010
00001000
00000010
00000000
00000100
00000000
00000001
00000000
00000100
00000000
00000010
00000000
00001000
00000100
00001000
00000100
,
00001000
00000000
00000010
00000000
00010000
00001000
00010000
00001000
01000000
00000000
00010000
00000000
10000000
00100000
10000000
01000000
,
10000000
00000000
01000000
00000000
00010000
00001000
00000000
00010000
00000000
00010000
00000000
00001000
00000100
00000000
00000001
00000000
,
00000010
00000000
00000000
00000100
00001000
00000000
00000100
00010000
00000000
00001000
01000000
00000000
00010000
00100000
00000000
01000000
,
10000000
00000000
00010000
01000000
00001000
00010000
00000100
00001000
00000010
00000100
00000000
00000001
00000010
00000100
00001000
00000100
,
00000000
00010000
00001000
00010000
00001000
00100000
00010000
00000000
00000000
01000000
00100000
10000000
00000000
00010000
00100000
00001000
,
00010000
00001000
00000100
00000001
00000010
00000000
00000000
00000000
00000000
00000000
00000000
00000000
00000000
00000000
00000000
00000000
,
00000000
00000000
00000000
00000000
;
