
//----- song ID: nada -----//
#TITLE:なだめスかし Negotiation;
#ARTIST:鹿乃と宇崎ちゃん;
#TITLETRANSLIT:Nadame sukashi Negotiation;
#ARTISTTRANSLIT:Kano to Uzaki-chan;
#BANNER:Nadame sukashi Negotiation.png;
#BACKGROUND:Nadame sukashi Negotiation-bg.png;
#CDTITLE:./CDTitles/DDR A20 PLUS.png;
#MUSIC:Nadame sukashi Negotiation.ogg;
#SAMPLESTART:60.143;
#SAMPLELENGTH:15;
#BPMS:0=150;
#NOTES:
     dance-single:
     :
     Beginner:
     2:
     :
0000
0000
0000
0000
,
0000
0000
0000
0000
,
0000
0000
0000
0000
,
0000
0000
0000
0000
,
0000
0000
0000
0000
,
0000
0000
0000
0000
,
0001
0000
0001
0000
,
0100
0000
0000
0000
,
0001
0000
0001
0000
,
0010
0000
0000
0000
,
1000
0000
0100
0000
,
1000
0000
0000
0000
,
0010
0000
0000
0000
,
1001
0000
0000
0000
,
0001
0000
0100
0000
,
0001
0000
0000
0000
,
0010
0000
0000
0000
,
1001
0000
0000
0000
,
0001
0000
0100
0000
,
0010
0000
0010
0000
,
0100
0000
0001
0000
,
0010
0000
0000
0000
,
1000
0000
0100
0000
,
0010
0000
0010
0000
,
0100
0000
1000
0000
,
0010
0000
0000
0000
,
0001
0000
0010
0000
,
0001
0000
0000
0000
,
0010
0000
0100
0000
,
0010
0000
0000
0000
,
2000
0000
3000
0000
,
0002
0000
0003
0000
,
2000
0000
3000
0000
,
0002
0000
0003
0000
,
0020
0000
0030
0000
,
0200
0000
0300
0000
,
0020
0000
0000
0000
,
0030
0000
0000
0000
,
0010
0000
0001
0000
,
0100
0000
0000
0000
,
0010
0000
0010
0000
,
0010
0000
0000
0000
,
0010
0000
1000
0000
,
0100
0000
0000
0000
,
0010
0000
0010
0000
,
0010
0000
0000
0000
,
0001
0000
0010
0000
,
0100
0000
0100
0000
,
1000
0000
0100
0000
,
1000
0000
0000
0000
,
1000
0000
0010
0000
,
0100
0000
0100
0000
,
0001
0000
0000
0000
,
1000
0000
0000
0000
,
1000
0000
0100
0000
,
0010
0000
0001
0000
,
1001
0000
0000
0000
,
0000
0000
0000
0000
;
#NOTES:
     dance-single:
     :
     Easy:
     5:
     :
0000
0000
0000
0000
,
0000
0000
0000
0000
,
0000
0000
0000
0000
,
0000
0000
0000
0000
,
0000
0000
0000
0000
,
0000
0000
0000
0000
,
0001
0100
0001
0100
,
0001
1000
0001
0000
,
1001
0000
0010
0000
,
0100
0100
0100
0000
,
1000
0010
1000
0000
,
1000
0100
1000
0000
,
0220
0000
0330
0000
,
2002
0000
3003
0000
,
0001
0010
0001
0000
,
0001
0100
0001
0000
,
0100
0000
0010
0000
,
2002
0000
3003
0000
,
0010
1000
0010
1000
,
0100
0100
0010
0000
,
0010
0001
0010
0001
,
0100
0100
0010
0000
,
1000
0100
0010
0001
,
0010
0100
1000
0000
,
0001
0000
0100
0000
,
1001
0000
0000
0000
,
0001
0001
0001
0000
,
0100
0100
0100
0000
,
0010
1000
0010
1000
,
0100
1000
0100
0000
,
0002
0000
1003
0000
,
2000
0000
3001
0000
,
0020
0000
0130
0000
,
0200
0000
0310
0000
,
0110
0000
0000
0000
,
1000
0000
0001
0000
,
2002
0000
0000
0000
,
3003
0000
0000
0000
,
0010
0010
0010
0000
,
1000
0001
1000
0000
,
0001
0100
0010
1000
,
0100
0010
0001
0000
,
0010
0010
0010
0000
,
0001
1000
0001
0000
,
1000
0100
0010
0001
,
0100
0010
1000
0000
,
0002
0000
1003
0000
,
0020
0000
0130
0000
,
2000
0000
3001
0000
,
0200
0000
0310
0000
,
0001
0000
0010
0000
,
0100
0100
0100
0000
,
0110
0000
0000
0000
,
1001
0000
0000
0000
,
1000
0100
0010
0001
,
0100
0010
1000
0000
,
1001
0000
0000
0000
,
0000
0000
0000
0000
;
#NOTES:
     dance-single:
     :
     Medium:
     9:
     :
0000
0000
0000
0000
,
0000
0000
0000
0000
,
0000
0000
0000
0000
,
0000
0000
0000
0000
,
0000
0000
0000
0000
,
0000
0000
0000
0000
,
0001
0010
0001
0000
0100
0010
0100
0000
,
0010
1000
0010
1000
0010
0000
0110
0000
,
1001
0000
1000
0100
0010
0001
0010
0000
,
0002
0000
2000
3003
,
0010
0100
0010
1000
,
0001
0100
0001
0010
,
0001
0000
0000
2002
0000
0000
3003
0000
,
1000
0000
0000
2002
0000
0000
3003
0000
,
0100
0010
0100
0001
,
1000
0100
1000
0010
,
1000
0100
1000
0000
0001
0010
0001
0000
,
1000
0001
2002
3003
,
0100
0000
0010
0000
1000
0100
1000
0000
,
0001
0001
0001
0000
,
0010
0000
0100
0000
0001
0100
0001
0000
,
1000
1000
1000
0000
,
0010
0000
0100
0000
0001
1000
0001
0000
,
1000
0001
1000
0000
1100
0000
0000
0000
,
0101
0000
0011
0000
,
2002
0000
3003
0000
,
0010
0000
0100
0000
0001
0100
0001
0000
,
0010
0000
0100
0000
1000
0100
1000
0000
,
0010
0000
0000
0000
0100
0000
0000
0001
0000
0000
0001
0000
0001
0000
0000
1000
,
0000
0000
1000
0000
1000
0000
0000
0010
0000
0000
0010
0000
0010
0000
0000
0000
,
1000
0000
0100
0000
1000
0010
1000
0000
,
0001
0000
0100
0000
0001
0010
0001
0010
,
0000
0000
0000
0110
0000
0000
0000
1001
,
0000
1000
0001
0000
0100
0000
0010
0000
,
0100
0000
0000
0010
0100
0000
0010
1000
,
0000
0001
0100
0000
0001
1000
0001
2000
,
0000
0000
0000
0000
,
3000
0000
0010
0000
0000
0010
0000
0000
0020
0000
0000
0000
0030
0000
0000
0000
,
0001
0100
0010
0000
1000
0100
0010
0000
,
0011
0101
1001
0000
,
1000
0000
0010
0000
0001
0010
1000
0000
,
0010
0010
0010
0000
,
1000
0100
0010
0000
0001
0100
0010
0000
,
1010
1100
1001
0000
,
0001
0000
0010
0000
1000
0010
0001
0000
,
1000
1000
0000
0001
0001
0000
0000
0000
,
2000
0010
3010
0000
,
0002
0010
0013
0000
,
0001
0100
0010
1000
,
0100
0100
0110
0000
,
2000
0100
3100
0000
,
0002
0100
0103
0000
,
0010
0000
0000
1001
0000
0000
0000
0000
,
0100
0000
0000
1001
0000
0000
0000
0000
,
0010
1000
0001
0100
,
0001
0000
0000
0000
1000
0000
0000
0000
0001
0000
0000
0000
0000
0000
0000
1001
,
0000
0000
0000
0000
;
#NOTES:
     dance-single:
     :
     Hard:
     11:
     :
0000
0000
0000
0000
,
0000
0000
0000
0000
,
0000
0000
0000
0000
,
0000
0000
0000
0000
,
0000
0000
0000
0000
,
0000
0000
0000
0000
,
0010
1000
0100
1000
0010
1000
0010
0000
,
0100
0001
0010
0001
0100
0001
0100
0000
,
1001
0000
0010
1000
0001
0100
0010
1000
,
0100
0010
0100
0000
0010
0001
0010
0000
,
0001
0000
0100
0000
0010
1000
0010
0000
,
1000
0000
0100
0000
0010
0001
0010
0000
,
0011
0000
0000
0001
0000
0000
2002
0000
0000
0000
0000
0000
3003
0000
0000
0000
,
1010
0000
0000
1000
0000
0000
2002
0000
0000
0000
0000
0000
3003
0000
0000
0000
,
1000
0000
0010
0000
0100
0001
0100
0000
,
0001
0000
0010
0000
0100
1000
0100
1000
,
0000
1100
0000
0001
0000
0101
0000
0110
,
0000
0000
0010
0000
0100
0010
0000
0020
0000
0000
0000
0000
0030
0000
0000
0000
,
1000
0100
1000
0100
0001
0100
0001
0100
,
1000
0000
0100
0000
0001
0000
0100
0000
0010
0000
0000
0010
0000
0000
0010
0000
,
0001
0100
0001
0100
1000
0100
1000
0100
,
0001
0000
0100
0000
1000
0000
0100
0000
0010
0000
0000
0010
0000
0000
0010
0000
,
1000
0100
0010
0001
0100
0010
1000
0100
,
0010
0000
0001
0000
0100
0000
0010
0000
1000
0000
0000
1000
0000
0000
1000
0000
,
0100
0000
0000
0100
0000
0000
0100
0000
0000
0000
0010
0000
0000
0010
0000
0000
,
2002
0000
3003
0000
,
0000
0000
1000
0000
0010
0100
0000
0010
0000
0000
0100
0000
0100
0000
1001
0000
,
0000
0000
0001
0000
0010
0100
0000
0010
0000
0000
0100
0000
0100
0000
1001
0000
,
0000
0000
1000
0000
0001
0100
0000
0010
0000
0000
1000
0000
1010
0000
0000
0001
,
0000
0000
0010
0000
0011
0000
0000
0001
0000
0000
1000
0000
1001
0000
0000
0000
,
1000
0100
0010
0001
0010
0100
1000
0010
,
0000
0100
0010
0100
0010
0100
0010
0100
,
0000
1010
0000
0100
0000
0011
0000
0100
,
0000
1010
0010
1000
0001
1000
0100
0100
,
0020
0000
0030
0010
0001
0000
0001
0100
,
0000
0100
1000
0010
0100
0001
0010
0002
,
0000
0100
0010
0103
,
0000
0000
1000
0000
0000
0001
0000
0000
2002
0000
0000
0000
3003
0000
0000
0000
,
0010
0100
0010
1000
0100
0010
0001
1000
,
0010
0000
0000
0100
0000
0000
0010
0000
0220
0000
0000
0000
0330
0000
0000
0000
,
0001
0100
1000
0100
0001
1000
1000
0000
,
0100
0000
0000
0010
0000
0000
0001
0000
1001
0000
0000
0000
0110
0000
0000
0000
,
0100
0010
0100
0001
0010
0100
1000
0001
,
0100
0000
0000
0010
0000
0000
0100
0000
0220
0000
0000
0000
0330
0000
0000
0000
,
1000
0010
0001
0010
1000
0001
0001
0000
,
1000
0100
0000
0001
0010
0000
0110
0000
,
0001
0100
0001
0100
0010
1000
0010
1000
,
0200
0000
0302
0000
0103
1000
0100
0000
,
1000
0010
0100
0100
0001
0010
0100
0100
,
1100
1010
0011
0101
,
1000
0100
1000
0100
0010
0001
0010
0001
,
0011
0101
2002
3003
,
0010
0000
1000
0010
0000
0000
1000
0000
0010
1000
0000
0000
0000
0000
0000
0000
,
0001
0000
0100
0001
0000
0000
0100
0000
0001
0100
0000
0000
0000
0000
0000
0000
,
0010
0100
0010
1000
0100
0001
0100
0010
,
0001
0000
0010
0000
0100
0000
1000
0000
0001
0100
0010
0000
1000
0000
0000
1001
,
0000
0000
0000
0000
;
#NOTES:
     dance-single:
     :
     Challenge:
     16:
     :
0000
0000
0000
0000
,
0000
0000
0000
0000
,
0000
0000
0000
0000
,
0000
0000
0000
0000
,
0000
0000
0000
0000
,
0000
0000
0000
0000
,
0000
0000
1000
0010
1000
0010
0100
0001
0000
0001
1000
0000
0100
0010
0100
0000
,
0000
0000
1000
0100
1000
0100
0010
0001
0010
0001
0010
0000
0002
0000
0000
0000
,
1003
0000
0001
0010
0100
1000
0000
0010
0000
0100
0010
0000
1000
0100
0010
0000
,
0001
0000
0100
0010
0000
1010
0000
1100
0000
0100
0001
0000
1000
0100
0010
0000
,
0001
0000
0100
0000
0001
0000
0010
0001
0000
0000
1000
0000
0010
0000
1000
0000
,
0100
0000
0010
0000
0100
0000
0010
0001
0000
0000
0001
0000
0100
0000
1000
0000
,
0100
0000
0000
0110
0000
0000
1100
0000
0000
0000
1000
0000
0100
0000
0001
0000
,
0010
0000
0000
0110
0000
0000
1010
0000
0000
0000
1000
0000
0010
0000
0001
0000
,
1000
0000
0100
0000
1000
0010
0100
0001
0000
0000
1000
0000
0100
0000
0001
0000
,
0001
0000
0000
0000
0000
0000
0001
0000
0000
0000
0000
0000
0100
0000
0000
0000
0000
0000
1000
0000
0000
0001
0000
0000
0000
0000
0000
0000
0000
0000
0001
0000
0010
0000
0100
0000
1000
0000
0000
0000
0000
0000
1010
0000
0000
0000
0000
0000
,
0000
0101
0000
0011
0000
1100
0000
0110
,
0000
0000
1001
0000
1000
0001
0000
2002
0000
0000
0000
0000
3003
0000
0000
0000
,
1000
0000
0001
0010
0001
0000
1000
0010
0000
1000
0100
1000
0100
0000
1000
0002
,
0000
0000
0013
0001
0010
0000
0200
0000
0001
0000
0000
0010
0000
0000
1300
0000
,
0000
0000
0010
1000
0010
1000
0100
0010
0000
0001
0100
0010
0100
0001
0100
0010
,
0000
1000
0010
0100
0001
0100
0020
0000
0001
0000
0000
0100
0000
0000
1030
0000
,
0000
0000
0100
0010
0001
0000
0001
1000
0000
1000
0010
0100
0010
0100
0001
1000
,
0000
0000
0010
1000
0100
0000
0010
0001
0100
0000
0000
1010
0000
0000
1001
0000
,
0100
0000
0000
0011
0000
0000
1001
0000
0000
0000
1001
0000
0000
0110
0000
0000
,
2002
0000
0000
0000
3003
0000
1000
0001
1000
0000
1001
0000
0001
1000
0000
0001
,
1000
0000
0001
0000
0100
0001
0000
0010
0000
0010
0100
0000
1100
0000
1001
0000
,
0000
0000
1000
0000
0100
1000
0000
0010
0000
0010
0100
0000
0101
0000
1001
0000
,
0000
0000
0001
0100
0010
1000
0000
1010
0000
1000
0100
0000
0011
0000
0000
1001
,
0000
0001
0100
0000
1010
0000
0000
1001
0000
0010
0100
0000
0110
0000
0000
0000
,
1001
0000
1000
0010
1000
0100
0000
0010
0000
0010
0100
0000
1000
0010
0100
0000
,
0000
0000
0001
0010
0100
0010
0100
1000
0000
1000
0001
0000
0010
0001
0100
0000
,
0000
0000
1001
0000
0010
1000
0100
0000
0000
0000
1001
0000
0010
0001
0100
0000
,
0000
1001
0011
0011
0101
0101
0110
0110
,
2002
0000
3003
0010
1000
0000
1000
0001
,
0000
0100
0001
0010
0100
1000
0010
0200
,
0000
0010
1000
0001
,
0300
0000
1010
0000
0000
0011
0000
0000
2002
0000
0000
0000
3003
0000
0000
0000
,
0001
0000
0010
0100
0000
0001
0000
0100
0000
1000
0001
0000
1000
0100
0010
0001
,
0100
0000
0100
0010
0000
0010
1000
0000
2002
0000
0000
0000
3003
0000
0010
1000
,
0100
0000
0010
0001
0000
1000
0100
0000
1001
0000
0110
0000
0110
0000
0000
0000
,
1000
0100
1000
0001
0010
0001
0100
0010
1000
0000
0000
0000
0110
0000
0000
0000
,
1000
0000
0010
0100
0000
1000
0000
0100
0000
0001
1000
0000
0001
0100
0010
1000
,
0100
0000
0100
0010
0000
0010
0001
0000
2002
0000
0000
0000
3003
0000
0010
0001
,
0100
0000
0100
0000
0110
0000
1000
0010
0000
0100
0001
0000
1000
0100
0010
0000
,
0011
0000
0101
0000
0000
0000
1010
0000
1100
0000
0000
0010
0000
0000
0010
0000
,
0001
0000
1000
0100
0010
0000
0001
0100
0010
0000
0001
0010
1000
0000
0001
0100
,
0010
0000
1010
0000
1002
0100
0103
0010
,
1000
0100
1000
0000
0001
0010
0001
0010
0000
0001
0100
0000
0010
0100
0001
0000
,
1000
0010
1000
0010
0100
0001
0100
0001
1000
0001
0010
0100
1000
0000
0001
0000
,
1000
0000
0001
0010
0100
0000
1000
0010
0100
0000
1000
0100
0001
0000
1000
0010
,
0100
0000
0101
0000
2001
0010
3010
0100
,
0001
0010
0100
1000
0000
0000
1000
0010
0100
0001
0000
0000
0000
0000
1001
0000
,
0001
0100
1000
0100
0000
0000
0001
0010
1000
0010
0000
0000
0001
0000
1000
0000
,
1001
0000
0010
0001
0100
0001
0100
0001
0000
0001
1000
0000
0100
1000
0010
0000
,
1010
0000
1100
0000
0101
0000
0011
0000
0010
0001
0100
0010
1000
0100
0010
0001
,
0000
0000
0000
0000
;
#NOTES:
     dance-double:
     :
     Easy:
     5:
     :
00000000
00000000
00000000
00000000
,
00000000
00000000
00000000
00000000
,
00000000
00000000
00000000
00000000
,
00000000
00000000
00000000
00000000
,
00000000
00000000
00000000
00000000
,
00000000
00000000
00000000
00000000
,
10000000
01000000
10000000
01000000
,
00100000
00010000
00100000
00001000
,
00010000
00010000
00001000
00001000
,
00022000
00000000
00033000
00000000
,
00010000
00000100
00001000
00000000
,
00000001
00000100
00000010
00000000
,
00000220
00000000
00000330
00000000
,
00002002
00000000
00003003
00000000
,
00001000
00000100
00010000
00000000
,
00001000
00100000
00010000
00000000
,
01000000
00000000
00100000
00000000
,
20020000
00000000
30030000
00000000
,
10000000
01000000
00010000
00000000
,
00010000
00001000
00010000
00000000
,
00001000
00000010
00000001
00000000
,
00001000
00000001
00001000
00000000
,
00000001
00000100
00001000
00000000
,
00010000
00001000
00010000
00000000
,
00001000
00000000
00010000
00000000
,
00011000
00000000
00000000
00000000
,
00010000
00000010
00010000
00000000
,
00001000
00100000
00001000
00000000
,
00010000
00001000
00010000
00001000
,
01000000
00100000
01000000
00000000
,
00020000
00000000
00030000
00000000
,
00200000
00000000
00300000
00000000
,
00002000
00000000
00003000
00000000
,
00020000
00000000
00030000
00000000
,
00000010
00000000
00001000
00000000
,
00000001
00000000
00001000
00000000
,
00002002
00000000
00000000
00000000
,
00003003
00000000
00000000
00000000
,
00000010
00000010
00000010
00000000
,
00000100
00001000
00010000
00000000
,
00001000
00010000
00001000
01000000
,
00001000
00010000
00001000
00000000
,
00100000
00100000
00100000
00000000
,
01000000
00010000
00001000
00000000
,
00010000
00001000
00010000
00000100
,
00010000
00001000
00010000
00000000
,
00000200
00000000
00000300
00000000
,
00000020
00000000
00000030
00000000
,
00002000
00000000
00003000
00000000
,
00020000
00000000
00030000
00000000
,
01000000
00000000
00100000
00000000
,
01000000
01000000
01000000
00000000
,
01100000
00000000
00000000
00000000
,
00011000
00000000
00000000
00000000
,
00001000
00000000
00000100
00000000
,
00000010
00000001
00000010
00000000
,
00001001
00000000
00000000
00000000
,
00000000
00000000
00000000
00000000
;
#NOTES:
     dance-double:
     :
     Medium:
     9:
     :
00000000
00000000
00000000
00000000
,
00000000
00000000
00000000
00000000
,
00000000
00000000
00000000
00000000
,
00000000
00000000
00000000
00000000
,
00000000
00000000
00000000
00000000
,
00000000
00000000
00000000
00000000
,
10000000
00100000
10000000
00000000
01000000
00100000
01000000
00000000
,
00100000
00001000
00010000
00001000
00010000
00000000
00001000
00000000
,
00011000
00000000
00000100
00001000
00000010
00000100
00000001
00000000
,
00002000
00000000
00000002
00003003
,
00000001
00000100
00001000
00001000
,
00010000
00100000
10000000
10000000
,
00010000
00000000
00000000
20020000
00000000
00000000
30030000
00000000
,
00100000
00000000
00000000
02200000
00000000
00000000
03300000
00000000
,
10000000
01000000
00010000
00010000
,
00001000
00000010
00000001
00000001
,
00000100
00000001
00000100
00000000
00000010
00001000
00000010
00000000
,
00010000
00001000
00022000
00033000
,
00010000
00000000
00100000
00000000
00010000
01000000
10000000
00000000
,
01000000
01000000
01000000
00000000
,
00100000
00000000
10000000
00000000
01000000
00010000
00001000
00000000
,
00010000
00010000
00010000
00000000
,
00001000
00000000
00010000
00000000
00001000
00000010
00000001
00000000
,
00001000
00001000
00001010
00000000
,
00010010
00000000
00011000
00000000
,
00022000
00000000
00033000
00000000
,
00100000
00000000
00010000
00000000
01000000
00100000
01000000
00000000
,
00100000
00000000
10000000
00000000
01000000
00100000
01000000
00000000
,
00100000
00000000
00000000
00000000
00001000
00000000
00000000
00010000
00000000
00000000
00010000
00000000
00010000
00000000
00000000
00001000
,
00000000
00000000
00001000
00000000
00001000
00000000
00000000
00010000
00000000
00000000
00001000
00000000
00010000
00000000
00000000
00000000
,
00000010
00000000
00001000
00000000
00000100
00000010
00000001
00000000
,
00000100
00000000
00000010
00000000
00001000
00000100
00001000
00000100
,
00000000
00000000
00000000
00011000
00000000
00000000
00000000
00110000
,
00000000
00100000
00010000
00000000
10000000
00000000
01000000
00000000
,
00100000
00000000
00000000
00010000
00100000
00000000
00100000
00001000
,
00000000
00001000
00010000
00000000
00010000
00001000
00010000
00002000
,
00000000
00000000
00000000
00000000
,
00003000
00000000
00010000
00000000
00000000
00001000
00000000
00000000
00022000
00000000
00000000
00000000
00033000
00000000
00000000
00000000
,
00010000
00001000
00000010
00000000
00001000
00000010
00000001
00000000
,
00000011
00000101
00001001
00000000
,
00000001
00000000
00000010
00000000
00001000
00010000
00001000
00000000
,
00010000
00001000
00011000
00000000
,
00001000
00010000
00100000
00000000
00010000
00100000
10000000
00000000
,
10100000
11000000
10010000
00000000
,
10000000
00000000
00100000
00000000
00010000
00001000
00010000
00000000
,
00001000
00010000
00000000
00010000
00001000
00000000
00000000
00000000
,
00002000
00000100
00003100
00000000
,
00020000
01000000
01030000
00000000
,
00010000
00001000
00000010
00000001
,
00000100
00000010
00010000
00001000
,
00020000
00100000
00130000
00000000
,
00002000
00000010
00003010
00000000
,
00000100
00000000
00000000
00011000
00000000
00000000
00000000
00000000
,
01000000
00000000
00000000
00011000
00000000
00000000
00000000
00000000
,
00001000
00010000
00100000
00100000
,
10000000
00000000
00000000
00000000
00100000
00000000
00000000
00000000
00010000
00000000
00000000
00000000
00000000
00000000
00000000
00011000
,
00000000
00000000
00000000
00000000
;
#NOTES:
     dance-double:
     :
     Hard:
     11:
     :
00000000
00000000
00000000
00000000
,
00000000
00000000
00000000
00000000
,
00000000
00000000
00000000
00000000
,
00000000
00000000
00000000
00000000
,
00000000
00000000
00000000
00000000
,
00000000
00000000
00000000
00000000
,
00100000
10000000
00100000
10000000
00010000
00100000
00010000
00000000
,
01000000
00010000
01000000
00010000
01000000
00001000
00010000
00000000
,
00011000
00000000
00001000
00000010
00000001
00000010
00001000
00000000
,
00010000
00100000
00010000
00100000
10000000
00100000
10000000
00000000
,
01000000
00000000
00100000
00000000
00001000
00010000
00001000
00000000
,
00000100
00000000
00000010
00000000
00001000
00000001
00001000
00000000
,
00000010
00000000
00000000
00000010
00000000
00000000
00002002
00000000
00000000
00000000
00000000
00000000
00003003
00000000
00000000
00000000
,
00000100
00000000
00000000
00000100
00000000
00000000
00022000
00000000
00000000
00000000
00000000
00000000
00033000
00000000
00000000
00000000
,
00000010
00000000
00000100
00000000
00001000
00010000
00001000
00000000
,
01000000
00000000
00100000
00000000
10000000
00010000
10000000
00010000
,
00000000
01010000
00000000
00100000
00000000
00101000
00000000
00011000
,
00000000
00000000
00010000
00000000
00001000
00010000
00000000
00002000
00000000
00000000
00000000
00000000
00003000
00000000
00000000
00000000
,
00001000
00000100
00001000
00000100
00000001
00000100
00000001
00000100
,
00001000
00010000
00001000
00010000
00011000
00000000
00000000
00000000
,
00010000
01000000
00010000
01000000
10000000
01000000
10000000
01000000
,
00010000
00001000
00010000
00001000
00011000
00000000
00000000
00000000
,
00001000
00000010
00000001
00001000
00000100
00000010
00000001
00000100
,
00001000
00000000
00010000
00000000
00100000
00000000
01000000
00000000
10000000
00000000
00000000
10000000
00000000
00000000
10000000
00000000
,
01000000
00000000
00000000
01000000
00000000
00000000
01000000
00000000
00000000
00000000
00001000
00000000
00000000
00010000
00000000
00000000
,
00022000
00000000
00033000
00000000
,
00000000
00000000
00000010
00000000
00001000
00000010
00000000
00000100
00000000
00000000
00000001
00000000
00001000
00000000
00000001
00000000
,
00000000
00000000
00000010
00000000
00000100
00001000
00000000
00000100
00000000
00000000
00010000
00000000
00001000
00000000
00010000
00000000
,
00000000
00000000
00001000
00000000
00100000
00010000
00000000
01000000
00000000
00000000
00100000
00000000
10100000
00000000
00000000
10000000
,
00000000
00000000
01000000
00000000
01100000
00000000
00000000
00001000
00000000
00000000
00010000
00000000
00011000
00000000
00000000
00000000
,
00001000
00000010
00001000
00000010
00000001
00000010
00001000
00010000
,
00001000
00000100
00001000
00000100
00001000
00010000
00100000
01000000
,
00000000
10100000
00000000
01000000
00000000
00110000
00000000
01000000
,
00000000
01100000
00100000
00010000
00001000
00000100
00000010
00000100
,
00000020
00000000
00000030
00000001
00000100
00000000
00000100
00001000
,
00000000
00001000
00010000
00000000
00010000
00001000
00010000
00002000
,
00000000
00100000
00010000
01003000
,
00000000
00000000
00010000
00000000
00000000
00001000
00000000
00000000
00022000
00000000
00000000
00000000
00033000
00000000
00000000
00000000
,
00010000
00100000
10000000
00100000
00010000
00100000
10000000
00100000
,
00010000
00000000
00000000
00001000
00000000
00000000
00010000
00000000
02000000
00000000
00000000
00000000
03000000
00000000
00000000
00000000
,
01000000
00010000
00001000
00010000
00001000
00000010
00000010
00000000
,
00000001
00000000
00000000
00000100
00000000
00000000
00000010
00000000
00000110
00000000
00000000
00000000
00001001
00000000
00000000
00000000
,
00001000
00000010
00000001
00000010
00001000
00000010
00000001
00000010
,
00001000
00000000
00000000
00000100
00000000
00000000
00010000
00000000
00000200
00000000
00000000
00000000
00000300
00000000
00000000
00000000
,
00001000
00000100
00010000
00001000
00100000
00010000
10000000
00100000
,
01000000
00010000
00000000
01000000
00001000
00000000
00011000
00000000
,
00001000
00010000
00000100
00000000
00000010
00000100
00010000
00000000
,
00002000
00000000
00003200
00000000
00000301
00000010
00001000
00000000
,
00010000
00001000
00010000
00001000
01000000
00010000
00100000
01000000
,
00010000
00001000
00010000
00000000
00001000
00010000
00001000
00000000
,
00010000
00001000
00100000
00000000
01000000
00100000
00001000
00000000
,
00020000
00000000
00230000
00000000
10300000
01000000
00010000
00000000
,
00001000
00000000
00010000
00001000
00000000
00000000
00000010
00000000
00001000
00000010
00000000
00000000
00000000
00000000
00000000
00000000
,
00001000
00000000
00010000
00001000
00000000
00000000
00010000
00000000
00100000
00010000
00000000
00000000
00000000
00000000
00000000
00000000
,
00001000
00000010
00000001
00000100
00000010
00010000
00001000
00100000
,
00010000
00000000
01000000
00000000
00100000
00000000
10000000
00000000
01000000
00000000
00100000
00000000
00010000
10000000
00010000
10000000
,
00000000
00000000
00000000
00000000
;
#NOTES:
     dance-double:
     :
     Challenge:
     16:
     :
00000000
00000000
00000000
00000000
,
00000000
00000000
00000000
00000000
,
00000000
00000000
00000000
00000000
,
00000000
00000000
00000000
00000000
,
00000000
00000000
00000000
00000000
,
00000000
00000000
00000000
00000000
,
00000000
00000000
00010000
00001000
00010000
00001000
00100000
00010000
00000000
00010000
01000000
00100000
10000000
00100000
10000000
00000000
,
00000000
00000000
01000000
00100000
01000000
00100000
00010000
00100000
00010000
00100000
00001000
00000000
00010000
00000000
00000000
00000000
,
00011000
00000000
00000100
00001000
00000100
00000010
00000000
00000001
00000000
00001000
00000001
00000000
00000100
00000010
00000100
00000000
,
00000010
00000000
00001000
00000100
00000000
00010100
00000000
00011000
00000000
00001000
00100000
00000000
00010000
00000000
01000000
00000000
,
00100000
00000000
10000000
00000000
01000000
00000000
00100000
00010000
00000000
00000000
00010000
00000000
00100000
00000000
00001000
00000000
,
00010000
00000000
00000100
00000000
00001000
00000000
00000010
00000100
00000000
00000000
00000001
00000000
00000010
00000000
00001000
00000000
,
00000010
00000000
00000000
00000110
00000000
00000000
00000101
00000000
00000000
00000000
00000001
00000000
00000100
00000000
00001000
00000000
,
00000010
00000000
00000000
00000110
00000000
00000000
00001100
00000000
00000000
00000000
00000100
00000000
00000010
00000000
00010000
00000000
,
00001000
00000000
00100000
00000000
00010000
00100000
01000000
10000000
00000000
00000000
01000000
00000000
00100000
00000000
00001000
00000000
,
00010000
00000000
00001000
00000000
00000100
00000000
00000010
00000100
00000000
00000000
00000001
00000000
00000010
00000000
00000110
00000000
,
00000000
00001000
00000100
00010100
00000000
00001000
01000000
01010000
,
00000000
00000000
01100000
00000000
10000000
00010000
00000000
20020000
00000000
00000000
00000000
00000000
30030000
00000000
00000000
00000000
,
10010000
00000000
00100000
10000000
01000000
00000000
00100000
00010000
01000000
00000000
00100000
00010000
00001000
00000000
01000000
00001000
,
00010000
00000000
00000010
00001000
00000100
00000000
00000010
00000001
00001000
00000000
00000000
00000001
00000000
00000000
00001000
00000000
,
00001001
00000000
00000010
00000001
00000100
00000000
00000010
00001000
00000100
00000000
00000010
00001000
00010000
00000000
00000100
00010000
,
00001000
00000000
00100000
00010000
01000000
00000000
00100000
10000000
00010000
00000000
00000000
10000000
00000000
00000000
00010000
00000000
,
10000000
00000000
10000000
00100000
01000000
00000000
01000000
00001000
00010000
00000000
00001000
00010000
00000010
00000000
00000010
00001000
,
00000100
00000000
00000100
00000010
00000001
00000000
00000100
00000010
00001000
00000000
00000000
00001100
00000000
00000000
00010100
00000000
,
00001000
00000000
00000000
01001000
00000000
00000000
00110000
00000000
00000000
00000000
01010000
00000000
00000000
01100000
00000000
00000000
,
20020000
00000000
00000000
00000000
30030000
00000000
00010000
10000000
00010000
00000000
10010000
00000000
00010000
00001000
00000000
00010000
,
00001000
00000000
00000010
00000000
00000001
00000000
00000100
00000010
00000000
00000010
00000100
00000000
00000010
00000000
00001001
00000000
,
00000000
00000000
00010000
00000000
00001000
00000000
00100000
01000000
00000000
01000000
00100000
00000000
01000000
00000000
10010000
00000000
,
00000000
00000000
10000000
00000000
00010000
00001000
00000000
00011000
00000000
00000000
00001000
00000000
00001001
00000000
00000000
00001000
,
00000000
00000000
00010000
00000000
00011000
00000000
00000000
10000000
00000000
00000000
00010000
00000000
10010000
00000000
00000000
00000000
,
10000000
00000000
01000000
00100000
00010000
00000000
00100000
00001000
00000000
00010000
00001000
00000000
00010000
00000100
00001000
00000000
,
00000000
00000000
00000001
00000100
00000010
00000000
00001000
00000010
00000000
00010000
00001000
00000000
00100000
00010000
01000000
00000000
,
00000000
00000000
10010000
00000000
00100000
10000000
01000000
00000000
00000000
00000000
10010000
00000000
01000000
00010000
00001000
00000000
,
00000000
00011000
00001000
00000010
00000011
00000001
00001001
00001000
,
00001100
00000000
00000100
00010000
01000000
00000000
01000000
00100000
,
00000000
00100000
00001000
00000010
00000001
00000010
00000100
00002000
,
00000000
00003200
00020300
00032000
,
00003000
00000000
00010000
00000000
00000000
00001000
00000000
00000000
00022000
00000000
00000000
00000000
00033000
00000000
00000000
00000000
,
00010000
00000000
00100000
10000000
00000000
01000000
00000000
00010000
00000000
01000000
00100000
00000000
00001000
01000000
00001000
00010000
,
00001000
00000000
00000010
00000001
00000000
00000001
00001000
00000000
00002002
00000000
00000000
00000000
00003003
00000000
00000001
00000100
,
00001000
00000000
00001000
00010000
00100000
00000000
10000000
00000000
01000000
00000000
10010000
00000000
10010000
00000000
00000000
00000000
,
10000000
01000000
10000000
01000000
00100000
01000000
00100000
00010000
00100000
00000000
00000000
00000000
00011000
00000000
00000000
00000000
,
00001000
00000000
00000010
00000001
00000000
00000100
00000000
00001000
00000000
00000100
00000010
00000000
00010000
00000100
00010000
00001000
,
00010000
00000000
00100000
10000000
00000000
10000000
00010000
00000000
20020000
00000000
00000000
00000000
30030000
00000000
10000000
01000000
,
00010000
00000000
00010000
00001000
00000010
00000000
00000001
00001000
00000000
00001000
00000001
00000000
00000100
00000010
00000100
00000000
,
00000010
00000101
00000000
00000010
00001100
00000000
00001001
00000000
,
00000010
00000000
00000001
00001000
00000010
00000000
00000100
00000010
00001000
00000000
00000100
00010000
00001000
00000000
00100000
00000000
,
00001000
00010000
01000000
00100000
00001000
00010000
01000000
00100000
,
00010000
00000000
10000000
00100000
10000000
00000000
00100000
00010000
00000000
00010000
00001000
00000000
00000100
00000010
00000100
00000000
,
00000001
00000010
00000001
00000100
00000010
00001000
00000100
00001000
00000100
00010000
00001000
00100000
00010000
00000000
01000000
00000000
,
00100000
00000000
10000000
00010000
00100000
00000000
01000000
00100000
00010000
00000000
01000000
00001000
00010000
00000000
00000010
00000000
,
00010000
00001000
00000100
00000010
00010000
00001000
00000100
00000010
,
00001000
00000100
00000010
00000001
00000000
00000000
00000001
00000010
00000100
00001000
00000000
00000000
00000000
00000000
00000000
00000000
,
00010000
01000000
00100000
10000000
00000000
00000000
10000000
00100000
01000000
00010000
00000000
00000000
00000000
00000000
00000000
00000000
,
00011000
00000000
00001000
00000010
00000100
00000010
00000001
00000010
00000000
00000010
00001000
00000000
00000100
00010000
00001000
00000000
,
00011000
00000000
00110000
00000000
01100000
00000000
11000000
00000000
10000000
01000000
00100000
00001000
00010000
00000100
00000010
00000001
,
00000000
00000000
00000000
00000000
;
