
//----- song ID: mono -----//
#TITLE:モノクロモーメント;
#ARTIST:BEMANI Sound Team "TAG";
#TITLETRANSLIT:Monochrome moment;
#BANNER:Monochrome moment.png;
#BACKGROUND:Monochrome moment-bg.png;
#CDTITLE:./CDTitles/NOSTALGIA Op.2.png;
#MUSIC:Monochrome moment.ogg;
#SAMPLESTART:88.12;
#SAMPLELENGTH:15;
#BPMS:0=155;
#NOTES:
     dance-single:
     :
     Beginner:
     3:
     :
0000
0000
0000
0000
,
0000
0000
0000
0000
,
0000
0000
0000
0000
,
0000
0000
0000
0000
,
0000
0000
0000
0000
,
0001
0000
0100
0000
,
0100
0000
0010
0000
,
0010
0000
0100
0000
,
0110
0000
0000
0000
,
1000
0000
0010
0000
,
0100
0000
0100
0000
,
1000
0000
0001
0000
,
0010
0000
0000
0000
,
0110
0000
0000
0000
,
0001
0010
0010
0000
,
0110
0000
0000
0000
,
0010
0100
0010
0000
,
0110
0000
0000
0000
,
1000
0000
0010
0000
,
0110
0000
0000
0000
,
0001
0000
0100
0000
,
1000
0000
0100
0000
,
0010
0000
0010
0000
,
1000
0000
1000
0000
,
0010
0000
0010
0000
,
1000
0000
0010
0000
,
0010
0000
0010
0000
,
0200
0000
0300
0000
,
0100
0000
0100
0000
,
0010
0000
0010
0000
,
0010
0000
0001
0000
,
0100
0000
1000
0000
,
0010
0010
0000
0000
,
0001
0000
0100
0000
,
0100
1000
1000
0000
,
0001
0000
1000
0000
,
0001
0100
0010
0000
,
0100
0000
0010
0000
,
0010
0000
1000
0000
,
0002
0000
0000
0003
,
0110
0000
0000
0000
,
1000
0000
0100
0000
,
0001
0001
0001
0000
,
0010
0000
0001
0000
,
1000
1000
0100
0000
,
0001
0000
1000
0000
,
0001
0000
0010
0000
,
0200
0000
0000
0300
,
0010
0000
0010
0000
,
2000
0000
0000
3000
,
0200
0000
0000
0300
,
0200
0000
0000
0300
,
2000
0000
0000
3000
,
0010
0000
0100
0000
,
0010
0000
0010
0000
,
1001
0000
0000
0000
,
0110
0000
0000
0000
,
0100
0000
1000
0000
,
0010
0000
0100
0000
,
1000
0000
0100
0000
,
1000
0000
0001
0000
,
1000
0000
0000
0000
,
0100
0000
0100
0000
,
1000
0000
1000
0000
,
1001
0000
0000
0000
,
0001
0000
0100
0000
,
0100
0000
1000
0000
,
0001
0000
1000
0000
,
0001
0000
1000
0000
,
0100
0000
0100
0000
,
0100
0000
0010
0000
,
0001
0000
1000
0000
,
1001
0000
0000
0000
,
0010
0000
0010
0000
,
0010
0000
0100
0000
,
0010
0000
0001
0000
,
0001
0001
0000
0000
,
2002
0000
0000
0000
,
0000
0000
0000
0000
,
0000
0000
0000
0000
,
3003
0000
0000
0000
,
0000
0000
0000
0000
;
#NOTES:
     dance-single:
     :
     Easy:
     7:
     :
0000
0000
0000
0000
,
0000
0000
0000
0000
,
0000
0000
0000
0000
,
0000
0000
0000
0000
,
0000
0000
0000
0000
,
0001
0001
0100
0100
,
0010
0010
1000
1000
,
0010
1000
0100
0010
,
0001
1000
0010
0110
,
1000
1000
0001
0001
,
0010
0010
0100
0100
,
1000
0100
0010
0001
,
0100
0010
0100
0000
0000
0000
0000
0000
,
0220
0000
0000
0330
,
0001
0010
0100
1000
,
0220
0000
0000
0330
,
0010
1000
0001
0100
,
2002
0000
0000
3003
,
0100
0010
1000
0001
,
2002
0000
0000
3003
,
1000
0000
0001
0000
0100
0010
0100
0000
,
0001
0010
0100
1000
,
0001
0010
0100
0000
,
1000
0010
0100
0001
,
1000
0100
0010
0000
,
0001
0010
0001
0010
,
0100
1000
0100
1000
,
0200
0000
0000
0010
0310
0000
0000
0000
,
1000
0010
0100
0001
,
0010
0001
1000
0100
,
0010
0001
1000
0010
,
0100
0001
0010
0100
,
1000
0001
1000
0000
0000
0000
0000
0000
,
1000
1001
0001
1001
,
0010
0100
0001
1000
,
0001
1001
1000
1001
,
0001
0100
0010
1000
,
0100
0110
0010
0110
,
0001
1000
0010
0100
,
0002
0000
2003
0000
,
3001
1000
2002
3003
,
0001
1001
1000
1001
,
0100
0010
1000
0001
,
1000
1001
0001
1001
,
1000
0010
0100
0001
,
0010
0110
0100
0110
,
1000
0001
0100
0010
,
2000
0000
3002
0000
,
1003
0001
0220
0330
,
1000
0000
0001
0000
,
0010
0000
0100
0000
,
1000
0010
0100
0001
,
0010
0100
0010
0000
,
0010
0001
1001
0000
,
0100
1000
1001
0000
,
0020
0000
0230
0000
,
0310
0100
0110
0000
,
0010
0010
0100
0110
,
1000
1000
0001
1001
,
1000
0010
0100
0001
,
0110
1001
0110
1001
,
1000
0000
0001
0000
,
0100
0010
0100
0010
,
2000
0000
3010
1000
,
0110
1001
0110
0000
,
1000
1000
0010
0010
,
0100
0100
0001
0001
,
0010
0010
0100
0100
,
1000
1000
0001
0001
,
1000
1000
0010
1001
,
0001
0001
0100
1001
,
1000
0010
0100
0001
,
0010
0100
1000
1001
,
0020
0000
0230
0000
,
0302
0000
2003
0000
,
3001
0010
0100
1000
,
0001
1000
0001
0000
0000
0000
0000
0000
,
2002
0000
0000
0000
,
0000
0000
0000
0000
,
0000
0000
0000
0000
,
3003
0000
0000
0000
,
0000
0000
0000
0000
;
#NOTES:
     dance-single:
     :
     Medium:
     11:
     :
0000
0000
0000
0000
,
0000
0000
0000
0000
,
0000
0000
0000
0000
,
0000
0000
0000
0000
,
0000
0000
0000
0000
,
1000
0000
0010
0000
0000
1000
0000
0000
0100
0000
0000
0010
0000
0000
0001
0000
,
0100
0000
0010
0000
0000
0100
0000
0000
0010
0000
0000
1000
0000
0000
0100
0000
,
0010
0000
0100
0000
0000
1000
0000
0000
0100
0000
0000
0010
0000
0000
0001
0000
,
0100
0001
1000
0010
0100
0001
1000
0000
,
0001
0100
1000
0100
0000
1000
0100
0001
,
0000
0010
0001
0100
0000
0010
1000
0100
,
0000
1000
0001
0000
1000
0010
0100
0001
,
0000
0010
0010
0000
0001
0001
1000
0000
,
0100
0000
0000
0010
0000
0010
0000
0010
0000
0000
0000
0000
0000
0000
0100
0000
,
1000
0100
0010
0010
0000
0001
1000
0001
,
0010
0000
0000
0100
0000
0100
0000
0100
0000
0000
0000
0000
0000
0000
1000
0000
,
0001
1000
0100
0010
0000
0001
0100
1000
,
0100
0000
0000
0010
0000
0100
0000
0010
0000
0000
0100
0000
0100
0000
0001
0000
,
1000
0000
0001
0010
0000
0100
1000
0100
,
0010
0000
0000
0100
0000
0010
0000
0100
0000
0000
1000
0000
0010
0000
0100
0000
,
0001
0000
0010
0100
0000
1000
0010
0000
,
1000
0000
0001
0000
0100
0010
1000
0001
,
0000
0010
0100
0010
0000
0000
0110
0000
,
1000
0000
0010
0000
1000
0100
0010
0001
,
0000
0000
0100
0010
0000
0000
0110
0000
,
0001
0000
1001
0000
0010
0100
0010
1000
,
0000
0000
0100
0000
0010
0000
0001
0001
,
0200
0000
0000
0010
0310
0000
1000
0000
,
0100
0010
0100
0000
0010
0001
0100
0000
,
0010
0000
0110
0000
0000
0100
0001
0010
,
0000
0001
0100
0000
0001
0000
1000
0000
,
0100
0000
1000
0000
0001
0100
0010
1000
,
0000
0010
0010
0000
0000
0000
0000
0000
,
1000
0100
1000
0000
0001
0100
0001
0000
,
0010
0000
0100
0000
1000
0001
1000
0000
,
0001
0010
0001
0000
1000
0010
1000
0000
,
0100
0000
0010
0000
0001
1000
0001
0000
,
1000
0110
0001
0110
,
1000
0100
0010
0000
0001
0100
0010
0000
,
2000
0000
0000
0000
3002
0000
0000
1003
,
0000
0001
0000
0010
0002
0000
0003
0000
,
0001
0000
0000
0100
0000
0000
0010
0000
1000
0000
0000
0100
0000
0000
0010
0000
,
0001
0000
0000
0100
0000
0000
0001
0000
1000
0000
0000
0001
0000
0000
0100
0000
,
0010
0000
0000
1000
0000
0000
0100
0000
1000
0000
0000
0010
0000
0000
0100
0000
,
0001
0000
0000
0010
0000
0000
0100
0000
1000
0000
0000
0001
0000
0000
0100
0000
,
0010
0000
0000
0010
0000
0000
0100
0000
0010
0000
0000
0010
0000
0000
0100
0000
,
0001
0000
0000
0001
0000
0000
1000
0000
0100
0000
0000
0100
0000
0000
0010
0000
,
0100
0000
1001
0000
,
0010
0000
0000
0001
0000
0000
0100
0000
0010
0000
0000
0000
1001
0000
0000
0000
,
0010
0000
0100
0000
0001
0000
1000
0001
,
0010
0100
1000
0001
,
0010
0100
1000
0000
0010
0100
0001
0000
,
1010
1100
0011
0101
,
1000
0000
0001
0000
1000
0100
0010
0000
,
0001
0000
1000
0000
0001
0100
0010
0000
,
1000
0000
0001
1000
0100
0000
0110
0000
,
0010
0001
0100
0010
1000
0001
1000
0000
,
1000
0000
0000
0100
0000
0000
0010
0000
0000
0001
0000
0000
0100
0000
0010
0000
,
1000
0000
0000
0100
0000
0000
0010
0000
0000
0001
0000
0000
0010
0000
0100
0000
,
1000
0000
0000
0001
0000
0000
0001
0000
0100
0000
0000
0010
0000
0000
0010
0000
,
1000
0000
0000
0000
1001
0000
0000
0000
0001
0000
0000
0010
0000
0000
0100
0000
,
1000
0000
0010
0100
0001
0000
0010
0000
,
0100
1100
0110
0011
,
0002
0000
0000
0013
0100
0000
0010
0000
,
2002
0000
0000
3003
,
1000
0000
0100
0000
0000
0010
0000
0000
0100
0000
0000
0010
0000
0000
0001
0000
,
0100
0000
0001
0000
0000
0010
0000
0000
0001
0000
0000
0010
0000
0000
0100
0000
,
1000
0000
0010
0000
0000
0100
0000
0000
0001
0000
0000
0100
0000
0000
0001
0000
,
1000
0000
0100
0000
0000
0010
0000
0000
0001
0000
0000
0010
0000
0000
0001
0000
,
0100
0000
0010
0000
0000
1000
0000
0000
0100
0000
0000
1000
0000
0000
0010
0000
,
0100
0000
0001
0000
0000
0100
0000
0000
0010
0000
0000
1000
0000
0000
0100
0000
,
1000
0000
0001
0000
0000
0010
0000
0000
0001
0000
0000
0100
0000
0000
0010
0000
,
1000
0100
1000
0001
0100
0001
0010
0000
,
0010
0001
0100
0010
0000
0100
0010
1000
,
0000
0010
0100
0001
0000
0010
0001
0100
,
0000
0010
1000
0010
0100
0001
1000
0001
,
0000
1000
0001
0000
0010
0100
0010
0000
,
2002
0000
0000
0000
,
0000
0000
0000
0000
,
0000
0000
0000
0000
,
3003
0000
0000
0000
,
0000
0000
0000
0000
;
#NOTES:
     dance-single:
     :
     Hard:
     14:
     :
0000
0000
0000
0000
,
0000
0000
0000
0000
,
0000
0000
0000
0000
,
0000
0000
0000
0000
,
0000
0000
0000
0000
,
0010
0000
0100
0000
1000
0010
0000
1000
0100
0000
0010
0001
0000
0100
0001
0000
,
0010
0000
0001
0000
0010
1000
0000
0010
0100
0000
1000
0010
0000
0001
0010
0000
,
1000
0000
0001
0000
0010
1000
0000
0010
0100
0000
1000
0010
0000
0001
0010
0000
,
0100
0000
0001
0000
0100
0010
0000
1000
0000
1000
0000
0100
0010
0000
0010
0000
,
0001
1000
0010
1010
0000
1000
0100
0110
,
0000
0001
0100
0110
0000
1000
0100
0110
,
0000
0001
0010
0100
1000
0010
0100
0001
,
0000
0000
1001
0000
1001
0000
0000
0000
1000
0010
1000
0000
0100
0000
0000
0000
,
1000
0000
0000
0100
0000
1000
0000
1100
0000
0000
0010
0000
0001
0000
0100
0010
,
0100
0001
1000
0100
0000
0010
0001
0010
,
0001
0000
0000
0100
0000
0001
0000
0101
0000
0000
1000
0000
0010
0000
0100
0001
,
0100
0001
0010
0100
0000
1000
0010
1000
,
0010
0000
0000
1000
0000
0001
0000
1001
0000
0000
0010
0000
0010
0000
0100
0000
,
0001
0000
1000
0010
0000
0100
0001
0100
,
0001
0000
0000
1000
0000
0001
0000
1001
0000
0000
0100
0000
0010
0000
0001
0000
,
1000
0000
0010
0100
0000
0001
0010
0000
,
0001
0100
0010
1000
0100
0010
0001
0011
,
0000
0100
0010
0100
0000
0000
0010
1000
,
0100
0010
0001
0010
0100
1000
0010
0110
,
0000
0000
0001
0000
1000
0000
1001
0000
0000
0000
0100
0000
0010
0000
1000
0010
,
1000
0000
1100
0000
0001
0010
0100
0010
,
0000
0001
1000
0100
0010
0001
0100
0100
,
0020
0000
0000
0000
0000
0000
1000
0000
1030
0000
0001
0000
0010
0100
1000
0000
,
0010
0000
1000
0000
0001
0010
0100
0000
0010
0001
0000
1000
0000
0000
0010
0000
,
1000
0000
1001
0000
0100
0010
1000
0010
,
0000
0000
1000
0000
0100
0010
0100
0000
0001
0000
0100
0010
0100
0000
1000
0000
,
0001
0100
1000
0000
1000
0100
0001
0100
,
0000
0110
0110
0000
0000
0000
0000
0000
,
1000
0000
0100
0001
0000
0000
0100
0000
0001
0000
0100
1000
0000
0000
0001
0000
,
0100
0000
1000
0100
0000
0000
0001
0000
1000
0100
1000
0000
0001
0000
0010
0000
,
0001
0000
0100
1000
0000
0000
0100
0000
1000
0000
0100
0001
0000
0000
1000
0000
,
0010
0100
0010
0000
0100
0000
0001
0000
1000
0000
0100
0010
0000
0010
0001
0000
,
1000
0000
0010
0100
0010
0000
1000
0000
0001
0000
0100
0010
0100
0000
0001
0000
,
1000
0100
0010
0100
1000
0100
0010
0001
,
2000
0000
0100
0000
3002
0000
0000
0203
,
0000
0310
0000
0100
0200
0000
0300
0000
,
0001
0000
0010
1000
0000
0000
0010
0000
1000
0000
0010
0001
0000
0000
1000
0000
,
0010
0000
0001
0010
0000
0000
1000
0000
0001
0010
0001
0000
1000
0000
0100
0000
,
1000
0000
0010
0001
0000
0000
0010
0000
0001
0000
0010
1000
0000
0000
0001
0000
,
0100
0010
0100
0000
0010
0000
1000
0000
0001
0000
0010
0100
0000
0100
1000
0000
,
0001
0000
0100
0010
0100
0000
0001
0000
1000
0000
0010
0100
0010
0000
1000
0000
,
0001
0010
0100
0010
0001
0010
0100
1000
,
0002
0013
0200
1300
,
0010
0000
0100
0001
0000
0100
0010
0000
1000
0100
0000
0010
0100
0000
1000
0000
,
0001
0000
0000
0000
0020
0000
0000
0000
0230
0000
0000
0000
0310
0000
0001
0100
,
0010
0000
0000
0110
0000
0000
1010
0000
0100
0000
0000
0011
0000
0000
0101
0000
,
2000
0000
0000
3200
0000
0000
0320
0000
0032
0000
0000
0203
0000
0000
0320
0000
,
2030
0000
0000
3200
0000
0000
0302
0000
0203
0000
0000
2300
0000
0000
3020
0000
,
0030
0000
0100
0001
0100
0000
0001
0000
1000
0000
0000
0010
0000
0000
1010
0000
,
0000
0000
0001
0100
0001
0000
1000
0000
0010
0000
0000
0100
0000
0000
0101
0000
,
1000
0000
0000
0000
0000
0000
0100
0010
0001
0000
0000
0000
1001
0000
0000
0000
,
0010
0000
1000
0000
0100
0010
0000
0010
0000
0010
0000
0010
0100
0000
0000
0000
,
1000
0000
0010
0100
0000
0100
0001
0000
0001
0010
0000
0010
0100
0000
1000
0000
,
0001
0000
0100
0010
0000
0010
1000
0000
1000
0100
0000
0100
0010
0000
0001
0000
,
0010
0000
0001
0100
0000
0000
0110
0000
0010
0000
1000
0100
0000
0000
0110
0000
,
0011
0000
0000
0000
1001
0000
0000
0000
1010
0000
0000
0100
0000
0000
0010
0000
,
0001
0000
0100
0000
0001
0000
1000
0100
1000
0000
0000
0000
0100
0000
0010
0001
,
0010
0000
0000
0000
0001
0000
0000
0000
1001
0000
0000
1100
0000
0000
0110
0000
,
0002
0000
0000
0000
0000
0000
1003
0000
0100
1000
0100
0000
0010
0000
0001
0000
,
0101
0000
0000
1010
0000
0000
1100
0000
0000
0011
0000
0000
0110
0000
0110
0000
,
0001
0000
0100
0000
0010
1000
0000
0010
0100
0000
0001
0010
0000
0001
0100
0000
,
0010
0000
1000
0000
0100
0010
0000
0100
1000
0000
0001
0100
0000
0001
0010
0000
,
0100
0000
1000
0000
0001
0010
0000
0001
1000
0000
0010
0100
0000
0010
1000
0000
,
0001
0000
1000
0000
0001
0100
0000
1000
0100
0000
0010
0100
0000
0001
0010
0000
,
0100
0000
0010
0000
0001
0100
0000
0001
0010
0000
0100
1000
0000
0010
1000
0000
,
0100
0000
1000
0000
0100
0001
0000
0100
0010
0000
0001
0100
0000
1000
0100
0000
,
0001
0000
1000
0000
0100
0001
0000
0100
0010
0000
0001
0100
0000
1000
0100
0000
,
0010
0000
1000
0000
0010
0100
0000
0001
0000
0001
0000
0010
0100
0000
0100
0000
,
1000
0001
0100
0101
0000
0001
0010
0110
,
0000
1000
0010
0110
0000
0001
0010
0110
,
0000
1000
0100
0010
0001
0100
0010
1000
,
0000
0000
1001
0000
1001
0000
0000
0000
0001
0100
0001
0000
0010
0000
0000
0000
,
0220
0000
0000
0000
,
0000
0000
0000
0000
,
0000
0000
0000
0000
,
0330
0000
0000
0000
,
0000
0000
0000
0000
;
#NOTES:
     dance-double:
     :
     Easy:
     6:
     :
00000000
00000000
00000000
00000000
,
00000000
00000000
00000000
00000000
,
00000000
00000000
00000000
00000000
,
00000000
00000000
00000000
00000000
,
00000000
00000000
00000000
00000000
,
00000001
00000001
00000100
00000100
,
00000010
00000010
00001000
00001000
,
00000100
00010000
00001000
00100000
,
00010000
00100000
01000000
01100000
,
10000000
10000000
01000000
01000000
,
00100000
00100000
00010000
00010000
,
01000000
00001000
00010000
00000100
,
00001000
00000010
00001000
00000000
00000000
00000000
00000000
00000000
,
00000220
00000000
00000000
00000330
,
00000001
00001000
00000100
00010000
,
00022000
00000000
00000000
00033000
,
00100000
00010000
01000000
00100000
,
02200000
00000000
00000000
03300000
,
10000000
00010000
00100000
00001000
,
00022000
00000000
00000000
00033000
,
00000010
00000000
00001000
00000000
00000010
00000100
00000010
00000000
,
00000100
00000001
00000010
00001000
,
00010000
00001000
00010000
00000000
,
00001000
00010000
00100000
10000000
,
01000000
00100000
01000000
00000000
,
00100000
00010000
00100000
00001000
,
00010000
00000100
00001000
00000100
,
00000020
00000000
00000000
00000001
00000031
00000000
00000000
00000000
,
00000100
00001000
00010000
00001000
,
00100000
00010000
01000000
00100000
,
10000000
00010000
01000000
00010000
,
00100000
00001000
00010000
00000100
,
00001000
00000010
00001000
00000000
00000000
00000000
00000000
00000000
,
00000001
00000100
00000010
00000110
,
00001000
00000100
00010000
00001000
,
01000000
00010000
00100000
01100000
,
10000000
00100000
01000000
00010000
,
00100000
00011000
00000100
00000110
,
00000001
00000010
00001000
00010000
,
00002000
00000000
00203000
00000000
,
00310000
10000000
20020000
30030000
,
10000000
01000000
00100000
01100000
,
00010000
01000000
00001000
00010000
,
00000100
00001000
00000010
00000110
,
00000001
00000010
00000100
00001000
,
00000010
00011000
01000000
01100000
,
10000000
00100000
00010000
00001000
,
00020000
00000000
00000000
00000000
00000000
00000000
00000000
00000000
00000000
00000000
00000000
00000000
00000000
00000000
00000000
00000000
00000000
00000000
00000000
00000000
00000000
00000000
00000000
00000000
00000000
00000000
00000000
00000000
00000000
00000000
00000000
00000000
00000000
00000000
00000000
00000000
00000000
00000000
00000000
00000000
00000000
00000000
00000000
00000000
00000000
00000000
00000000
00000000
00000000
00000000
00000000
00000000
00000000
00000000
00000000
00000000
00000000
00000000
00000000
00000000
00000000
00000000
00000000
00000000
00000000
00000000
00000000
00000000
00000000
00000000
00000000
00000000
00000000
00000000
00000000
00000000
00000000
00000000
00000000
00000000
00000000
00000000
00000000
00000000
00000000
00000000
00000000
00000000
00000000
00000000
00000000
00000000
00000000
00000000
00000000
00000000
00030020
00000000
00000000
00000000
00000000
00000000
00000000
00000000
00000000
00000000
00000000
00000000
00000000
00000000
00000000
00000000
00000000
00000000
00000000
00000000
00000000
00000000
00000000
00000000
00000000
00000000
00000000
00000000
00000000
00000000
00000000
00000000
00000000
00000000
00000000
00000000
00000000
00000000
00000000
00000000
00000000
00000000
00000000
00000000
00000000
00000000
00000000
00000000
00000000
00000000
00000000
00000000
00000000
00000000
00000000
00000000
00000000
00000000
00000000
00000000
00000000
00000000
00000000
00000000
00000000
00000000
00000000
00000000
00000000
00000000
00000000
00000000
00000000
00000000
00000000
00000000
00000000
00000000
00000000
00000000
00000000
00000000
00000000
00000000
00000000
00000000
00000000
00000000
00000000
00000000
00000000
00000000
00000000
00000000
00000000
00000030
,
00001000
00000001
00002002
00003003
,
00000100
00000000
00000010
00000000
,
00001000
00000000
00000100
00000000
,
00010000
00001000
00010000
01000000
,
10000000
00100000
01000000
00000000
,
00001000
00010000
00011000
00000000
,
00000010
00000100
00000110
00000000
,
00000002
00000000
00002003
00000000
,
00003100
00010000
00011000
00000000
,
00001000
00001000
00010000
01000000
,
10000000
10000000
00100000
00010000
,
00001000
00010000
00000100
00001000
,
00001001
00000010
00000110
00000001
,
00000100
00000000
00001000
00000000
,
00010000
00001000
00010000
00001000
,
02000000
00000000
03010000
10000000
,
10010000
00100000
01100000
00000000
,
10000000
10000000
00010000
00010000
,
00100000
00100000
00001000
00001000
,
00010000
00010000
00000010
00000010
,
00001000
00001000
00000001
00000001
,
00000100
00000100
00001000
00010000
,
00001000
00001000
00010000
01000000
,
10000000
00010000
01000000
00001000
,
00100000
00001000
00010000
00011000
,
00002000
00000000
00003200
00000000
,
00000302
00000000
00000023
00000000
,
00001030
00010000
01000000
10000000
,
00100000
01000000
00100000
00000000
00000000
00000000
00000000
00000000
,
00022000
00000000
00000000
00000000
,
00000000
00000000
00000000
00000000
,
00000000
00000000
00000000
00000000
,
00033000
00000000
00000000
00000000
,
00000000
00000000
00000000
00000000
;
#NOTES:
     dance-double:
     :
     Medium:
     11:
     :
00000000
00000000
00000000
00000000
,
00000000
00000000
00000000
00000000
,
00000000
00000000
00000000
00000000
,
00000000
00000000
00000000
00000000
,
00000000
00000000
00000000
00000000
,
00000001
00000000
00000100
00000000
00000000
00000001
00000000
00000000
00001000
00000000
00000000
00000100
00000000
00000000
00010000
00000000
,
00001000
00000000
00010000
00000000
00000000
00001000
00000000
00000000
00100000
00000000
00000000
00010000
00000000
00000000
10000000
00000000
,
01000000
00000000
10000000
00000000
00000000
00100000
00000000
00000000
01000000
00000000
00000000
00010000
00000000
00000000
00100000
00000000
,
00001000
00010000
00001000
00000000
00010000
00000100
00001000
00000000
,
00000100
00000001
00000100
00001000
00000000
00000010
00010000
00001000
,
00000000
00010000
01000000
10000000
00000000
00100000
01000000
00010000
,
00000000
00100000
00001000
00000000
00010000
00001000
00010000
00000100
,
00000000
00001000
00001000
00000000
00000001
00000000
00001000
00000000
,
00000100
00000000
00000000
00001000
00000000
00001000
00000000
00001000
00000000
00000000
00000000
00000000
00000000
00000000
00000000
00000000
,
00000100
00010000
00001000
00000000
00100000
00010000
00100000
01000000
,
10000000
00000000
00000000
00010000
00000000
00010000
00000000
00010000
00000000
00000000
00000000
00000000
00000000
00000000
00000000
00000000
,
00100000
00001000
00100000
00000000
00000100
00010000
00001000
00010000
,
00000010
00000000
00000000
00000100
00000000
00000100
00000000
00000100
00000000
00000000
00000001
00000000
00000001
00000000
00001000
00000000
,
00000100
00010000
00001000
00100000
,
00010000
00000000
00000000
01000000
00000000
01000000
00000000
01000000
00000000
00000000
00100000
00000000
10000000
00000000
00100000
00000000
,
01000000
00000000
00010000
00000000
00100000
00001000
00010000
00000000
,
00000010
00000000
00001000
00000000
00000001
00000100
00001000
00010000
,
00000000
00001000
00010000
00001000
00000000
00000000
00011000
00000000
,
01000000
00000000
00100000
00000000
10000000
01000000
00010000
00001000
,
00000000
00000000
00010000
00000100
00000000
00000000
00001010
00000000
,
00000001
00000000
00000101
00000000
00001000
00000001
00000010
00001000
,
00000000
00000000
00010000
00000000
00001000
00000000
00100000
00100000
,
00020000
00000000
00000000
10000000
10030000
00000000
00100000
00000000
,
01000000
00010000
01000000
00000000
00001000
00010000
00000100
00000000
,
00001000
00000000
00001001
00000000
00000000
00000010
00000001
00000100
,
00000000
00001000
00010000
00000000
00001000
00000000
00010000
00000000
,
01000000
00000000
10000000
00000000
00010000
01000000
00001000
00010000
,
00000000
00001000
00001000
00000000
00000000
00000000
00000000
00000000
,
00010000
00000100
00010000
00000000
00001000
01000000
00001000
00000000
,
00010000
00000000
00001000
00000000
00000100
00000010
00000100
00000000
,
00000001
00000010
00000001
00000000
00001000
00000100
00001000
00000000
,
00000100
00000000
00010000
00000000
00001000
00100000
00001000
00000000
,
01000000
00011000
00000100
00011000
,
00010000
01000000
10000000
00000000
00100000
10000000
01000000
00000000
,
00200000
00000000
00000000
00000000
00302000
00000000
00000000
00013000
,
00000000
00000010
00000000
00001000
00000200
00000000
00000300
00000000
,
00000010
00000000
00000000
00000001
00000000
00000000
00000100
00000000
00001000
00000000
00000000
00010000
00000000
00000000
00100000
00000000
,
10000000
00000000
00000000
01000000
00000000
00000000
00010000
00000000
01000000
00000000
00000000
10000000
00000000
00000000
00100000
00000000
,
10000000
00000000
00000000
00100000
00000000
00000000
00010000
00000000
00001000
00000000
00000000
00000100
00000000
00000000
00000001
00000000
,
00000010
00000000
00000000
00000001
00000000
00000000
00000100
00000000
00001000
00000000
00000000
00000100
00000000
00000000
00000001
00000000
,
00000010
00000000
00000000
00000010
00000000
00000000
00000100
00000000
00001000
00000000
00000000
00001000
00000000
00000000
00000100
00000000
,
00010000
00000000
00000000
00001000
00000000
00000000
00010000
00000000
00001000
00000000
00000000
00100000
00000000
00000000
00010000
00000000
,
01000000
00000000
11000000
00000000
,
00100000
00000000
00000000
00010000
00000000
00000000
10000000
00000000
01000000
00000000
00000000
00000000
01010000
00000000
00000000
00000000
,
00001000
00000000
00010000
00000000
00000100
00000000
00001000
00000010
,
00000100
00000001
00000010
00000100
,
00001000
00000010
00010000
00000000
00000100
01000000
00001000
00000000
,
00010000
00110000
10000000
10100000
,
01000000
00000000
10000000
00000000
00100000
00010000
00001000
00000000
,
00010000
00000000
00001000
00000000
00010000
00001000
00000010
00000000
,
00000001
00001000
00000100
00000110
,
00000001
00000100
00001000
00010000
00001000
00000000
00010000
00000000
,
00001000
00000000
00000000
00100000
00000000
00000000
00010000
00000000
00000000
00100000
00000000
00000000
01000000
00000000
10000000
00000000
,
00100000
00000000
00000000
01000000
00000000
00000000
00010000
00000000
00000000
01000000
00000000
00000000
00001000
00000000
00010000
00000000
,
00001000
00000000
00000000
00000100
00000000
00000000
00000100
00000000
00000001
00000000
00000000
00000010
00000000
00000000
00000010
00000000
,
00000100
00000000
00000000
00000000
00001100
00000000
00000000
00000000
00000001
00000000
00000000
00000010
00000000
00000000
00001000
00000000
,
00010000
00000000
00001000
00010000
00001000
00000000
00100000
00000000
,
00010000
01010000
10000000
11000000
,
00020000
00000000
00000000
01030000
00001000
00000000
00010000
00000000
,
00022000
00000000
00000000
00033000
,
00001000
00000000
00010000
00000000
00000000
00000100
00000000
00000000
00001000
00000000
00000000
00000100
00000000
00000000
00000010
00000000
,
00000001
00000000
00000100
00000000
00000000
00000001
00000000
00000000
00000010
00000000
00000000
00000100
00000000
00000000
00001000
00000000
,
00000100
00000000
00010000
00000000
00000000
00001000
00000000
00000000
00100000
00000000
00000000
00010000
00000000
00000000
00100000
00000000
,
01000000
00000000
10000000
00000000
00000000
00100000
00000000
00000000
01000000
00000000
00000000
00010000
00000000
00000000
01000000
00000000
,
00001000
00000000
00010000
00000000
00000000
00001000
00000000
00000000
00010000
00000000
00000000
00000100
00000000
00000000
00001000
00000000
,
00000100
00000000
00000010
00000000
00000000
00000001
00000000
00000000
00000100
00000000
00000000
00000010
00000000
00000000
00001000
00000000
,
00000100
00000000
00010000
00000000
00000000
00001000
00000000
00000000
01000000
00000000
00000000
00010000
00000000
00000000
01000000
00000000
,
00100000
10000000
00100000
00000000
10000000
01000000
00010000
00000000
,
00001000
00010000
00001000
00000100
00000000
00001000
00000100
00000001
,
00000000
00000010
00000001
00000010
00000000
00000001
00000100
00001000
,
00000000
00010000
00001000
00100000
00010000
01000000
00100000
10000000
,
00000000
00010000
01000000
00000000
00001000
00010000
00001000
00000000
,
00022000
00000000
00000000
00000000
,
00000000
00000000
00000000
00000000
,
00000000
00000000
00000000
00000000
,
00033000
00000000
00000000
00000000
,
00000000
00000000
00000000
00000000
;
#NOTES:
     dance-double:
     :
     Hard:
     14:
     :
00000000
00000000
00000000
00000000
,
00000000
00000000
00000000
00000000
,
00000000
00000000
00000000
00000000
,
00000000
00000000
00000000
00000000
,
00000000
00000000
00000000
00000000
,
10000000
00000000
00100000
00000000
01000000
00010000
00000000
01000000
00001000
00000000
00100000
00001000
00000000
00010000
00000100
00000000
,
00001000
00000000
00000010
00000000
00000100
00000001
00000000
00000100
00000010
00000000
00001000
00000100
00000000
00010000
00001000
00000000
,
01000000
00000000
00010000
00000000
10000000
00100000
00000000
10000000
01000000
00000000
00100000
00010000
00000000
00100000
00001000
00000000
,
00010000
00000000
00000010
00000000
00001000
00000100
00000000
00000010
00000000
00000010
00000000
00000001
00000100
00000000
00000100
00000000
,
00000001
00000010
00001000
00010000
00000000
00001000
00010000
01000000
,
00000000
10000000
00100000
00010000
00000000
00100000
00010000
00001000
,
00000000
00010000
00001000
00000100
00000001
00000010
00000100
00001000
,
00000000
00011000
00011000
00000000
00100000
00010000
10000000
00000000
,
01000000
00000000
00000000
00100000
00000000
01000000
00000000
01100000
00000000
00000000
00010000
00000000
00100000
00000000
00001000
00000000
,
00010000
00001000
00010000
00000100
00000000
00000010
00000001
00000010
,
00000100
00000000
00000000
00000010
00000000
00000100
00000000
00000110
00000000
00000000
00001000
00000000
00000100
00000000
00010000
00000000
,
00001000
00010000
00001000
00100000
00000000
01000000
10000000
01000000
,
10000000
00000000
00000000
00010000
00000000
10000000
00000000
10010000
00000000
00000000
00100000
00000000
00100000
00000000
00001000
00000000
,
00010000
00000000
00001000
00010000
00000000
00000100
00001000
00000010
,
00001000
00000000
00000000
00000001
00000000
00001000
00000000
00001001
00000000
00000000
00000100
00000000
00001000
00000000
00000100
00000000
,
00010000
00000000
00001000
01000000
00000000
00010000
00100000
00000000
,
01000000
10000000
00100000
01000000
00010000
00100000
00001000
00010000
,
00000000
00001000
00010000
00001000
00000000
00000000
00010000
00000100
,
00001000
00000001
00000010
00000100
00001000
00000100
00010000
00001000
,
00000000
00010000
00001000
00010000
00000000
00001000
00100000
00010000
,
01000000
00000000
01100000
00000000
10000000
01000000
00010000
00001000
,
00000000
00010000
00001000
00000100
00000001
00000010
00000100
00000100
,
00002000
00000000
00000000
00000010
00003010
00010000
00001000
00010000
,
00001000
00000000
01000000
00000000
00010000
00000000
00100000
00000000
00010000
10000000
00000000
00100000
00000000
00000000
01000000
00000000
,
00010000
00000000
00011000
00000000
00000010
00001000
00000100
00001000
,
00000000
00000001
00000100
00001000
00010000
00100000
10000000
00100000
,
00010000
00001000
00010000
00000000
00001000
00000100
00000010
00001000
,
00000000
00011000
00011000
00000000
00000000
00000000
00000000
00000000
,
00001000
00000000
00100000
00010000
00000000
00000000
00100000
00000000
00010000
00000000
10000000
01000000
00000000
00000000
10000000
00000000
,
00010000
00000000
00100000
00010000
00000000
00000000
01000000
00000000
00001000
00000000
00010000
00000000
00001000
00000000
00000000
00000000
,
00010000
00000000
00000100
00001000
00000000
00000000
00000100
00000000
00001000
00000000
00000001
00000010
00000000
00000000
00000001
00000000
,
00001000
00000000
00000100
00001000
00000000
00000000
00000010
00000000
00010000
00000000
00001000
00010000
00000000
00010000
00001000
00000000
,
01000000
00010000
01000000
00100000
10000000
01000000
00100000
01000000
,
10000000
00100000
00010000
00001000
00000010
00000001
00000100
00000010
,
00002000
00000000
00000001
00000000
00003200
00000000
00000000
00020300
,
00000000
00031000
00000000
00100000
00200000
00000000
00300000
00000000
,
00010000
00000000
01000000
10000000
00000000
00000000
01000000
00000000
00010000
00000000
00100000
00001000
00000000
00000000
00010000
00000000
,
00001000
00000000
00000100
00000010
00000000
00000000
00001000
00000000
00000001
00000000
00000100
00000000
00001000
00000000
00010000
00000000
,
00001000
00000000
00010000
01000000
00000000
00000000
10000000
00000000
01000000
00000000
00010000
00001000
00000000
00000000
00010000
00000000
,
00001000
00000000
00000010
00000100
00000000
00000000
00001000
00000000
00000001
00000000
00000100
00000000
00000010
00000000
00001000
00000000
,
00000100
00010000
00001000
00100000
00010000
00100000
01000000
10000000
,
00010000
01000000
00100000
10000000
01000000
00010000
00001000
00010000
,
00002000
00003100
00000002
00000013
,
00001000
00000000
00000001
00000100
00000000
00000010
00001000
00000000
00000100
00010000
00000000
00001000
00100000
00000000
00010000
00000000
,
10000000
00000000
02000000
00000000
03020000
00000000
00031000
00010000
,
00001000
00000000
00000000
00011000
00000000
00000000
00001100
00000000
00000001
00000000
00000000
00000011
00000000
00000000
00000110
00000000
,
00002000
00000000
00000000
00003200
00000000
00000000
00020300
00000000
00032000
00000000
00000000
00023000
00000000
00000000
02030000
00000000
,
23000000
00000000
00000000
30200000
00000000
00000000
00320000
00000000
00230000
00000000
00000000
20300000
00000000
00000000
30020000
00000000
,
00030000
00000000
00100000
00000000
00100000
00000000
00001000
00000000
00010000
00000000
00000000
00001000
00000000
00000000
00000100
00000000
,
00000000
00000000
00000001
00000000
00000001
00000000
00001000
00000000
00000001
00000000
00000000
00000010
00000000
00000000
00001000
00000000
,
00010000
00000000
00000000
00000000
00000000
00000000
00001000
00010000
00001000
00000000
00000000
00000000
00011000
00000000
00000000
00000000
,
00100000
00000000
00010000
00000000
10000000
00100000
00000000
00100000
00000000
00100000
00000000
00100000
01000000
00000000
00000000
00000000
,
00010000
00000000
10000000
01000000
00000000
01000000
00010000
00000000
00001000
00000000
00010000
00000000
00000100
00000000
00010000
00000000
,
00000010
00000000
00001000
00000100
00000000
00000100
00000010
00000000
00000001
00000000
00000100
00000000
00000001
00000000
00001000
00000000
,
00000010
00000000
00000100
00000010
00000000
00000000
00001000
00000000
00000100
00000000
00010000
00000100
00000000
00000000
00010000
00000000
,
00011000
00000000
00000000
00000000
01010000
00000000
00000000
00000000
11000000
00000000
00000000
00100000
00000000
00000000
00010000
00000000
,
01000000
00001000
01000000
00001000
00010000
00000000
00000100
00001000
,
00000010
00000000
00000000
00000000
00000100
00000000
00000000
00000000
00000011
00000000
00000000
00001100
00000000
00000000
00011000
00000000
,
00020000
00000000
00000000
00031000
00010000
01000000
10000000
00100000
,
01100000
00000000
00000000
01010000
00000000
00000000
00011000
00000000
00000000
00001100
00000000
00000000
00000101
00000000
00000101
00000000
,
00000001
00000000
00000010
00000000
00000100
00001000
00000000
00000100
00010000
00000000
00000010
00010000
00000000
00001000
01000000
00000000
,
00010000
00000000
00100000
00000000
01000000
10000000
00000000
01000000
00100000
00000000
00010000
01000000
00000000
00001000
00010000
00000000
,
00000100
00000000
00001000
00000000
00000001
00000010
00000000
00000001
00000100
00000000
00000010
00001000
00000000
00000010
00010000
00000000
,
00001000
00000000
00100000
00000000
00010000
01000000
00000000
00100000
10000000
00000000
00010000
00100000
00000000
00001000
00010000
00000000
,
00000010
00000000
00001000
00000000
00000001
00000100
00000000
00000001
00000010
00000000
00000100
00001000
00000000
00000100
00010000
00000000
,
00001000
00000000
00100000
00000000
00010000
01000000
00000000
10000000
01000000
00000000
00010000
10000000
00000000
00010000
00100000
00000000
,
00001000
00000000
00010000
00000000
00000100
00001000
00000000
00000100
00000001
00000000
00000100
00001000
00000000
00000010
00010000
00000000
,
00001000
00000000
00010000
00000000
01000000
00100000
00000000
00010000
00000000
00010000
00000000
01000000
00100000
00000000
00100000
00000000
,
10000000
01000000
00010000
00001000
00000000
00010000
00001000
00000010
,
00000000
00000001
00000100
00001000
00000000
00000100
00001000
00010000
,
00000000
00001000
00010000
00100000
10000000
01000000
00100000
00010000
,
00000000
00011000
00011000
00000000
00010000
00001000
00000100
00000000
,
00000220
00000000
00000000
00000000
,
00000000
00000000
00000000
00000000
,
00000000
00000000
00000000
00000000
,
00000330
00000000
00000000
00000000
,
00000000
00000000
00000000
00000000
;
