
//----- song ID: mida -----//
#TITLE:Midnight Amaretto;
#ARTIST:かめりあ;
#ARTISTTRANSLIT:Camellia;
#BANNER:Midnight Amaretto.png;
#BACKGROUND:Midnight Amaretto-bg.png;
#CDTITLE:./CDTitles/DANCERUSH STARDOM.png;
#MUSIC:Midnight Amaretto.ogg;
#SAMPLESTART:44.409;
#SAMPLELENGTH:15;
#BPMS:0=135;
#NOTES:
     dance-single:
     :
     Beginner:
     3:
     :
0000
0000
0000
0000
,
0000
0000
0000
0000
,
0000
0000
0000
0000
,
0000
0000
0000
0000
,
0000
0000
0000
0000
,
0001
0000
0001
0000
,
0010
0000
0010
0000
,
0100
0000
0100
0000
,
1001
0000
0000
0000
,
1000
0000
0100
0000
,
1000
0000
0100
0000
,
1000
0000
0010
0000
,
1000
0000
0000
0000
,
0001
0000
0010
0000
,
0001
0000
0010
0000
,
0001
0000
0100
0000
,
0001
0000
0000
0000
,
0010
0000
0100
0000
,
0010
0000
0100
0000
,
0001
0000
0100
0000
,
1000
0000
0000
0000
,
0010
0000
0100
0000
,
0010
0000
0100
0000
,
1000
0000
0100
0000
,
0001
0000
0000
0000
,
0001
0000
0001
0000
,
0010
0010
0010
0000
,
0100
0000
0100
0000
,
1000
1000
1000
0000
,
1000
0000
1000
0000
,
0010
0010
0010
0000
,
0100
0000
0100
0000
,
1001
0000
0000
0000
,
0000
0001
0000
0001
,
0000
1000
0000
1000
,
0000
0001
0000
0001
,
0000
1000
0000
1000
,
1000
0000
0100
0000
,
0001
0000
0100
0000
,
0001
0000
0010
0000
,
1000
0000
0010
0000
,
1001
0000
0000
0000
,
0001
0001
0001
0000
,
0010
0000
0100
0000
,
1000
1000
1000
0000
,
0010
0000
0100
0000
,
0001
0001
0100
0000
,
0010
0000
1000
0000
,
1000
1000
0100
0000
,
1001
0000
0000
0000
,
0001
0100
0001
0000
,
0020
0000
0030
0000
,
1000
0100
1000
0000
,
0020
0000
0030
0000
,
0001
0100
1000
0000
,
1000
0000
0100
0000
,
1000
0010
0001
0000
,
2002
0000
0000
0000
0000
0000
0000
3003
,
0000
0000
0000
0000
;
#NOTES:
     dance-single:
     :
     Easy:
     6:
     :
0000
0000
0000
0000
,
0000
0000
0000
0000
,
0000
0000
0000
0000
,
0000
0000
0000
0000
,
0000
0000
0000
0000
,
0001
0010
0100
1000
,
1000
0010
0100
0001
,
0001
1000
0001
1000
,
0010
0100
0020
0030
,
1000
0100
0010
0100
,
1000
0100
0010
0100
,
0010
0100
0001
0100
,
0001
1000
0001
1000
,
0001
0100
0010
0100
,
0001
0100
0010
0100
,
0001
0010
0100
1000
,
1000
0000
0001
0001
,
0010
0100
0010
0100
,
0010
0100
0010
0100
,
0010
0001
0100
1000
,
0010
0001
0100
1000
,
0010
0100
0010
0100
,
0010
1000
0100
0001
,
0100
0010
0001
0010
,
0200
0000
0020
0330
,
0001
0100
0010
1000
,
0001
0100
0001
1000
,
0100
0100
0010
0010
,
0001
1000
0010
0100
,
1000
0100
0010
0100
,
1000
0100
1000
0001
,
0010
0010
0100
1000
,
1000
0100
0010
1001
,
0001
0000
0001
0000
,
1000
0000
1000
0000
,
0010
0100
0010
0100
,
0010
0100
0010
0100
,
0010
0100
0001
0100
,
0100
0010
1000
0010
,
0010
1000
0001
0100
,
0010
0100
0001
1000
,
1001
0010
0100
0110
,
0001
0010
0001
0010
,
0002
0100
0100
0103
,
1100
0000
0101
0000
,
1000
0010
0100
0001
,
1000
0010
1000
0010
,
1000
0010
0100
0001
,
0101
0000
1100
0000
,
0101
0001
1000
1001
,
0010
0100
0010
1000
,
2200
0000
0000
3300
,
0100
0010
0100
0001
,
0202
0000
0000
0303
,
1000
0010
0100
0001
,
0001
0100
1000
0100
,
0001
0100
0010
1000
,
1000
0000
0002
0000
2000
0000
0000
3003
,
0000
0000
0000
0000
;
#NOTES:
     dance-single:
     :
     Medium:
     10:
     :
0000
0000
0000
0000
,
0000
0000
0000
0000
,
0000
0000
0000
0000
,
0000
0000
0000
0000
,
0000
0000
0000
0000
,
0010
0100
1000
0001
,
0100
0010
0001
1000
,
0001
0100
1000
0100
0001
0100
1000
0100
,
0001
0100
1000
0100
0001
1000
1001
0000
,
0001
0100
0010
1000
0001
0100
0010
1000
,
0001
1000
0001
1000
0001
0000
0010
0000
,
0001
0100
0001
0010
,
0001
1000
0010
0001
,
0020
1000
0100
0031
,
1000
0100
0010
0001
1000
0100
1000
0000
,
0001
0100
0010
1000
0001
0100
0010
0000
,
0200
1000
0010
0310
,
0100
1000
0001
1000
,
0010
0100
0010
0100
,
0001
1000
0001
1000
,
2200
3300
0202
0303
,
0100
0010
0010
1000
,
0101
0000
1100
0101
,
0100
0010
0001
1000
,
1001
0100
0220
0330
,
1000
0100
0010
0001
1000
0100
0010
0001
,
0100
1000
0001
0010
,
1000
0010
0100
0001
1000
0010
0100
0001
,
0200
1000
0301
1000
,
0001
0100
0010
1000
0001
0100
0010
1000
,
0100
0001
1000
0010
,
0001
0010
0100
1000
0001
0010
0100
1000
,
0002
0000
1003
0000
1001
0110
1001
0000
,
1001
0100
0010
0100
,
0010
0100
0010
0100
,
1001
0100
0010
0100
,
0010
0000
0100
0000
0001
1000
0001
0000
,
0200
0001
0010
1300
,
0020
0001
0100
1030
,
1000
0100
0001
0100
1000
0100
0001
0100
,
1000
0100
0001
0100
1000
0100
0001
0100
,
2000
0001
0200
3300
,
0001
0010
0100
1000
0001
1000
0001
1000
,
0010
0100
1000
0100
0010
0100
1000
0100
,
0001
0010
0100
1000
,
1000
0010
0100
0001
,
0200
0010
0001
0010
,
1000
0010
0001
0320
,
1000
0100
0001
1030
,
0001
0100
1000
0100
0001
1000
1001
0000
,
0010
0100
0001
0100
,
2200
3300
0202
0303
,
0100
1000
0001
1000
,
0202
0303
1100
0101
,
0200
0010
0001
1300
,
0001
0010
0100
1000
0010
0100
0001
0000
,
0100
0010
0001
1000
,
1001
0000
0110
0000
2002
0000
0000
3003
,
0000
0000
0000
0000
;
#NOTES:
     dance-single:
     :
     Hard:
     14:
     :
0000
0000
0000
0000
,
0000
0000
0000
0000
,
0000
0000
0000
0000
,
0000
0000
0000
0000
,
0000
0000
0000
0000
,
1001
0100
0000
0100
0000
0100
0000
0100
,
0000
0100
0000
0100
0000
0100
0000
0100
,
0010
1000
0010
1000
0100
0010
0100
0010
,
0001
0000
0100
0001
0000
0100
0001
0000
1000
0001
0000
1000
0001
0000
0000
0100
0000
0000
0100
0000
0000
0000
0000
0000
,
1001
0000
0000
0001
0000
0000
0100
0000
0000
0000
0000
0000
0001
0000
1000
0000
0000
0100
0000
0000
1000
0001
0000
1000
,
0001
0000
0000
0100
0000
0000
0010
0000
0000
0100
0000
0000
0001
0000
0010
0001
0000
0010
0002
0000
0000
0003
0000
0000
,
1001
0000
0000
1000
0000
0000
0100
0000
0000
0000
0000
0000
1000
0000
0001
0000
0000
0100
0000
0000
0001
0000
0000
0010
,
0200
0001
1000
0301
,
1001
0000
0000
0000
0000
0000
0110
0000
0000
0000
0000
0000
0010
0000
1000
0000
0000
0100
0000
0000
0110
0000
0000
0010
,
0001
0000
0010
0001
0000
0000
0100
0000
0010
0100
0000
0000
0010
0000
1000
0001
0000
1000
0002
0000
0000
0003
0000
0000
,
1001
0000
0000
0000
0000
0000
0110
0000
0000
0000
0000
0000
0010
0000
0001
0000
0000
0100
0000
0000
0010
0000
0000
2002
,
0000
0000
0000
3003
0000
0000
0001
1000
0001
1000
0001
1000
,
0001
0010
0001
0010
1000
0010
1000
0010
,
0001
0000
0000
0010
0000
0000
1000
0000
0000
0010
0000
0000
0001
0000
0100
0001
0000
0100
0001
0000
1000
0010
0000
1000
,
0010
1000
0010
1000
0100
1000
0100
1000
,
0010
0000
0000
1000
0000
0000
0100
0000
0000
1000
0000
0000
0010
0000
0100
0001
0000
1000
0000
0000
0001
1000
0000
0000
,
0001
0100
0010
1000
0001
0100
0010
1000
,
0001
0010
0100
1000
0001
0010
0100
1000
,
0001
0100
0010
1000
0001
0010
0100
1000
,
2002
0000
0000
0000
0000
0000
0000
0000
0000
0000
0000
0000
3003
0000
0000
1001
0000
0000
0000
0000
1001
0000
0000
0000
,
0010
0000
0000
0100
0000
0000
0001
0000
0000
0010
0000
0000
0100
0000
1000
0000
0000
0100
0000
0000
1000
0010
0000
1000
,
0010
0000
0000
0100
0000
0000
0001
0000
0000
0010
0000
0000
0100
0000
0010
0100
0000
0010
0000
0000
0010
0100
0000
1000
,
0001
0000
0000
0100
0000
0000
0010
0000
0000
1000
0000
0000
0001
0000
0010
0000
0000
0001
0000
0000
0100
0010
0000
0100
,
0010
0000
0000
1000
0000
0000
0100
0000
0000
0010
0000
0000
0001
0000
1000
0010
0000
1000
0000
0000
0001
0100
0000
0000
,
0010
0100
0010
0100
0001
0100
1000
0100
,
0001
0000
0000
1000
0000
0001
0010
0000
0001
0010
0000
0001
1000
0000
0001
1000
0000
0010
1000
0000
0010
1000
0000
0001
,
1000
0100
0001
0100
1000
1000
0001
0001
,
0220
0000
0000
0330
0000
0000
0010
0010
0010
0010
0010
0010
,
0010
1000
0000
1000
0000
1000
0000
1000
,
0010
0001
0000
0001
0000
0001
0000
0001
,
0100
1000
0000
1000
0000
1000
0000
1000
,
0100
0001
0000
0001
0000
0001
0000
0001
,
1001
0110
1010
0101
,
1001
0110
0011
1100
,
0001
0000
0000
0010
0000
0000
1000
0000
0000
0010
0000
0000
0001
0000
0100
0000
0000
0010
0000
0000
1000
0000
0000
0001
,
1000
0000
0100
1000
0000
0100
1000
0000
0100
0010
0000
0100
0010
0000
0001
0010
0000
0001
0010
0000
0001
1000
0000
0000
,
0010
0010
0010
0100
0100
0100
2002
0000
0000
3003
0000
0000
,
0010
0000
0000
0100
0000
0000
1001
0000
0000
0000
0000
0000
0010
0000
0100
0000
0000
1001
0000
0000
1000
0100
0000
0010
,
0001
0000
0000
0100
0000
0000
0010
0000
0000
0100
0000
0000
0001
0000
1000
0001
0000
1000
0002
0000
0000
0003
0000
0000
,
0100
0000
0000
0010
0000
0000
1001
0000
0000
0000
0000
0000
0100
0000
0010
0000
0000
1001
0000
0000
0110
0000
0000
0001
,
2000
0100
0002
3003
,
1001
0000
0000
0000
0000
0000
0110
0000
0000
0000
0000
0000
0001
0000
0010
0000
0000
0100
0000
0000
1000
0000
0000
0010
,
0100
0000
0010
0100
0000
0000
0001
0000
1000
0100
0000
0010
0001
0000
1000
0001
0000
1000
0002
0000
0000
0003
0000
0000
,
1001
0000
0000
0000
0000
0000
0110
0000
0000
0000
0000
0000
0001
0000
0100
0000
0000
0010
0000
0000
1000
0000
0000
1001
,
0000
0000
0000
0001
0000
0000
0011
0000
0000
1000
0000
0000
1010
0000
0001
0000
0000
2002
0000
0000
0000
3003
0000
0000
,
0010
0000
0000
0100
0000
0000
1001
0000
0000
0000
0000
0000
0001
0000
1000
0000
0000
0110
0000
0000
0010
1000
0000
0100
,
0010
0000
0000
0001
0000
0000
0010
0000
0000
0100
0000
0000
0010
0000
0001
1000
0000
0001
2000
0000
0000
3000
0000
0000
,
1000
0000
0000
0001
0000
0000
0110
0000
0000
0000
0000
0000
0010
0000
0100
0000
0000
1001
0000
0000
0010
0001
0000
0100
,
0010
0000
0000
1000
0000
0000
0010
0000
0000
0100
0000
0000
0001
0000
0000
0100
0000
0000
0010
0000
1000
0100
0000
1000
,
0100
0000
0000
0010
0000
0000
1001
0000
0000
0000
0000
0000
1000
0000
0100
0000
0000
0010
0000
0000
0011
0000
0000
0001
,
0100
0000
0001
0100
0000
0000
1000
0000
0100
0001
0000
0010
0100
0000
0010
0100
0000
0010
0200
0000
0000
0300
0000
0000
,
0011
0000
0000
0001
0000
0000
0101
0000
0000
1000
0000
0000
0010
0000
0100
0000
0000
0001
0000
0000
1000
0000
0000
0220
,
0000
0000
0000
0000
0000
0000
0000
0000
0000
0330
0000
0000
0010
0000
0010
0000
0010
0000
0010
0000
0000
1001
0000
0000
,
0000
0000
0000
0000
;
#NOTES:
     dance-double:
     :
     Easy:
     6:
     :
00000000
00000000
00000000
00000000
,
00000000
00000000
00000000
00000000
,
00000000
00000000
00000000
00000000
,
00000000
00000000
00000000
00000000
,
00000000
00000000
00000000
00000000
,
00010000
00100000
01000000
10000000
,
10000000
00100000
01000000
00010000
,
00010000
00100000
00001000
00010000
,
00000100
00001000
00000020
00000030
,
00010000
00001000
00010000
00001000
,
00010000
00001000
00010000
00001000
,
00000010
00000100
00000001
00000100
,
00001000
00010000
00001000
00010000
,
00000010
00010000
00001000
00010000
,
00001000
01000000
00001000
00010000
,
00001000
00010000
00100000
01000000
,
10000000
00000000
00010000
00010000
,
00100000
01000000
00100000
01000000
,
00001000
00010000
00001000
00010000
,
00001000
00000100
00010000
01000000
,
00001000
00000010
00010000
00100000
,
00001000
00010000
00001000
00010000
,
00001000
00000010
00010000
00100000
,
00001000
00000010
00001000
00010000
,
00002000
00000000
00020000
00033000
,
00001000
00100000
00010000
01000000
,
00010000
10000000
00010000
00100000
,
00010000
00010000
00001000
00001000
,
00000010
00001000
00000001
00000100
,
00001000
00000100
00000010
00000100
,
00010000
00001000
00100000
00010000
,
00100000
00100000
10000000
10000000
,
10000000
01000000
00010000
00011000
,
00001000
00000000
00001000
00000000
,
00010000
00000000
00010000
00000000
,
00001000
00010000
00001000
00010000
,
00001000
00010000
00001000
00010000
,
00000100
00001000
00000010
00001000
,
00001000
00000100
00010000
00000100
,
00000100
00010000
00001000
01000000
,
00010000
01000000
00100000
10000000
,
10010000
00100000
01000000
01100000
,
00001000
00010000
00001000
00010000
,
00000020
00000100
00000100
00000130
,
00001100
00000000
00000101
00000000
,
00010000
00001000
01000000
00010000
,
10000000
00100000
10000000
00100000
,
10000000
00100000
01000000
00001000
,
00011000
00000000
01010000
00000000
,
00011000
00001000
00010000
00011000
,
00001000
00010000
00001000
01000000
,
02020000
00000000
00000000
03030000
,
01000000
00001000
00010000
00000100
,
00002200
00000000
00000000
00003300
,
00020000
00001000
00001000
00031000
,
00001000
00010000
00100000
00010000
,
00002000
00010000
00010000
00013000
,
00000100
00000000
00000002
00000000
00002000
00000000
00000000
00003003
,
00000000
00000000
00000000
00000000
;
#NOTES:
     dance-double:
     :
     Medium:
     10:
     :
00000000
00000000
00000000
00000000
,
00000000
00000000
00000000
00000000
,
00000000
00000000
00000000
00000000
,
00000000
00000000
00000000
00000000
,
00000000
00000000
00000000
00000000
,
00001000
00000010
00000001
00000100
,
00001000
00010000
00100000
10000000
,
00010000
01000000
00100000
01000000
00001000
00010000
00000100
00001000
,
00000001
00000100
00001000
00000100
00000001
00000000
00001001
00000000
,
00000001
00000100
00000010
00001000
00000100
00010000
00001000
00100000
,
00001000
00010000
00001000
00010000
00001000
00000000
00100000
00000000
,
00010000
01000000
00010000
00100000
,
00010000
10000000
00100000
00010000
,
00002000
00100000
00010000
01003000
,
00010000
00000100
00001000
00000100
00000010
00000001
00000010
00000000
,
00000001
00000100
00000010
00001000
00000001
00000100
00000010
00000000
,
00000200
00001000
00000010
00000310
,
00001000
00010000
00000010
00010000
,
00001000
00010000
00001000
00010000
,
01000000
00100000
01000000
00000000
,
22000000
33000000
02020000
03030000
,
00100000
00001000
00001000
00010000
,
00011000
00000000
01010000
00011000
,
00000100
00000010
00000001
00001000
,
00001001
00010000
00022000
00033000
,
10000000
01000000
00100000
00010000
10000000
01000000
00100000
00010000
,
20000000
30200000
00320000
00031000
,
00010000
00000100
00000010
00000001
00001000
00000100
00000010
00000001
,
00000200
00001000
00000301
00001000
,
00000001
00000100
00000010
00001000
00000001
00000100
00000010
00001000
,
00000002
00000023
00002030
00013000
,
00001000
01000000
00100000
10000000
00010000
01000000
00100000
10000000
,
00020000
00000000
10030000
00000000
10010000
01100000
10010000
00000000
,
10010000
01000000
00100000
01000000
,
00001000
00010000
00001000
00010000
,
00011000
00000100
00000010
00000100
,
00000010
00000000
00000001
00000000
00001000
00000001
00001000
00000000
,
00000200
00000010
00001000
00001300
,
00020000
00001000
01000000
01030000
,
10000000
01000000
00010000
01000000
10000000
01000000
00010000
00000000
,
00001000
00000100
00000001
00000100
00001000
00000100
00000001
00000000
,
00002000
00000001
00000200
00003300
,
00000001
00000010
00000100
00001000
00000010
00010000
00000010
00010000
,
00001000
00100000
00010000
00100000
01000000
00100000
00010000
00100000
,
00010000
00100000
01000000
10000000
,
01000000
00010000
00001000
00000000
,
02000000
00100000
00010000
00100000
,
10000000
00100000
00010000
03002000
,
01000000
00010000
00000100
00013000
,
00000100
00001000
00010000
00001000
00000100
00010000
00011000
00000000
,
00000010
00000100
00000001
00000100
,
00002200
00003300
00000202
00000303
,
00010000
00001000
00000100
00001000
,
00022000
00033000
01010000
00011000
,
02000000
00100000
00010000
13000000
,
00100000
01000000
00010000
00100000
00001000
00010000
00000100
00000000
,
00001000
00000010
00000001
00000100
,
00011000
00000000
00011000
00000000
00022000
00000000
00000000
00033000
,
00000000
00000000
00000000
00000000
;
#NOTES:
     dance-double:
     :
     Hard:
     14:
     :
00000000
00000000
00000000
00000000
,
00000000
00000000
00000000
00000000
,
00000000
00000000
00000000
00000000
,
00000000
00000000
00000000
00000000
,
00000000
00000000
00000000
00000000
,
00011000
00000100
00000000
00000100
00000000
00000100
00000000
00000100
,
00011000
01000000
00000000
01000000
00000000
01000000
00000000
01000000
,
00010000
00100000
10000000
01000000
00010000
00001000
00000010
00000001
,
00001000
00000000
00000001
00000000
00001000
00000000
00000001
00000000
00001000
00000000
00000001
00000000
00001000
00000000
00000000
00000100
00000000
00000000
00000100
00000000
00000000
00000000
00000000
00000000
,
00001001
00000000
00000000
00000001
00000000
00000000
00000100
00000000
00000000
00000000
00000000
00000000
00000001
00000000
00001000
00000000
00000000
00000100
00000000
00000000
00010000
00001000
00000000
00010000
,
00001000
00000000
00000000
00010000
00000000
00000000
00100000
00000000
00000000
10000000
00000000
00000000
00100000
00000000
00000000
00010000
00000000
00000000
00100000
00000000
01000000
00000000
00000000
00000000
,
10010000
00000000
00000000
10000000
00000000
00000000
01000000
00000000
00000000
00000000
00000000
00000000
10000000
00000000
00010000
00000000
00000000
01000000
00000000
00000000
00001000
00000000
00000000
00000200
,
00000000
00000001
00001000
00000301
,
00001001
00000000
00000000
00000000
00000000
00000000
00000110
00000000
00000000
00000000
00000000
00000000
00000001
00000000
00000010
00000000
00000000
00001000
00000000
00000000
00010000
00000000
00000000
01000000
,
00000000
00000000
01000000
10000000
00000000
00000000
00100000
00000000
00000000
01000000
00000000
00000000
00010000
00000000
10000000
00010000
00000000
10000000
00020000
00000000
00000000
00030000
00000000
00000000
,
10010000
00000000
00000000
00000000
00000000
00000000
01100000
00000000
00000000
00000000
00000000
00000000
00010000
00000000
00001000
00000000
00000000
00000100
00000000
00000000
00000001
00000000
00000000
00002002
,
00000000
00000000
00000000
00003003
00000000
00000000
00000001
00001000
00000001
00001000
00000001
00001000
,
00000001
00000010
00001000
00000010
00000001
00000100
00001000
00010000
,
00100000
00010000
00001000
00010000
01000000
10000000
00010000
00010000
,
10000000
00100000
00010000
00100000
10000000
01000000
00010000
00001000
,
00000010
00001000
00010000
00001000
00000100
00000001
00001000
00001000
,
00000001
00000100
00001000
00000100
00000001
00000010
00001000
00010000
,
01000000
00100000
00001000
00010000
01000000
00100000
00010000
10000000
,
10000000
01000000
00010000
01000000
10000000
00100000
00001000
00000010
,
00002002
00000000
00000000
00000000
00000000
00000000
00000000
00000000
00000000
00000000
00000000
00000000
00003003
00000000
00000000
00001001
00000000
00000000
00000000
00000000
00001001
00000000
00000000
00000000
,
00000001
00000000
00000000
00000100
00000000
00000000
00010000
00000000
00000000
00000100
00000000
00000000
00000010
00000000
00000000
00010000
00000000
00000000
00001000
00000000
00010000
00001000
00000000
00000000
,
00010000
00000000
00000000
01000000
00000000
00000000
10000000
00000000
00000000
01000000
00000000
00000000
00100000
00000000
00000000
01000000
00000000
00100000
00000000
00000000
01000000
00100000
00000000
00000000
,
00010000
01000000
00100000
00001000
00000010
00010000
00000100
00001000
,
00000010
00000000
00000000
00000001
00000000
00000000
00000010
00000000
00000000
00001000
00000000
00000000
00000100
00000000
00000000
00000010
00000000
00000100
00000000
00000000
00000010
00000100
00000000
00000000
,
00000001
00000100
00001000
00000100
00000001
00000100
00001000
00000001
,
00000100
00000000
00000000
00000010
00000000
00000000
00010000
00000000
00000000
00001000
00000000
00000000
00100000
00000000
00001000
00100000
00000000
00000000
00001000
00000000
00010000
00001000
00000000
00000000
,
00010000
01000000
10000000
01000000
00001000
01000000
00100000
00001000
,
00022000
00000000
00000000
00033000
00000000
00000000
00010000
00010000
00010000
00010000
00010000
00010000
,
00000000
01000000
00000000
01000000
00000000
00000100
00000000
00000100
,
00000000
01000000
00000000
00000100
00000000
01000000
00000000
00000100
,
00000000
00100000
00000000
00100000
00000000
00000010
00000000
00000010
,
00000000
00100000
00000000
00000010
00000000
00100000
00000000
00000010
,
00000110
00000110
00000011
00001010
,
00011000
00011000
00110000
01010000
,
00100000
00000000
00000000
10000000
00000000
00000000
01000000
00000000
00000000
00010000
00000000
00000000
00001000
00000000
00010000
00000000
00000000
00100000
00000000
00000000
00010000
00000000
00000000
00001000
,
00000100
00000000
00000001
00000100
00000000
00000000
00000001
00000000
00000010
00000001
00000000
00000000
00001000
00000000
00000010
00001000
00000000
00000010
00010000
00000000
00001000
00010000
00000000
00000000
,
00001000
00001000
00001000
00010000
00010000
00010000
00022000
00000000
00000000
00033000
00000000
00000000
,
00100000
00000000
00000000
01000000
00000000
00000000
10010000
00000000
00000000
00000000
00000000
00000000
00100000
00000000
01000000
00000000
00000000
10010000
00000000
00000000
00100000
01000000
00000000
00000000
,
00001000
00000000
00000000
00010000
00000000
00000000
01000000
00000000
00000000
00001000
00000000
00000000
00000100
00000000
00000000
00010000
00000000
00000000
01000000
00000000
00001000
00000000
00000000
00000000
,
00000010
00000000
00000000
00000100
00000000
00000000
00001001
00000000
00000000
00000000
00000000
00000000
00000010
00000000
00000100
00000000
00000000
00001001
00000000
00000000
00000110
00000000
00000000
00001000
,
00020000
00000100
02000000
03030000
,
10010000
00000000
00000000
00000000
00000000
00000000
01100000
00000000
00000000
00000000
00000000
00000000
10000000
00000000
00100000
00000000
00000000
01000000
00000000
00000000
00010000
00000000
00000000
00001000
,
00000000
00000000
00001000
00000010
00000000
00000000
00000100
00000000
00000000
00000001
00000000
00000000
00001000
00000000
00000001
00001000
00000000
00000001
00002000
00000000
00000000
00003000
00000000
00000000
,
00001001
00000000
00000000
00000000
00000000
00000000
00000110
00000000
00000000
00000000
00000000
00000000
00000001
00000000
00000010
00000000
00000000
00000100
00000000
00000000
00001000
00000000
00000000
00010000
,
00000000
00000000
00000000
00100000
00000000
00000000
01100000
00000000
00000000
10000000
00000000
00000000
10100000
00000000
00010000
00000000
00000000
20020000
00000000
00000000
00000000
30030000
00000000
00000000
,
10000000
00000000
00000000
00100000
00000000
00000000
00010000
00000000
00000000
00001000
00000000
00000000
00010000
00000000
01000000
00000000
00000000
00010000
00000000
00000000
00001000
00000010
00000000
00000000
,
00000001
00000000
00000000
00000001
00000000
00000000
00000100
00000000
00000000
00000100
00000000
00000000
00001000
00000000
00010000
00001000
00000000
00020000
00000000
00000000
00000000
00030000
00000000
00000000
,
01000000
00000000
00000000
10000000
00000000
00000000
01100000
00000000
00000000
00000000
00000000
00000000
01000000
00000000
10000000
00000000
00000000
00100000
00000000
00000000
00010000
00000000
00000000
00001000
,
00000010
00010000
00100000
00001000
00000010
00010000
00100000
00001000
,
00000110
00000000
00000000
00000000
00000000
00000000
00001001
00000000
00000000
00000000
00000000
00000000
00000001
00000000
00000100
00000000
00000000
00001000
00000000
00000000
00011000
00000000
00000000
00010000
,
00000000
00000000
00010000
01000000
00000000
00000000
10000000
00000000
00000000
00100000
00000000
00000000
10000000
00000000
00010000
10000000
00000000
00010000
20000000
00000000
00000000
30000000
00000000
00000000
,
10000000
00000000
00000000
00100000
00000000
00000000
00010000
00000000
00000000
00010000
00000000
00000000
00001000
00000000
00000100
00000000
00000000
00000001
00000000
00000000
00000010
00000000
00000000
00000220
,
00000000
00000000
00000000
00000000
00000000
00000000
00000000
00000000
00000000
00000330
00000000
00000000
00000010
00000000
00000010
00000000
00000010
00000000
00000010
00000000
00000000
00001001
00000000
00000000
,
00000000
00000000
00000000
00000000
;
